osu file format v14

[General]
AudioFilename: audio.mp3
AudioLeadIn: 0
PreviewTime: 35730
Countdown: 0
SampleSet: Soft
StackLeniency: 0.7
Mode: 0
LetterboxInBreaks: 0
WidescreenStoryboard: 1

[Editor]
Bookmarks: 1230,13230,23730,34230,35730,47167,47730,59730,64792,65730,70230,80730,82230,86730,88230,93667,106042,117480,117855
DistanceSpacing: 0.8
BeatDivisor: 4
GridSize: 32
TimelineZoom: 2.899999

[Metadata]
Title:A Bella! (feat. Lucy)
TitleUnicode:A Bella! (feat. Lucy)
Artist:M2U
ArtistUnicode:M2U
Creator:Okoratu
Version:Insane
Source:하이파이브
Tags:high5 diversity. uicy-15598 drug step square musiq original soundtrack ost pnix games Electronic Video Game Other Latin Melwoine Okorin Battle Celektus
BeatmapID:2532014
BeatmapSetID:1158767

[Difficulty]
HPDrainRate:5
CircleSize:4
OverallDifficulty:7
ApproachRate:9
SliderMultiplier:1.6
SliderTickRate:1

[Events]
//Background and Video events
0,0,"37991860_p0_master1200.jpg",0,0
//Break Periods
2,59939,63640
//Storyboard Layer 0 (Background)
//Storyboard Layer 1 (Fail)
//Storyboard Layer 2 (Pass)
//Storyboard Layer 3 (Foreground)
//Storyboard Layer 4 (Overlay)
//Storyboard Sound Samples

[TimingPoints]
-260,375,4,2,1,62,1,0
490,-1000,4,2,1,62,0,0
865,-76.9230769230769,4,2,1,62,0,0
1240,-90.9090909090909,4,2,1,62,0,0
5927,-76.9230769230769,4,2,1,62,0,0
6302,-90.9090909090909,4,2,1,62,0,0
12865,-66.6666666666667,4,2,1,62,0,0
13240,-111.111111111111,4,2,1,62,0,0
18302,-200,4,2,1,62,0,0
18490,-111.111111111111,4,2,1,62,0,0
19615,-111.111111111111,4,2,1,62,0,0
21302,-76.9230769230769,4,2,1,62,0,0
22240,-100,4,2,1,62,0,0
22615,-76.9230769230769,4,2,1,62,0,0
23177,-83.3333333333333,4,2,1,62,0,0
23365,-76.9230769230769,4,2,1,62,0,0
28240,-90.9090909090908,4,2,1,62,0,0
28802,-76.9230769230769,4,2,1,62,0,0
29365,-66.6666666666667,4,2,1,62,0,0
29740,-76.9230769230769,4,2,1,62,0,0
33677,-66.6666666666667,4,2,1,62,0,0
33865,-66.6666666666667,4,2,1,76,0,0
34240,-76.9230769230769,4,2,1,62,0,0
34802,-50,4,2,1,62,0,0
35083,-50,4,2,1,42,0,0
35177,-55.5555555555556,4,2,1,82,0,0
35740,-62.5,4,2,1,73,0,1
39302,-58.8235294117647,4,2,1,73,0,1
39583,-66.6666666666667,4,2,1,73,0,1
40240,-83.3333333333333,4,2,1,73,0,1
40802,-66.6666666666667,4,2,1,73,0,1
41177,-76.9230769230769,4,2,1,73,0,1
41365,-52.6315789473684,4,2,1,73,0,1
41740,-66.6666666666667,4,2,1,73,0,1
43802,-66.6666666666667,4,2,1,73,0,1
47177,-100,4,2,1,73,0,0
47740,-66.6666666666667,4,2,1,73,0,1
49240,-66.6666666666667,4,2,1,73,0,1
50740,-66.6666666666667,4,2,1,73,0,1
52240,-100,4,2,1,73,0,1
52427,-58.8235294117647,4,2,1,73,0,1
52615,-50,4,2,1,73,0,1
53177,-71.4285714285714,4,2,1,73,0,1
53365,-50,4,2,1,73,0,1
53740,-66.6666666666667,4,2,1,73,0,1
59365,-66.6666666666667,4,2,1,73,0,1
59740,-100,4,2,1,62,0,0
59927,-100,4,2,1,62,0,0
63677,-142.857142857143,4,2,1,62,0,0
64240,-133.333333333333,4,2,1,100,0,0
64802,-76.9230769230769,4,2,1,62,0,0
65365,-76.9230769230769,4,2,1,82,0,0
65740,-100,4,2,1,54,0,0
69490,-83.3333333333333,4,2,1,62,0,0
74740,-90.9090909090909,4,2,1,62,0,0
75865,-83.3333333333333,4,2,1,62,0,0
80365,-55.5555555555556,4,2,1,92,0,0
80740,-83.3333333333333,4,2,1,62,0,0
81302,-50,4,2,1,62,0,0
81583,-50,4,2,1,42,0,0
81677,-55.5555555555556,4,2,1,82,0,0
82240,-66.6666666666667,4,2,1,73,0,1
86740,-100,4,2,1,73,0,0
87490,-55.5555555555556,4,2,1,73,0,0
88240,-66.6666666666667,4,2,1,73,0,1
93490,-83.3333333333333,4,2,1,73,0,1
93677,-100,4,2,1,73,0,1
94240,-66.6666666666667,4,2,1,73,0,1
98740,-83.3333333333333,4,2,1,73,0,1
98927,-66.6666666666667,4,2,1,73,0,1
99115,-52.6315789473684,4,2,1,73,0,1
99302,-50,4,2,1,73,0,1
99677,-58.8235294117647,4,2,1,73,0,1
99865,-50,4,2,1,73,0,1
100240,-66.6666666666667,4,2,1,73,0,1
105865,-62.5,4,2,1,73,0,1
106052,-100,4,2,1,60,0,0
106240,-142.857142857143,4,2,1,60,0,0
111865,-83.3333333333333,4,2,1,60,0,0
112240,-142.857142857143,4,2,1,60,0,0
115240,-83.3333333333333,4,2,1,60,0,0
116740,-66.6666666666667,4,2,1,60,0,0
117115,-83.3333333333333,4,2,1,60,0,0
117490,-52.6315789473684,4,2,1,60,0,0

[Colours]
Combo1 : 201,84,102
Combo2 : 114,192,119
Combo3 : 150,203,217
Combo4 : 245,238,158
Combo5 : 244,158,76

[HitObjects]
60,222,865,6,0,P|149:228|246:230,1,155.999992858887,2|0,1:2|0:0,0:0:0:0:
297,274,1240,6,0,P|301:220|319:176,1,88.000002685547,14|2,1:2|1:3,0:0:0:0:
457,104,1615,1,2,1:3:0:0:
397,236,1802,2,0,P|442:244|499:245,1,88.000002685547,10|0,1:2|1:0,0:0:0:0:
484,245,2083,1,2,1:2:0:0:
484,245,2177,1,0,1:0:0:0:
437,135,2365,1,10,1:2:0:0:
391,329,2552,1,2,1:3:0:0:
302,233,2740,6,0,P|241:232|194:242,1,88.000002685547,14|2,1:2|1:2,0:0:0:0:
86,320,3115,1,2,1:3:0:0:
126,95,3302,2,0,L|141:301,1,176.000005371094,10|2,1:2|1:3,0:0:0:0:
46,180,3865,1,8,1:2:0:0:
225,144,4052,1,2,1:3:0:0:
225,144,4146,1,0,1:0:0:0:
225,144,4240,5,8,1:2:0:0:
221,30,4427,1,0,1:0:0:0:
203,243,4615,1,2,1:3:0:0:
324,95,4802,2,0,P|392:88|479:96,1,132.00000402832,10|0,1:2|1:2,0:0:0:0:
470,109,5177,1,2,1:3:0:0:
346,201,5365,1,10,1:2:0:0:
434,329,5552,1,2,1:2:0:0:
434,329,5646,1,2,1:2:0:0:
434,329,5740,6,0,L|442:232,1,88.000002685547,8|2,1:2|1:0,0:0:0:0:
347,129,6115,2,0,L|342:208,1,51.999997619629,8|2,1:2|1:2,0:0:0:0:
251,299,6302,2,0,L|137:307,1,88.000002685547,0|8,1:0|1:2,0:0:0:0:
52,255,6677,1,2,1:2:0:0:
52,255,6771,1,2,1:2:0:0:
52,255,6865,1,8,1:2:0:0:
257,166,7052,1,4,1:2:0:0:
110,128,7240,5,14,1:2:0:0:
266,27,7427,1,2,1:2:0:0:
240,241,7615,1,2,1:3:0:0:
214,115,7802,2,0,P|284:125|335:123,1,88.000002685547,10|0,1:2|1:0,0:0:0:0:
336,130,8083,1,0,1:0:0:0:
336,130,8177,2,0,L|326:238,1,88.000002685547,2|8,1:2|1:2,0:0:0:0:
322,328,8552,1,2,1:3:0:0:
405,285,8740,5,8,1:2:0:0:
404,83,8927,1,2,1:2:0:0:
481,176,9115,2,0,L|425:182,1,44.0000013427735,6|0,1:0|0:0,0:0:0:0:
255,260,9302,2,2,L|128:262,1,88.000002685547,10|0,1:2|0:0,0:3:0:0:
167,261,9583,1,2,1:2:0:0:
167,261,9677,1,2,1:2:0:0:
243,67,9865,1,10,1:2:0:0:
108,212,10052,2,0,L|114:154,1,44.0000013427735,2|2,1:3|1:2,0:0:0:0:
122,64,10240,5,10,1:2:0:0:
122,64,10427,1,10,1:2:0:0:
16,227,10615,1,2,1:3:0:0:
201,196,10802,2,0,L|267:187,1,44.0000013427735,8|0,1:2|0:0,0:0:0:0:
299,249,10990,1,0,1:2:0:0:
339,94,11177,1,8,1:2:0:0:
339,94,11365,1,10,1:2:0:0:
483,206,11552,1,2,1:3:0:0:
483,206,11646,1,2,1:3:0:0:
483,206,11740,5,12,1:2:0:0:
367,203,11927,1,2,1:2:0:0:
433,100,12115,1,8,1:2:0:0:
307,291,12302,1,8,1:0:0:0:
433,100,12490,1,8,1:2:0:0:
433,100,12865,6,2,B|399:75|399:75|356:90|356:90|330:119|330:119|255:112,1,180.000006866455,4|0,1:2|0:0,0:3:0:0:
258,114,13240,6,0,P|179:124|109:125,1,143.999995605469,10|2,1:2|1:3,0:0:0:0:
27,225,13802,2,0,P|93:213|176:214,1,143.999995605469,10|0,1:2|0:0,0:0:0:0:
262,302,14365,2,0,P|212:309|182:306,1,71.9999978027344,8|2,1:2|1:3,0:0:0:0:
317,213,14740,1,10,1:2:0:0:
317,213,14927,1,2,1:2:0:0:
317,213,15115,1,2,1:3:0:0:
217,60,15302,6,0,P|199:128|196:222,1,143.999995605469,2|2,1:2|0:0,0:0:0:0:
320,319,15865,2,0,P|323:261|321:219,1,71.9999978027344,10|2,1:2|1:3,0:0:0:0:
322,247,16146,1,2,1:2:0:0:
322,247,16240,6,0,L|421:241,1,71.9999978027344,10|2,1:2|1:2,0:0:0:0:
458,155,16615,1,2,1:3:0:0:
333,167,16802,2,0,L|164:180,1,143.999995605469,10|2,1:2|0:0,0:0:0:0:
74,191,17365,1,10,1:2:0:0:
123,73,17552,1,2,1:3:0:0:
123,73,17646,1,0,1:0:0:0:
123,73,17740,5,10,1:2:0:0:
74,191,17927,2,0,L|62:235,1,35.9999989013672,0|2,1:2|1:2,0:0:0:0:
90,306,18115,1,2,1:3:0:0:
230,256,18302,2,0,L|247:253,2,10,2|0|2,1:2|0:0|1:2,0:0:0:0:
157,272,18490,2,0,L|150:230,2,35.9999989013672,10|0|2,1:2|0:0|1:2,0:0:0:0:
320,123,18865,2,0,L|316:200,1,71.9999978027344,10|2,1:2|0:3,0:0:0:0:
413,259,19240,6,0,P|420:205|451:107,1,143.999995605469,10|2,1:2|1:3,0:0:0:0:
344,38,19802,2,0,P|337:92|306:190,1,143.999995605469,10|4,1:2|1:3,0:0:0:0:
219,273,20365,2,0,P|211:230|197:205,1,71.9999978027344,10|2,1:2|1:3,0:0:0:0:
41,123,20740,5,10,1:2:0:0:
105,189,20927,1,2,1:2:0:0:
137,94,21115,1,2,1:3:0:0:
82,283,21302,6,2,B|88:229|231:162|243:263|374:258,1,311.999985717774,10|10,1:2|1:2,0:3:0:0:
462,336,22052,1,2,1:3:0:0:
462,336,22146,1,2,1:2:0:0:
462,336,22240,1,8,1:2:0:0:
423,186,22427,2,0,P|437:146|458:111,1,80,10|6,1:2|1:0,0:0:0:0:
451,91,22708,1,0,1:0:0:0:
451,91,22802,6,2,L|344:80,1,103.999995239258,14|0,1:2|0:0,0:3:0:0:
181,29,23177,2,0,L|186:81,1,47.9999985351563,8|2,1:2|1:2,0:0:0:0:
271,124,23365,2,2,B|247:167|247:167|252:208|252:208|271:240|271:240|260:288,1,155.999992858887,6|0,1:2|0:0,0:3:0:0:
246,302,23740,6,0,L|136:295,1,103.999995239258,10|0,1:2|1:0,0:0:0:0:
20,364,24115,2,0,L|130:371,1,103.999995239258,8|0,1:2|1:0,0:0:0:0:
54,266,24490,2,0,L|59:208,2,51.999997619629,10|2|0,1:2|1:2|1:0,0:0:0:0:
157,108,24865,2,0,L|146:216,1,103.999995239258,8|2,1:2|1:3,0:0:0:0:
73,55,25240,5,10,1:2:0:0:
73,55,25427,1,2,1:2:0:0:
58,214,25615,1,8,1:2:0:0:
209,48,25802,2,0,L|336:35,1,103.999995239258,2|10,1:2|1:2,0:0:0:0:
355,62,26083,1,2,1:2:0:0:
355,62,26177,2,0,L|482:49,1,103.999995239258,0|8,1:0|1:2,0:0:0:0:
433,209,26552,1,10,1:3:0:0:
433,209,26646,1,0,1:0:0:0:
433,209,26740,6,0,P|384:210|327:234,1,103.999995239258,8|2,1:2|1:2,0:0:0:0:
256,331,27115,2,0,P|307:329|355:310,1,103.999995239258,10|2,1:2|1:2,0:0:0:0:
183,256,27490,1,8,1:2:0:0:
214,121,27677,1,2,1:3:0:0:
76,350,27865,2,0,B|80:305|80:305|68:239,1,103.999995239258,8|0,1:2|1:0,0:0:0:0:
23,111,28240,5,8,1:2:0:0:
172,145,28427,5,2,1:3:0:0:
359,191,28615,5,8,0:1:0:0:
124,61,28802,6,0,L|139:225,1,155.999992858887,12|0,1:2|0:0,0:0:0:0:
148,232,29177,1,2,1:2:0:0:
266,86,29365,6,2,B|311:74|311:74|366:97|366:97|362:181,1,180.000006866455,14|0,1:2|0:0,0:3:0:0:
388,210,29740,6,0,L|379:325,1,103.999995239258,10|2,1:2|1:2,0:0:0:0:
477,242,30115,2,0,L|486:127,1,103.999995239258,8|2,1:2|1:2,0:0:0:0:
330,32,30490,1,8,1:2:0:0:
330,32,30583,1,0,1:0:0:0:
330,32,30677,1,2,1:2:0:0:
399,123,30865,2,0,L|280:131,1,103.999995239258,10|2,1:2|1:3,0:0:0:0:
170,194,31240,5,8,1:2:0:0:
141,50,31427,1,2,1:2:0:0:
170,194,31615,1,8,1:2:0:0:
256,14,31802,2,0,B|267:64|267:64|190:99,2,103.999995239258,2|8|2,1:2|1:2|1:2,0:0:0:0:
170,194,32365,2,0,L|61:183,1,103.999995239258,8|2,1:2|1:3,0:0:0:0:
43,212,32646,1,0,1:0:0:0:
43,212,32740,6,0,L|57:281,1,51.999997619629,8|0,1:2|0:0,0:0:0:0:
152,281,32927,2,0,L|170:356,1,51.999997619629,2|0,1:2|0:0,0:0:0:0:
249,265,33115,2,0,L|262:199,1,51.999997619629,10|0,1:2|0:0,0:0:0:0:
357,171,33302,2,0,L|332:298,1,103.999995239258,2|8,1:2|1:2,0:0:0:0:
336,273,33583,1,0,1:0:0:0:
336,273,33677,1,10,1:2:0:0:
280,109,33865,6,2,P|359:138|499:140,1,180.000006866455,10|0,1:2|0:0,0:3:0:0:
472,102,34240,5,2,1:1:0:0:
334,35,34427,1,2,1:0:0:0:
247,270,34615,1,2,1:0:0:0:
385,337,34802,1,2,0:0:0:0:
357,164,35083,1,10,1:2:0:0:
357,164,35177,6,2,B|266:173|266:173|238:120|238:120|188:157|188:157|120:140|120:140|120:233,1,359.999989013672,12|0,1:2|0:0,0:3:0:0:
141,306,35740,6,0,P|64:297|-5:301,1,128,6|0,1:1|0:0,0:0:0:0:
194,228,36115,1,8,1:0:0:0:
63,30,36302,2,2,B|57:105|57:105|74:172,1,128,8|0,1:2|0:0,0:3:0:0:
147,170,36583,1,2,1:2:0:0:
147,170,36677,2,0,L|170:99,1,64,8|0,1:0|0:0,0:0:0:0:
202,33,36865,2,0,L|273:88,1,64,8|0,1:2|0:0,0:0:0:0:
321,124,37052,1,2,1:3:0:0:
235,311,37240,5,8,1:2:0:0:
235,311,37427,1,2,1:2:0:0:
312,238,37615,1,8,1:0:0:0:
312,238,37708,1,2,1:2:0:0:
312,238,37802,1,10,1:2:0:0:
394,307,37990,1,2,1:2:0:0:
394,307,38083,1,2,1:1:0:0:
405,172,38271,1,2,1:2:0:0:
405,172,38365,2,0,L|414:22,1,128,10|2,1:2|1:3,0:0:0:0:
249,91,38740,5,8,1:2:0:0:
269,224,38927,1,2,1:2:0:0:
333,29,39115,1,8,1:0:0:0:
336,149,39302,6,2,P|251:146|100:171,1,204.000003890991,8|2,1:2|1:2,0:3:0:0:
79,180,39677,1,8,1:0:0:0:
164,51,39865,1,10,1:2:0:0:
133,340,40052,1,2,1:2:0:0:
66,262,40240,6,0,L|141:249,1,47.9999985351563,10|0,1:2|0:0,0:0:0:0:
189,274,40427,2,0,L|264:261,1,47.9999985351563,2|0,1:0|0:0,0:0:0:0:
281,331,40615,1,12,1:0:0:0:
296,144,40802,2,2,L|288:181,4,30.0000011444092,2|2|2|2|10,1:2|0:0|1:2|0:0|1:2,0:0:0:0:
425,111,41177,1,8,1:0:0:0:
353,270,41365,6,2,B|368:189|368:189|531:205,1,227.999993911743,14|0,1:2|0:0,0:3:0:0:
510,237,41740,5,12,1:2:0:0:
425,111,41927,1,2,1:0:0:0:
436,350,42115,1,8,1:0:0:0:
266,224,42302,2,0,L|136:240,1,120.000004577637,10|0,1:2|0:0,0:0:0:0:
106,272,42583,1,0,1:0:0:0:
106,272,42677,2,0,P|113:198|116:124,2,120.000004577637,10|8|2,1:0|1:2|1:3,0:0:0:0:
270,357,43240,5,2,1:2:0:0:
397,141,43427,1,2,1:2:0:0:
345,337,43615,1,8,1:0:0:0:
169,288,43802,6,2,P|188:186|262:87,1,180.000006866455,14|0,1:2|0:0,0:3:0:0:
250,42,44177,2,0,L|109:52,1,120.000004577637,8|8,1:0|1:2,0:0:0:0:
51,169,44552,5,2,1:3:0:0:
51,169,44646,1,2,1:3:0:0:
51,169,44740,1,10,1:2:0:0:
395,170,44927,1,10,1:2:0:0:
205,128,45115,1,8,1:0:0:0:
332,110,45302,2,2,B|305:157|305:157|320:232,1,120.000004577637,10|0,1:2|0:0,0:3:0:0:
317,221,45583,1,2,1:2:0:0:
317,221,45677,1,8,1:0:0:0:
504,45,45865,2,2,L|376:54,1,120.000004577637,8|0,1:2|0:0,0:3:0:0:
259,58,46240,5,10,1:0:0:0:
67,202,46427,1,2,1:0:0:0:
253,342,46615,2,0,L|260:198,1,120.000004577637,2|8,1:0|1:0,0:0:0:0:
259,58,46990,1,2,1:2:0:0:
259,58,47177,6,0,L|254:160,2,80,2|2|2,0:0|0:0|0:0,0:0:0:0:
161,205,47740,6,0,P|78:211|18:210,1,120.000004577637,6|0,1:0|0:0,0:0:0:0:
41,210,48021,1,2,1:2:0:0:
41,210,48115,1,8,1:0:0:0:
267,141,48302,2,2,P|262:215|260:286,1,120.000004577637,10|0,1:2|0:0,0:3:0:0:
363,360,48677,1,8,1:0:0:0:
466,207,48865,1,10,1:2:0:0:
335,282,49052,1,2,1:3:0:0:
335,282,49146,1,2,0:0:0:0:
335,282,49240,5,10,1:2:0:0:
409,77,49427,1,2,1:2:0:0:
315,191,49615,1,8,1:0:0:0:
315,191,49708,1,2,1:2:0:0:
315,191,49802,1,10,1:2:0:0:
252,60,49990,1,2,1:2:0:0:
252,60,50083,1,2,1:0:0:0:
146,138,50271,1,2,1:2:0:0:
146,138,50365,2,0,L|10:155,1,120.000004577637,10|2,1:2|1:3,0:0:0:0:
38,359,50740,6,0,P|89:334|178:351,1,120.000004577637,10|2,1:2|1:2,0:0:0:0:
308,318,51115,1,8,1:0:0:0:
242,47,51302,2,2,P|245:149|252:278,1,180.000006866455,10|0,1:2|1:0,0:3:0:0:
271,255,51677,1,8,1:0:0:0:
467,109,51865,2,0,L|329:117,1,120.000004577637,8|2,1:2|1:2,0:0:0:0:
242,47,52240,6,0,L|172:54,1,40,10|0,1:2|0:0,0:0:0:0:
204,132,52427,6,0,L|134:139,1,68.0000012969971,10|0,0:1|0:0,0:0:0:0:
156,233,52615,6,0,L|54:243,1,80,10|0,1:0|0:0,0:0:0:0:
111,336,52802,6,2,B|201:323|201:323|232:348|232:348|294:342|294:342|395:371,1,240,14|0,1:0|0:0,0:3:0:0:
383,369,53177,1,8,1:0:0:0:
512,247,53365,2,2,B|466:262|466:262|409:227|409:227|265:217,1,240,6|0,1:0|0:0,0:3:0:0:
257,209,53740,5,6,1:2:0:0:
283,54,53927,1,2,1:2:0:0:
234,335,54115,1,8,1:0:0:0:
262,198,54302,2,2,B|192:210|192:210|158:156,1,120.000004577637,10|0,1:2|0:0,0:3:0:0:
160,129,54583,1,2,1:2:0:0:
160,129,54677,2,0,L|29:141,2,120.000004577637,8|8|2,1:0|1:2|1:3,0:0:0:0:
333,347,55240,1,10,1:2:0:0:
192,202,55427,1,2,1:2:0:0:
71,325,55615,1,8,1:0:0:0:
83,204,55802,6,2,P|168:209|306:226,1,180.000006866455,8|2,1:2|1:2,0:3:0:0:
291,262,56177,1,8,1:0:0:0:
376,129,56365,1,8,1:2:0:0:
473,252,56552,5,2,1:3:0:0:
473,252,56646,1,2,1:2:0:0:
473,252,56740,1,10,1:2:0:0:
446,82,56927,1,8,1:2:0:0:
399,317,57115,1,8,1:0:0:0:
335,119,57302,2,2,P|291:167|276:312,1,180.000006866455,10|0,1:2|0:0,0:3:0:0:
301,322,57677,1,8,1:0:0:0:
194,113,57865,2,2,P|133:125|39:128,1,120.000004577637,10|0,1:2|0:0,0:3:0:0:
60,180,58146,1,0,0:0:0:0:
60,180,58240,5,2,1:0:0:0:
259,47,58427,1,2,1:0:0:0:
452,204,58615,2,0,P|441:267|433:346,1,120.000004577637,10|2,1:0|0:0,0:0:0:0:
167,284,58990,5,2,1:0:0:0:
167,284,59177,2,0,L|179:203,1,60.0000022888184,2|0,0:2|0:0,0:0:0:0:
60,48,59365,2,2,B|98:140|98:140|64:193|64:193|93:299,1,240.000009155274,10|0,1:0|0:0,0:3:0:0:
98,299,64240,6,2,L|230:296,1,120.000004577637,0|0,0:0|0:0,0:0:0:0:
428,240,64802,2,0,P|367:239|220:211,1,207.999990478516,8|2,1:2|1:3,0:0:0:0:
140,125,65365,5,6,1:2:0:0:
140,125,65552,1,6,1:2:0:0:
88,227,65740,5,8,1:2:0:0:
101,50,65927,1,2,1:2:0:0:
226,146,66115,1,2,1:3:0:0:
204,41,66302,1,10,1:2:0:0:
204,41,66396,1,2,1:2:0:0:
204,41,66490,2,0,L|318:51,1,80,0|0,1:0|1:2,0:0:0:0:
421,166,66865,5,10,1:2:0:0:
410,184,66958,1,0,1:2:0:0:
414,216,67052,1,2,1:3:0:0:
403,234,67145,1,0,1:0:0:0:
406,267,67240,1,10,1:2:0:0:
293,325,67427,5,2,1:2:0:0:
304,307,67520,1,0,1:2:0:0:
300,275,67614,1,2,1:3:0:0:
311,257,67707,1,0,1:2:0:0:
308,224,67802,2,0,P|215:228|145:227,1,160,10|2,1:2|1:2,0:0:0:0:
27,121,68365,2,0,P|77:128|113:131,1,80,10|2,1:2|1:3,0:0:0:0:
373,80,68740,5,14,1:2:0:0:
308,224,68927,2,0,L|297:175,1,40,2|0,0:0|0:0,0:0:0:0:
211,173,69115,1,2,1:3:0:0:
211,173,69208,1,2,1:2:0:0:
211,173,69302,1,2,1:3:0:0:
211,173,69396,1,2,1:2:0:0:
211,173,69490,6,2,B|215:215|215:215|198:232|198:232|202:301,1,95.9999970703126,14|0,1:2|0:0,0:2:0:0:
81,356,69865,2,2,B|77:314|77:314|94:297|94:297|90:228,1,95.9999970703126,14|0,1:2|0:0,0:2:0:0:
53,235,70146,1,0,1:0:0:0:
53,235,70240,6,0,L|62:124,1,95.9999970703126,8|2,1:2|1:2,0:0:0:0:
68,43,70615,2,0,L|59:154,1,95.9999970703126,8|0,1:2|1:2,0:0:0:0:
150,182,70990,1,8,1:2:0:0:
150,182,71177,1,0,1:0:0:0:
171,81,71365,1,8,1:2:0:0:
171,81,71552,1,2,1:3:0:0:
129,287,71740,5,10,1:2:0:0:
150,182,71927,1,2,1:2:0:0:
171,81,72115,1,8,1:2:0:0:
222,249,72302,2,0,B|272:253|272:253|303:304,1,95.9999970703126,2|8,1:2|1:2,0:0:0:0:
306,315,72583,1,0,1:0:0:0:
306,315,72677,2,0,L|437:312,1,95.9999970703126,0|8,1:2|1:2,0:0:0:0:
479,232,73052,1,2,1:3:0:0:
479,232,73146,1,2,1:2:0:0:
479,232,73240,6,0,L|366:237,1,95.9999970703126,8|2,1:2|1:2,0:0:0:0:
287,240,73615,2,0,L|400:235,1,95.9999970703126,8|2,1:2|1:2,0:0:0:0:
382,127,73990,1,8,1:2:0:0:
382,127,74177,2,0,L|269:132,1,95.9999970703126,2|10,1:3|1:2,0:0:0:0:
175,136,74552,1,0,1:0:0:0:
167,25,74740,5,2,1:3:0:0:
156,231,74927,5,2,1:3:0:0:
318,303,75115,5,8,0:1:0:0:
86,114,75302,6,0,B|99:193|99:193|83:287,1,176.000005371094,14|2,1:2|1:2,0:0:0:0:
187,140,75865,2,2,B|244:126|244:126|263:160|263:160|314:164|314:164|334:199,1,143.999995605469,14|0,1:2|0:0,0:3:0:0:
341,152,76240,6,0,L|356:42,1,95.9999970703126,10|2,1:2|1:2,0:0:0:0:
341,152,76615,2,0,L|326:262,1,95.9999970703126,8|2,1:2|1:2,0:0:0:0:
457,169,76990,2,0,L|472:59,1,95.9999970703126,8|0,1:2|1:2,0:0:0:0:
457,169,77365,2,0,L|442:279,1,95.9999970703126,10|2,1:2|1:3,0:0:0:0:
444,264,77646,1,0,1:0:0:0:
444,264,77740,5,10,1:2:0:0:
271,321,77927,1,2,1:2:0:0:
256,192,78115,1,8,1:2:0:0:
123,222,78302,2,2,L|138:332,1,95.9999970703126,2|8,1:2|1:2,0:3:0:0:
123,222,78677,2,0,L|108:112,1,95.9999970703126,2|8,1:2|1:2,0:0:0:0:
110,126,78958,1,0,1:0:0:0:
110,126,79052,1,2,1:3:0:0:
30,287,79240,5,12,1:2:0:0:
30,287,79427,1,2,1:2:0:0:
253,194,79615,1,10,1:2:0:0:
253,194,79802,1,2,1:2:0:0:
75,44,79990,1,10,1:2:0:0:
75,44,80177,2,0,L|92:112,1,47.9999985351563,2|0,1:3|0:0,0:0:0:0:
94,190,80365,6,2,P|126:113|305:90,1,215.999993408203,6|0,0:0|0:0,0:3:0:0:
330,54,80740,5,2,1:0:0:0:
322,266,80927,1,2,1:0:0:0:
464,61,81115,1,2,1:0:0:0:
468,308,81302,2,0,L|372:319,1,80,10|0,0:1|0:0,0:0:0:0:
235,281,81583,1,8,1:2:0:0:
235,281,81677,6,2,B|230:187|230:187|278:136|278:136|208:77|208:77|131:79|131:79|166:153,1,359.999989013672,14|0,1:0|0:0,0:3:0:0:
119,211,82240,5,14,1:2:0:0:
316,285,82427,1,0,0:0:0:0:
59,367,82615,1,8,1:0:0:0:
119,211,82802,2,2,L|-3:218,1,120.000004577637,10|0,1:2|0:0,0:3:0:0:
0,217,83083,1,2,1:2:0:0:
0,217,83177,1,8,1:0:0:0:
193,32,83365,1,0,1:0:0:0:
107,124,83552,1,2,1:3:0:0:
107,124,83646,1,2,1:2:0:0:
107,124,83740,5,10,1:2:0:0:
121,334,83927,1,2,1:2:0:0:
236,187,84115,1,8,1:0:0:0:
236,187,84208,1,2,1:2:0:0:
236,187,84302,1,10,1:2:0:0:
138,246,84490,1,2,1:2:0:0:
138,246,84583,1,2,1:0:0:0:
336,137,84771,1,2,1:2:0:0:
336,137,84865,2,0,L|473:154,1,120.000004577637,10|2,1:2|1:3,0:0:0:0:
413,288,85240,5,10,1:2:0:0:
458,69,85427,1,2,1:2:0:0:
231,29,85615,1,8,1:0:0:0:
186,248,85802,2,2,P|220:178|331:141,1,180.000006866455,10|0,1:2|0:0,0:3:0:0:
396,185,86177,2,0,L|509:197,1,60.0000022888184,8|0,1:0|0:0,0:0:0:0:
501,110,86365,2,0,L|350:94,1,120.000004577637,2|0,1:2|1:0,0:0:0:0:
137,280,86740,5,2,0:0:0:0:
137,280,87115,2,0,P|193:251|241:246,1,80,2|0,0:0|0:0,0:0:0:0:
124,363,87490,6,2,B|104:292|104:292|120:258|120:258|104:183|104:183|133:123,1,215.999993408203,2|0,0:3|0:0,0:2:0:0:
103,26,87865,6,2,B|123:97|123:97|107:131|107:131|123:206|123:206|94:266,1,215.999993408203,8|0,0:1|0:0,0:3:0:0:
49,195,88240,6,0,L|224:175,1,120.000004577637,8|2,1:2|1:2,0:0:0:0:
373,120,88615,1,8,1:0:0:0:
373,120,88708,1,2,1:2:0:0:
373,120,88802,2,2,B|305:112|305:112|246:121,1,120.000004577637,0|0,1:0|0:0,0:3:0:0:
503,78,89177,1,8,1:0:0:0:
462,269,89365,2,0,L|316:251,1,120.000004577637,8|2,1:2|1:3,0:0:0:0:
199,328,89740,6,0,L|215:238,1,60.0000022888184,10|0,1:2|0:0,0:0:0:0:
183,180,89927,2,0,L|199:90,1,60.0000022888184,2|0,1:2|0:0,0:0:0:0:
291,43,90115,1,8,1:0:0:0:
285,206,90302,2,2,B|222:181|222:181|83:209,1,180.000006866455,14|0,1:2|0:0,0:3:0:0:
53,288,90677,2,0,L|68:384,2,60.0000022888184,8|0|8,1:0|0:0|1:2,0:0:0:0:
77,96,91052,5,2,1:3:0:0:
77,96,91146,1,2,1:2:0:0:
77,96,91240,1,10,1:2:0:0:
217,229,91427,1,8,1:2:0:0:
296,83,91615,1,8,1:0:0:0:
121,257,91802,2,2,P|149:186|251:132,1,180.000006866455,10|2,1:2|1:2,0:3:0:0:
296,83,92177,1,8,1:0:0:0:
121,257,92365,2,2,P|179:207|294:207,1,180.000006866455,10|2,1:2|1:2,0:3:0:0:
328,271,92740,5,8,1:2:0:0:
467,34,92927,1,2,1:2:0:0:
427,186,93115,1,10,1:0:0:0:
427,186,93302,1,2,0:0:0:0:
346,78,93490,1,10,1:2:0:0:
182,178,93677,5,8,0:1:0:0:
235,275,93865,1,2,1:0:0:0:
182,178,94052,1,2,1:0:0:0:
235,275,94240,6,0,B|169:282|169:282|143:358,1,120.000004577637,8|0,1:2|0:0,0:0:0:0:
337,246,94615,1,8,1:0:0:0:
37,160,94802,2,0,B|61:222|61:222|38:315,1,120.000004577637,10|0,1:2|0:0,0:0:0:0:
141,40,95177,1,8,1:0:0:0:
194,137,95365,2,0,L|282:154,1,60.0000022888184,10|0,1:2|0:0,0:0:0:0:
331,107,95552,2,0,L|419:124,1,60.0000022888184,2|2,0:3|1:2,0:0:0:0:
478,87,95740,5,10,1:2:0:0:
478,87,95927,1,0,1:2:0:0:
413,268,96115,1,8,1:0:0:0:
413,268,96208,1,2,1:2:0:0:
413,268,96302,1,10,1:2:0:0:
490,190,96490,1,2,1:2:0:0:
490,190,96583,1,2,1:0:0:0:
299,224,96771,1,2,1:2:0:0:
299,224,96865,2,0,L|148:238,1,120.000004577637,10|2,1:2|1:3,0:0:0:0:
56,73,97240,6,0,B|107:61|107:61|106:151,2,120.000004577637,10|2|8,1:2|1:2|1:0,0:0:0:0:
98,267,97802,2,2,B|125:187|125:187|126:87,1,180.000006866455,10|2,1:2|1:2,0:3:0:0:
177,27,98177,1,8,1:0:0:0:
177,27,98365,1,10,1:2:0:0:
271,192,98552,1,2,1:3:0:0:
271,192,98646,1,2,1:2:0:0:
271,192,98740,6,0,L|351:182,1,47.9999985351563,10|0,0:0|0:0,0:0:0:0:
410,92,98927,6,0,L|378:166,1,60.0000022888184,2|0,1:1|0:0,0:0:0:0:
431,285,99115,6,0,L|382:220,1,75.9999979705811,10|0,1:1|0:0,0:0:0:0:
312,100,99302,6,2,B|232:101|232:101|200:70|200:70|129:98|129:98|132:157,1,240,6|0,1:0|0:0,0:3:0:0:
91,227,99677,1,2,1:2:0:0:
272,200,99865,6,2,P|382:184|525:181,1,240,6|0,1:2|0:0,0:3:0:0:
510,253,100240,5,14,1:2:0:0:
467,103,100427,1,0,1:0:0:0:
336,268,100615,1,8,1:0:0:0:
264,108,100802,1,8,1:2:0:0:
264,108,100896,1,0,1:0:0:0:
264,108,100990,1,0,1:2:0:0:
156,323,101177,1,8,1:0:0:0:
38,193,101365,2,0,P|123:176|172:170,1,120.000004577637,8|2,1:2|1:3,0:0:0:0:
417,130,101740,5,2,1:2:0:0:
265,205,101927,1,2,1:2:0:0:
353,334,102115,1,8,1:0:0:0:
481,237,102302,2,2,P|416:235|276:204,1,180.000006866455,14|2,1:2|1:2,0:3:0:0:
281,137,102677,2,0,L|292:62,1,60.0000022888184,8|0,1:0|0:0,0:0:0:0:
385,120,102865,1,10,1:2:0:0:
204,16,103052,1,2,1:3:0:0:
204,16,103146,1,2,1:3:0:0:
204,16,103240,5,10,1:2:0:0:
126,206,103427,1,8,1:2:0:0:
291,39,103615,1,8,1:0:0:0:
238,137,103802,2,2,P|162:109|34:155,1,180.000006866455,10|0,1:2|1:0,0:3:0:0:
21,217,104177,2,0,L|33:311,1,60.0000022888184,8|0,1:0|0:0,0:0:0:0:
99,369,104365,2,2,L|121:212,1,120.000004577637,10|2,1:2|0:3,0:3:0:0:
115,250,104646,1,2,1:2:0:0:
115,250,104740,5,10,1:2:0:0:
396,250,104927,1,2,1:0:0:0:
255,34,105115,2,0,B|290:74|290:74|269:153,1,120.000004577637,10|2,1:0|1:2,0:0:0:0:
158,310,105490,1,10,1:2:0:0:
158,310,105677,2,0,L|174:225,1,60.0000022888184,2|0,0:0|0:0,0:0:0:0:
92,67,105865,6,2,B|126:132|126:132|113:190|113:190|72:180|72:180|70:135,1,192,10|0,1:0|0:0,0:3:0:0:
71,163,106240,6,2,L|72:280,1,111.999996582031,2|2,0:0|1:2,0:0:0:0:
161,338,106802,1,0,0:0:0:0:
161,338,106896,1,2,0:0:0:0:
161,338,106990,2,0,P|187:278|229:229,2,111.999996582031,2|2|2,0:0|1:2|0:0,0:0:0:0:
191,149,108115,1,2,1:2:0:0:
191,149,108302,1,2,1:2:0:0:
191,149,108490,2,0,L|316:165,1,111.999996582031,2|2,0:0|1:2,0:0:0:0:
389,222,109052,1,0,0:0:0:0:
389,222,109146,1,2,0:0:0:0:
389,222,109240,6,0,P|389:161|401:108,1,111.999996582031,2|2,0:0|1:2,0:0:0:0:
488,62,109802,2,0,L|493:138,2,55.9999982910157,0|2|2,0:0|0:0|1:2,0:0:0:0:
453,192,110365,2,0,L|458:268,1,55.9999982910157,2|0,1:2|1:0,0:0:0:0:
400,345,110740,5,2,1:2:0:0:
400,345,111115,1,2,1:2:0:0:
400,345,111302,1,0,0:0:0:0:
302,282,111490,2,0,L|207:292,1,83.9999974365235,2|0,0:3|0:0,0:0:0:0:
194,293,111865,6,2,L|210:115,1,143.999995605469,6|0,1:2|0:0,0:3:0:0:
227,134,112240,6,0,L|233:55,1,55.9999982910157,2|0,0:0|0:0,0:0:0:0:
106,99,112615,1,2,1:2:0:0:
106,99,112802,2,0,L|58:109,2,27.9999991455078,2|0|2,0:0|0:0|0:0,0:0:0:0:
155,202,113177,2,0,L|144:242,2,27.9999991455078,0|2|2,0:0|0:0|1:2,0:0:0:0:
291,207,113552,1,2,0:0:0:0:
291,207,113646,1,0,0:0:0:0:
291,207,113740,6,0,P|296:252|293:325,2,111.999996582031,2|2|2,0:0|1:2|0:0,0:0:0:0:
211,89,114865,1,2,1:2:0:0:
302,62,115052,1,2,0:0:0:0:
302,62,115146,1,2,0:0:0:0:
302,62,115240,2,0,L|408:71,1,95.9999970703126,6|0,0:0|0:0,0:0:0:0:
482,197,115615,2,0,P|470:123|487:60,1,95.9999970703126,0|2,1:0|0:0,0:0:0:0:
373,231,115990,2,0,P|379:303|371:348,1,95.9999970703126,0|2,1:0|0:0,0:0:0:0:
350,336,116271,1,2,0:0:0:0:
350,336,116365,2,0,L|225:328,1,95.9999970703126,0|2,1:0|0:0,0:0:0:0:
44,339,116740,6,2,B|59:265|59:265|187:240,1,180.000006866455,10|0,1:2|0:0,0:3:0:0:
161,244,117115,2,2,L|178:98,1,143.999995605469,10|0,1:2|0:0,0:0:0:0:
101,79,117490,6,2,B|180:95|180:95|205:69|205:69|322:85,1,227.999993911743,10|0,1:0|0:0,0:3:0:0:
