osu file format v14

[General]
AudioFilename: audio.mp3
AudioLeadIn: 0
PreviewTime: 35636
Countdown: 0
SampleSet: Soft
StackLeniency: 0.3
Mode: 0
LetterboxInBreaks: 0
WidescreenStoryboard: 1

[Editor]
Bookmarks: 59730,63667
DistanceSpacing: 0.5
BeatDivisor: 16
GridSize: 32
TimelineZoom: 2.5

[Metadata]
Title:A Bella! (feat. Lucy)
TitleUnicode:A Bella! (feat. Lucy)
Artist:M2U
ArtistUnicode:M2U
Creator:Mithia
Version:too's Insane
Source:하이파이브
Tags:HIGH5 DIVERSITY. UICY-15598 Drug Step SQUARE MUSIQ Original Soundtrack OST PNIX Games Electronic video game latin other Nodoro Pepekcz too [[Pause]] SHOGUNMOON00999 Houtaro Zerephiehell
BeatmapID:3632492
BeatmapSetID:1740863

[Difficulty]
HPDrainRate:4.5
CircleSize:4
OverallDifficulty:8
ApproachRate:8.8
SliderMultiplier:1.6
SliderTickRate:1

[Events]
//Background and Video events
0,0,"cute girl.jpg",0,0
//Break Periods
2,59930,63038
//Storyboard Layer 0 (Background)
//Storyboard Layer 1 (Fail)
//Storyboard Layer 2 (Pass)
//Storyboard Layer 3 (Foreground)
//Storyboard Layer 4 (Overlay)
//Storyboard Sound Samples

[TimingPoints]
-270,375,4,2,1,30,1,0
480,-200,4,2,1,30,0,0
761,-200,4,2,1,5,0,0
855,-50,4,2,1,40,0,0
1136,-50,4,2,1,5,0,0
1230,-66.6666666666667,4,2,1,70,0,0
1792,-50,4,2,1,70,0,0
2730,-66.6666666666667,4,2,1,70,0,0
3292,-50,4,2,1,70,0,0
4042,-100,4,2,1,70,0,0
4230,-66.6666666666667,4,2,1,70,0,0
4792,-50,4,2,1,70,0,0
5730,-50,4,2,1,70,0,0
6292,-43.4782608695652,4,2,1,70,0,0
6855,-133.333333333333,4,2,1,70,0,0
7230,-66.6666666666667,4,2,1,70,0,0
7792,-50,4,2,1,70,0,0
8730,-66.6666666666667,4,2,1,70,0,0
9292,-50,4,2,1,70,0,0
9667,-66.6666666666667,4,2,1,70,0,0
10792,-50,4,2,1,70,0,0
11167,-66.6666666666667,4,2,1,70,0,0
11730,-66.6666666666667,4,2,1,70,0,0
12105,-100,4,2,1,70,0,0
12855,-40,4,2,3,70,0,0
13136,-40,4,2,3,5,0,0
13230,-100,4,2,1,60,0,0
18855,-66.6666666666667,4,2,1,60,0,0
19230,-100,4,2,1,60,0,0
21292,-66.6666666666667,4,2,1,60,0,0
22792,-50,4,2,1,70,0,0
23167,-66.6666666666667,4,2,1,70,0,0
23355,-40,4,2,1,70,0,0
28230,-100,4,2,1,70,0,0
28417,-133.333333333333,4,2,1,70,0,0
28792,-100,4,2,1,70,0,0
29167,-100,4,2,1,70,0,0
29355,-50,4,2,1,70,0,0
29730,-100,4,2,1,70,0,0
34230,-100,4,2,1,70,0,0
35167,-50,4,2,1,70,0,0
35730,-40,4,2,1,85,0,1
36667,-40,4,2,1,85,0,1
39667,-40,4,2,1,85,0,1
41730,-40,4,2,1,85,0,1
45667,-40,4,2,1,85,0,1
47167,-40,4,2,1,85,0,0
47730,-40,4,2,1,85,0,1
52792,-200,4,2,1,85,0,1
53167,-40,4,2,1,85,0,1
57667,-40,4,2,1,85,0,1
59167,-50,4,2,1,85,0,1
59355,-50,4,2,1,85,0,1
59730,-50,4,2,1,60,0,0
63667,-50,4,2,1,30,0,0
64230,-200,4,2,1,30,0,0
64792,-200,4,2,1,50,0,0
65167,-200,4,2,1,50,0,0
65355,-50,4,2,1,60,0,0
65730,-100,4,2,1,60,0,0
66292,-100,4,2,1,60,0,0
68167,-66.6666666666667,4,2,1,60,0,0
68355,-100,4,2,1,60,0,0
70230,-100,4,2,1,70,0,0
74917,-133.333333333333,4,2,1,70,0,0
75292,-100,4,2,1,70,0,0
75855,-50,4,2,1,70,0,0
76230,-100,4,2,1,70,0,0
80355,-100,4,2,1,70,0,0
80730,-66.6666666666667,4,2,1,70,0,0
80917,-66.6666666666667,4,2,1,70,0,0
81667,-50,4,2,1,70,0,0
82230,-40,4,2,1,85,0,1
82605,-40,4,2,1,85,0,1
83167,-40,4,2,1,85,0,1
86355,-100,4,2,1,85,0,1
86730,-100,4,2,1,70,0,0
87480,-200,4,2,1,50,0,0
87855,-50,4,2,2,80,0,0
88230,-40,4,2,1,85,0,1
92917,-40,4,2,1,85,0,1
93105,-40,4,2,1,85,0,1
93292,-40,4,2,1,85,0,1
93480,-40,4,2,1,85,0,1
93667,-500,4,2,1,85,0,0
93855,-500,4,2,1,40,0,0
94042,-500,4,2,1,60,0,0
94230,-40,4,2,1,85,0,1
99292,-200,4,2,1,85,0,1
99667,-33.3333333333333,4,2,1,85,0,1
99808,-33.3333333333333,4,2,1,5,0,1
99855,-133.333333333333,4,2,1,85,0,1
100230,-40,4,2,1,85,0,1
104167,-40,4,2,1,85,0,1
104917,-40,4,2,1,85,0,1
105105,-40,4,2,1,85,0,1
105292,-40,4,2,1,85,0,1
105480,-40,4,2,1,85,0,1
105667,-50,4,2,1,85,0,1
106230,-100,4,2,1,55,0,0
111855,-200,4,2,1,55,0,0
112230,-100,4,2,1,55,0,0
116730,-200,4,2,1,80,0,0
117105,-250,4,2,1,80,0,0
117480,-50,4,2,1,80,0,0
117855,-50,4,2,1,5,0,0

[Colours]
Combo1 : 73,85,167
Combo2 : 162,143,209
Combo3 : 158,99,173
Combo4 : 201,78,112

[HitObjects]
112,275,480,6,0,B|117:286|117:298|117:298|117:274|131:249,1,60
167,181,855,6,0,B|227:134|149:62|73:119|109:182|149:190|149:190|165:193|183:213,1,240,2|0,0:2|0:0,0:0:0:0:
199,298,1230,6,0,P|233:320|251:352,1,60.0000022888184,6|0,3:2|0:0,0:0:0:0:
244,335,1605,6,0,P|224:312|198:297,1,60.0000022888184,2|0,1:2|0:0,0:0:0:0:
33,291,1792,6,0,B|5:329|-42:275|-33:227|35:203|85:234|70:298|34:315|26:380|77:354|57:337,1,240,2|0,3:2|0:0,0:0:0:0:
171,375,2167,5,2,1:2:0:0:
124,302,2355,1,2,3:2:0:0:
171,375,2542,1,2,1:2:0:0:
272,305,2730,6,0,P|302:295|358:303,1,60.0000022888184,6|0,3:2|0:0,0:0:0:0:
330,295,3105,6,0,P|300:296|272:305,1,60.0000022888184,2|0,1:2|0:0,0:0:0:0:
414,327,3292,6,0,B|463:310|482:376|400:389|406:325|406:325|415:181,1,240,2|0,3:2|0:0,0:0:0:0:
477,177,3667,1,2,1:2:0:0:
477,177,3855,1,2,3:2:0:0:
500,257,4042,2,0,P|492:269|496:254,1,40,2|0,1:2|0:0,0:0:0:0:
401,148,4230,6,0,P|428:116|459:100,1,60.0000022888184,6|0,3:2|0:0,0:0:0:0:
443,106,4605,6,0,P|418:124|401:148,1,60.0000022888184,2|0,1:2|0:0,0:0:0:0:
390,237,4792,6,0,B|404:149|316:120|316:120|276:177|179:144,1,240,2|0,3:2|0:0,0:0:0:0:
166,110,5167,6,0,B|156:84|135:98|135:98|143:123|165:109,1,80,2|0,1:2|0:0,0:0:0:0:
241,156,5355,1,2,3:2:0:0:
244,72,5542,2,0,B|261:50|238:39|238:39|221:58|244:70,1,80,2|0,1:2|1:2,0:0:0:0:
164,200,5730,6,0,P|80:201|69:115,1,160,2|2,3:2|0:2,0:0:0:0:
166,15,6105,1,2,3:2:0:0:
166,15,6198,1,2,0:2:0:0:
166,15,6292,2,0,B|119:4|119:4|86:-5|65:33|98:71|125:64|125:64|326:19,1,276.000005264282,2|0,0:2|0:0,0:0:0:0:
320,23,6667,6,0,L|420:3,1,92.0000017547608,2|2,1:2|1:2,0:0:0:0:
241,26,6855,6,0,L|310:44,1,60.0000022888184,2|2,3:2|1:3,0:0:0:0:
400,112,7230,6,0,L|409:196,1,60.0000022888184,6|0,3:2|0:0,0:0:0:0:
406,171,7605,6,0,L|400:112,1,60.0000022888184,2|0,1:2|0:0,0:0:0:0:
511,17,7792,6,0,B|479:16|463:47|463:47|487:254,1,240,2|0,3:2|0:0,0:0:0:0:
498,384,8167,5,2,1:2:0:0:
451,311,8355,1,2,3:2:0:0:
498,384,8542,1,2,1:2:0:0:
359,316,8730,6,0,L|255:303,1,60.0000022888184,6|0,3:2|0:0,0:0:0:0:
278,326,8917,2,0,L|174:313,1,60.0000022888184,2|0,1:2|0:0,0:0:0:0:
173,236,9105,2,0,P|179:226|176:244,1,60.0000022888184,2|0,1:2|0:0,0:0:0:0:
87,357,9292,2,0,P|43:300|112:347,1,240,2|0,3:2|0:0,0:0:0:0:
115,343,9667,6,0,B|147:348|156:327|201:331,1,60.0000022888184,2|0,1:2|0:0,0:0:0:0:
278,326,9855,1,2,3:2:0:0:
116,330,10042,6,0,B|194:356,1,60.0000022888184,2|0,1:2|0:0,0:0:0:0:
278,326,10230,5,6,3:2:0:0:
266,243,10417,1,2,3:2:0:0:
254,159,10605,1,2,1:2:0:0:
284,60,10792,6,0,B|227:101|224:3|153:62|482:-54|242:144|304:116|297:73|341:42|389:67,1,240,2|0,3:2|0:0,0:0:0:0:
426,132,11167,6,0,P|398:142|369:140,1,60.0000022888184,2|0,1:2|0:0,0:0:0:0:
281,67,11355,1,2,3:2:0:0:
205,120,11542,1,2,1:2:0:0:
205,120,11636,1,0,0:0:0:0:
205,120,11730,6,0,L|70:100,1,120.000004577637,2|2,3:2|0:2,0:0:0:0:
107,223,12105,2,0,L|199:208,1,80,2|2,3:2|0:2,0:0:0:0:
153,305,12480,1,2,3:2:0:0:
164,312,12855,6,0,B|180:240|180:240|180:272|180:272|202:174|202:174|192:192|192:192|210:90,1,300,8|0,3:0|0:0,0:0:0:0:
225,105,13230,6,0,L|294:94,1,40,2|0,3:2|0:0,0:0:0:0:
264,98,13605,6,0,L|225:105,1,40,10|0,0:2|0:0,0:0:0:0:
162,38,13792,6,0,L|307:15,1,120,2|0,3:2|0:0,0:0:0:0:
280,19,14167,1,10,0:2:0:0:
224,105,14355,1,2,3:2:0:0:
282,181,14542,1,10,0:2:0:0:
207,291,14730,6,0,L|155:282,1,40,0|0,3:2|0:0,0:0:0:0:
167,284,15105,6,0,L|207:291,1,40,10|0,0:2|0:0,0:0:0:0:
328,358,15292,6,0,B|316:288|316:288|326:253|365:267,1,120,2|0,3:2|0:0,0:0:0:0:
352,263,15667,1,10,0:2:0:0:
246,365,15855,1,2,3:2:0:0:
261,222,16042,1,8,0:2:0:0:
261,222,16136,1,2,0:0:0:0:
261,222,16230,6,0,L|254:156,1,40,2|0,3:2|0:0,0:0:0:0:
256,182,16605,6,0,L|261:222,1,40,10|0,0:2|0:0,0:0:0:0:
366,262,16792,6,0,B|395:251|408:221|408:221|430:248|477:257,1,120,2|0,3:2|0:0,0:0:0:0:
475,175,17167,1,10,0:2:0:0:
423,328,17355,1,2,3:2:0:0:
337,188,17542,1,10,0:2:0:0:
282,342,17730,6,0,L|216:332,1,40,2|0,3:2|0:0,0:0:0:0:
162,325,17917,1,2,0:2:0:0:
162,325,18011,1,2,0:2:0:0:
162,325,18105,1,10,3:2:0:0:
221,257,18292,6,0,L|240:259,4,20,2|0|2|0|0,0:2|0:0|0:0|0:0|0:0,0:0:0:0:
139,242,18573,1,2,0:2:0:0:
139,242,18667,1,2,0:2:0:0:
219,154,18855,6,0,P|191:219|156:356,1,180.000006866455,10|0,3:2|0:0,0:0:0:0:
135,348,19230,6,0,L|96:341,1,40,6|0,3:2|0:0,0:0:0:0:
40,274,19605,6,0,L|1:267,1,40,10|0,0:2|0:0,0:0:0:0:
103,136,19792,6,0,B|107:94|107:94|77:96|77:96|88:138|88:138|101:138,1,120,2|0,3:2|0:0,0:0:0:0:
102,220,20167,5,10,0:2:0:0:
11,174,20355,1,2,3:2:0:0:
102,220,20542,1,10,0:2:0:0:
215,141,20730,6,0,L|218:95,1,40,2|0,3:2|0:0,0:0:0:0:
165,39,21105,6,0,L|168:-7,1,40,10|0,0:2|0:0,0:0:0:0:
293,78,21292,6,0,B|331:89|376:68|360:21|390:-3|432:-7|471:5|483:35|447:79|396:31,1,240.000009155274,2|8,3:2|0:2,0:0:0:0:
300,4,21855,5,2,3:2:0:0:
401,120,22042,1,10,0:2:0:0:
290,250,22230,1,2,3:2:0:0:
290,250,22417,1,2,3:2:0:0:
290,250,22605,1,4,2:3:0:0:
282,161,22792,6,0,B|293:98|293:98|338:69|338:69|360:175|360:175|338:204,1,240,6|0,3:2|0:0,0:0:0:0:
347,193,23167,2,0,L|416:208,1,60.0000022888184,0|0,1:0|0:0,0:0:0:0:
498,99,23355,6,0,L|375:125,1,100,6|0,3:2|0:0,0:0:0:0:
278,149,23542,2,0,L|155:175,1,100
111,127,23730,5,2,3:2:0:0:
61,302,24105,1,0,3:2:0:0:
61,302,24292,1,2,0:3:0:0:
61,302,24480,5,0,3:0:0:0:
86,215,24667,1,2,0:3:0:0:
111,127,24855,1,2,3:2:0:0:
401,127,25230,5,2,3:2:0:0:
451,302,25605,1,2,3:2:0:0:
451,302,25792,1,2,0:3:0:0:
451,302,25980,5,0,3:0:0:0:
426,215,26167,1,2,0:3:0:0:
401,127,26355,1,2,3:2:0:0:
256,192,26730,5,0,3:2:0:0:
256,384,27105,1,2,3:2:0:0:
256,384,27480,5,0,3:0:0:0:
256,289,27667,1,2,1:2:0:0:
256,192,27855,1,2,3:2:0:0:
156,123,28230,6,0,L|121:83,1,40,2|0,1:2|0:0,0:0:0:0:
212,51,28417,2,0,L|222:93,1,30.0000011444092,2|0,1:2|0:0,0:0:0:0:
300,51,28605,2,0,L|290:93,1,30.0000011444092,2|0,1:2|0:0,0:0:0:0:
356,123,28792,2,0,L|391:83,1,40,2|0,3:2|0:0,0:0:0:0:
382,92,29167,5,2,0:3:0:0:
487,52,29355,2,0,B|508:13|508:13|455:37|455:37|461:45|461:45|471:113|471:113|468:129|468:129|479:229,1,240,6|2,3:2|0:0,0:0:0:0:
446,198,29730,5,2,3:2:0:0:
371,225,29917,1,2,0:3:0:0:
291,214,30105,1,0,3:2:0:0:
227,165,30292,1,2,0:3:0:0:
209,86,30480,2,0,L|222:-4,1,80,0|2,3:0|0:3,0:0:0:0:
301,28,30855,2,0,L|289:107,1,80,2|0,3:2|1:2,0:0:0:0:
228,357,31230,5,2,3:2:0:0:
242,278,31417,1,2,0:3:0:0:
291,214,31605,1,2,3:2:0:0:
366,183,31792,1,2,0:3:0:0:
443,207,31980,2,0,L|514:263,1,80,0|2,3:2|0:3,0:0:0:0:
447,316,32355,2,0,L|384:266,1,80,2|0,3:2|1:2,0:0:0:0:
199,88,32730,5,0,3:2:0:0:
260,139,32917,1,2,1:2:0:0:
291,214,33105,1,2,3:2:0:0:
280,294,33292,1,2,0:3:0:0:
221,349,33480,2,0,L|136:382,1,80,0|2,3:0|1:2,0:0:0:0:
125,298,33855,2,0,L|199:268,1,80,2|0,3:2|0:0,0:0:0:0:
348,329,34230,5,2,3:2:0:0:
203,191,34417,1,2,1:2:0:0:
221,349,34605,1,2,1:2:0:0:
372,161,34792,1,2,3:1:0:0:
380,83,35073,5,0,3:0:0:0:
380,83,35167,2,2,P|296:186|450:143,1,400,2|0,3:2|0:0,3:0:0:0:
380,83,35730,6,0,B|278:69|278:69|221:61|226:3|226:3|237:38|272:40|268:118,1,300,6|0,3:2|0:0,0:0:0:0:
268,96,36105,1,10,0:2:0:0:
58,86,36292,2,0,B|53:49|81:30|81:30|1:56|49:180|160:136|147:63,1,300,2|0,3:2|0:0,0:0:0:0:
147,64,36667,1,10,0:2:0:0:
233,174,36855,2,0,B|246:221|246:221|207:253|207:253|179:210|179:210|206:169,1,200,2|2,3:2|1:2,0:0:0:0:
359,192,37230,6,0,B|419:186|419:186|436:192|436:192|499:184|499:184|446:160,2,200,2|2|10,3:2|0:2|0:2,0:0:0:0:
406,269,37698,1,2,0:2:0:0:
406,269,37792,2,0,B|395:332|395:332|391:367|440:405|492:351|456:298|416:309|416:309|326:331,1,300,2|2,3:2|0:2,0:0:0:0:
335,331,38167,2,0,P|304:281|291:225,1,100,8|2,0:2|0:2,0:0:0:0:
286,140,38355,2,0,P|257:235|244:381,1,200,2|0,3:2|1:2,0:0:0:0:
107,362,38730,6,0,B|69:351|69:351|125:136|125:136|71:122,1,300,6|0,3:2|0:0,0:0:0:0:
87,126,39105,1,10,0:2:0:0:
204,251,39292,2,0,B|242:240|242:240|186:25|186:25|240:11,1,300,2|0,3:2|0:0,0:0:0:0:
223,15,39667,1,10,0:2:0:0:
344,126,39855,2,0,B|420:115|420:115|424:66|424:66|379:40|379:40|354:43,1,200,2|2,3:2|1:2,0:0:0:0:
394,227,40230,6,0,B|404:244|400:267|400:267|393:301|412:353|480:344|492:284|464:247|439:251|408:267,1,200,2|2,3:2|0:2,0:0:0:0:
315,259,40605,1,10,3:2:0:0:
463,185,40792,2,0,L|466:126,6,50,2|2|2|2|2|2|2,0:3|0:2|0:3|0:2|3:0|0:0|0:0,0:0:0:0:
394,227,41167,1,10,0:2:0:0:
464,60,41355,2,0,B|417:49|369:89|404:109|354:203|231:220|211:99,1,300,2|0,3:2|0:0,0:0:0:0:
238,90,41730,6,2,B|229:40|229:40|210:97,1,100,6|0,3:2|0:0,1:0:0:0:
169,149,41917,2,0,B|130:181|130:181|189:169,1,100
255,179,42104,2,0,B|302:196|302:196|262:151,1,100,10|0,0:2|0:0,0:0:0:0:
138,79,42292,6,2,B|88:34|67:80|18:41|18:41|76:42|109:126|54:183|-20:142,1,300,2|0,3:2|0:0,3:0:0:0:
27,154,42667,1,10,0:2:0:0:
152,171,42855,2,0,B|171:280|171:280|144:301|144:301|153:235,1,200,2|2,3:2|1:2,0:0:0:0:
284,340,43230,6,2,B|75:312|75:312|48:343|48:343|-6:336,1,300,2|0,3:2|0:0,1:0:0:0:
0,336,43605,1,10,0:2:0:0:
151,246,43792,2,2,B|360:274|360:274|387:243|387:243|441:250,1,300,2|0,3:2|0:0,3:0:0:0:
434,249,44167,1,10,0:2:0:0:
288,180,44355,2,0,B|279:187|279:187|311:97|311:97|326:193,1,200,2|2,3:2|1:2,0:0:0:0:
204,169,44730,6,0,L|241:70,1,100,2|0,3:2|0:0,0:0:0:0:
149,94,44917,1,0,3:2:0:0:
244,79,45105,6,0,L|209:173,1,100,10|0,0:2|0:0,0:0:0:0:
232,297,45292,6,0,B|189:310|168:292|166:235|225:219|294:261|281:334|289:375|392:371|390:311|342:298|317:311,1,300,6|0,3:2|0:0,0:0:0:0:
325,308,45667,1,10,0:2:0:0:
412,382,45855,2,0,B|453:350|459:255|397:232|340:238|317:120|399:62|461:99|434:158|400:170,1,300,2|0,3:2|0:0,0:0:0:0:
417,115,46230,6,0,B|451:101|482:126|482:126|456:119|432:141,1,100,2|0,3:2|0:0,0:0:0:0:
331,65,46417,2,0,B|335:28|373:14|373:14|353:33|361:65,1,100,2|0,1:2|0:0,0:0:0:0:
248,103,46605,2,0,B|218:80|225:41|225:41|231:67|263:77,1,100,2|0,3:2|0:0,0:0:0:0:
323,152,46792,1,2,1:2:0:0:
232,297,46980,1,0,3:0:0:0:
277,224,47167,5,2,0:2:0:0:
277,224,47355,1,2,0:2:0:0:
277,224,47542,1,2,0:2:0:0:
339,368,47730,6,0,B|305:355|324:344|294:331|294:331|263:318|260:347|223:329|223:329|189:313|212:298|175:282|175:282|137:269|135:294|101:279|101:279|67:263|88:249|51:236,1,300,6|0,3:2|0:0,0:0:0:0:
83,266,48105,1,10,0:2:0:0:
139,366,48292,2,0,B|152:332|163:351|176:321|176:321|189:290|160:287|178:250|178:250|194:216|209:239|224:202|224:202|238:164|213:162|228:128|228:128|244:94|258:115|271:78,1,300,2|0,3:2|0:0,0:0:0:0:
74,113,48667,1,10,0:2:0:0:
74,113,48855,2,0,P|55:162|104:110,1,200,2|2,3:2|1:2,0:0:0:0:
30,21,49230,6,0,B|167:-4|167:-4|180:63,2,200,2|2|10,3:2|0:2|0:2,0:0:0:0:
35,115,49698,1,2,0:2:0:0:
35,115,49792,2,0,B|28:98|28:98|106:85|106:85|101:117|101:117|44:130|44:130|57:154|57:154|99:146|99:146|97:171|97:171|68:180,1,300,2|2,3:2|0:2,0:0:0:0:
81,175,50167,2,0,B|50:183|50:183|70:205|70:205|85:202|85:202|90:175,1,100,8|2,0:2|0:2,0:0:0:0:
183,68,50355,2,0,B|166:209|166:209|173:224|173:224|164:328,1,200,2|0,3:2|1:2,0:0:0:0:
66,353,50730,6,0,B|99:309|99:309|100:319|100:319|148:351|148:351|146:339|146:339|180:296|180:296|182:308|182:308|223:344|223:344|223:328|223:328|266:280,1,300,6|0,3:2|0:0,0:0:0:0:
241,308,51105,1,10,0:2:0:0:
470,250,51292,2,0,B|436:206|436:206|435:216|435:216|387:248|387:248|389:236|389:236|355:193|355:193|353:205|353:205|312:241|312:241|312:225|312:225|269:177,1,300,2|0,3:2|0:0,0:0:0:0:
294,205,51667,1,10,0:2:0:0:
347,363,51855,2,0,B|401:354|401:354|422:318|422:318|442:355|442:355|518:374,1,200,2|2,3:2|1:2,0:0:0:0:
350,276,52230,5,2,3:2:0:0:
431,234,52417,5,2,0:2:0:0:
466,129,52605,5,10,0:2:0:0:
394,22,52792,6,0,P|364:48|359:72,1,60,10|0,0:2|0:0,0:0:0:0:
391,0,53167,6,0,P|357:27|346:97,1,100,10|0,0:2|0:0,0:0:0:0:
399,216,53355,2,0,P|299:153|414:128,1,300,2|0,3:2|0:0,0:0:0:0:
488,187,53730,6,2,B|504:210|498:247|498:247|518:224|508:185,1,100,6|0,3:2|0:0,1:0:0:0:
413,127,53917,2,0,B|424:101|459:88|459:88|430:82|401:110,1,100
399,216,54105,2,0,B|371:218|342:194|342:194|351:223|390:234,1,100,10|0,0:2|0:0,0:0:0:0:
319,108,54292,6,2,B|291:85|291:85|181:100|181:100|177:109|177:109|78:124|78:124|36:91,1,300,2|0,3:2|0:0,3:0:0:0:
43,97,54667,1,10,0:2:0:0:
113,24,54855,2,0,B|148:52|180:138|92:143|147:236,1,200,2|2,3:2|1:2,0:0:0:0:
260,366,55230,6,2,B|159:283|22:332|22:332|10:375|-29:397,1,300,2|0,3:2|0:0,1:0:0:0:
0,373,55605,1,10,0:2:0:0:
135,211,55792,2,2,B|236:294|373:245|373:245|385:202|424:180,1,300,2|0,3:2|0:0,3:0:0:0:
394,203,56167,1,10,0:2:0:0:
345,110,56355,2,0,B|386:17|386:17|440:115,1,200,2|2,3:2|1:2,0:0:0:0:
458,282,56730,6,0,P|488:242|491:193,1,100,2|0,3:2|0:0,0:0:0:0:
394,203,56917,1,0,3:2:0:0:
498,200,57105,6,0,P|494:249|464:288,1,100,10|0,0:2|0:0,0:0:0:0:
260,341,57292,6,0,B|186:288|182:165|246:138|319:141|335:218|299:250|285:253,1,300,6|0,3:2|0:0,0:0:0:0:
302,238,57667,1,10,0:2:0:0:
203,117,57855,2,0,B|153:148|126:224|140:275|140:275|106:223|31:219|21:245,1,300,2|0,3:2|0:2,0:0:0:0:
7,257,58230,6,0,B|-5:280|16:303|16:303|30:274|14:256,1,100,2|0,3:2|0:0,0:0:0:0:
71,154,58417,2,0,B|59:131|80:108|80:108|94:137|78:155,1,100,2|0,1:2|0:0,0:0:0:0:
139,286,58605,2,0,B|127:309|148:332|148:332|162:303|146:285,1,100,2|0,3:2|0:0,0:0:0:0:
203,138,58792,1,10,1:2:0:0:
245,237,58980,1,0,3:2:0:0:
331,110,59167,6,0,P|318:89|326:116,1,80,2|0,0:1|0:0,0:0:0:0:
360,21,59355,6,0,P|295:166|275:324,1,320,10|0,0:2|0:2,0:0:0:0:
219,245,63667,5,2,3:2:0:0:
257,231,63855,1,2,3:2:0:0:
226,205,64042,1,2,3:2:0:0:
275,324,64230,6,2,P|277:349|300:321,1,80,2|0,3:2|0:0,1:0:0:0:
205,263,64792,5,2,3:2:0:0:
280,235,64980,1,0,0:0:0:0:
218,184,65167,1,0,1:0:0:0:
196,344,65355,6,2,P|236:260|256:95,1,240,10|0,0:2|0:0,3:0:0:0:
243,91,65730,5,6,3:2:0:0:
163,80,65917,1,2,0:2:0:0:
86,103,66105,1,2,1:2:0:0:
33,162,66292,2,0,P|50:174|88:180,2,40,2|2|2,3:2|0:2|0:2,0:0:0:0:
86,103,66667,1,2,1:2:0:0:
163,80,66855,1,2,3:2:0:0:
167,120,66948,1,2,0:2:0:0:
187,154,67042,1,2,1:2:0:0:
222,175,67136,1,2,0:2:0:0:
261,177,67230,5,6,3:2:0:0:
312,115,67417,2,0,L|317:68,1,40,2|2,0:2|0:2,0:0:0:0:
337,185,67605,2,0,L|342:232,1,40,2|2,1:2|0:2,0:0:0:0:
388,124,67792,2,0,P|431:84|489:87,1,120,2|0,3:2|0:0,0:0:0:0:
501,86,68167,6,0,L|515:9,1,60.0000022888184,2|0,1:2|0:0,0:0:0:0:
407,8,68355,1,10,1:2:0:0:
407,8,68542,1,0,0:0:0:0:
251,94,68730,6,0,L|138:74,1,80,2|2,3:2|2:0,0:0:0:0:
102,3,69105,1,8,1:2:0:0:
75,32,69198,1,2,0:2:0:0:
65,66,69292,1,2,0:2:0:0:
65,98,69386,1,2,0:2:0:0:
76,123,69480,5,14,0:2:0:0:
76,123,69855,1,14,0:2:0:0:
25,293,70230,6,0,L|120:271,1,80,2|2,3:2|0:3,0:0:0:0:
181,257,70605,2,0,L|103:275,1,80,0|2,3:2|0:3,0:0:0:0:
25,293,70980,1,0,3:0:0:0:
103,274,71167,1,2,0:3:0:0:
181,257,71355,1,2,3:2:0:0:
486,294,71730,6,0,L|391:272,2,80,2|0|2,3:2|0:0|3:2,0:0:0:0:
330,256,72292,1,2,0:3:0:0:
486,294,72480,1,0,3:0:0:0:
408,275,72667,1,2,0:3:0:0:
330,256,72855,1,2,3:2:0:0:
256,32,73230,5,2,3:2:0:0:
256,112,73417,1,2,0:3:0:0:
256,192,73605,2,0,L|256:288,1,80,2|2,3:2|0:3,0:0:0:0:
256,112,73980,1,0,3:0:0:0:
256,192,74167,1,2,1:2:0:0:
256,272,74355,1,2,3:2:0:0:
142,311,74730,6,0,L|128:349,1,40,2|0,1:2|0:0,0:0:0:0:
208,376,74917,2,0,L|214:336,1,30.0000011444092,2|0,1:2|0:0,0:0:0:0:
304,376,75105,2,0,L|298:336,1,30.0000011444092,2|0,1:2|0:0,0:0:0:0:
369,311,75292,2,0,L|384:349,1,40,2|0,3:2|0:0,0:0:0:0:
384,349,75667,5,2,0:3:0:0:
376,232,75855,2,0,B|371:226|371:226|330:241|330:241|304:216|304:216|275:226|275:226|252:209|252:209|225:219|225:219|201:198|201:198|170:210,1,240,4|0,3:2|0:0,0:0:0:0:
156,243,76230,5,2,3:2:0:0:
93,191,76417,1,2,0:3:0:0:
83,111,76605,1,0,3:2:0:0:
103,33,76792,1,2,0:3:0:0:
93,191,76980,1,0,3:0:0:0:
83,111,77167,1,2,0:3:0:0:
103,33,77355,2,0,L|192:27,1,80,2|0,3:2|1:2,0:0:0:0:
356,159,77730,5,0,3:2:0:0:
342,238,77917,1,2,0:3:0:0:
278,286,78105,1,2,3:2:0:0:
199,308,78292,1,2,0:3:0:0:
342,238,78480,1,0,3:2:0:0:
278,286,78667,1,2,0:3:0:0:
199,308,78855,2,0,L|149:233,1,80,0|0,3:2|1:2,0:0:0:0:
184,28,79230,5,2,3:2:0:0:
259,0,79417,1,2,0:3:0:0:
333,28,79605,1,2,3:2:0:0:
391,87,79792,1,2,0:3:0:0:
259,0,79980,1,0,3:0:0:0:
333,28,80167,1,2,1:2:0:0:
391,87,80355,2,0,L|351:167,1,80,2|0,3:2|0:0,0:0:0:0:
308,272,80730,6,0,L|319:354,1,60.0000022888184,2|0,3:2|0:0,0:0:0:0:
463,285,80917,2,0,L|474:367,1,60.0000022888184,2|0,1:2|0:0,0:0:0:0:
381,241,81105,2,0,L|392:323,1,60.0000022888184,2|0,1:2|0:0,0:0:0:0:
237,310,81292,2,0,L|248:392,1,60.0000022888184,2|0,3:1|0:0,0:0:0:0:
127,250,81573,5,0,3:0:0:0:
127,250,81667,2,0,P|223:152|73:196,1,400,6|0,3:2|0:0,0:0:0:0:
149,176,82230,6,0,B|253:154|253:154|319:141|281:112|348:98|348:98|449:80,1,300,6|0,3:2|0:0,0:0:0:0:
426,84,82605,1,10,0:2:0:0:
432,246,82792,2,0,B|413:282|413:282|494:354|494:354|535:252|535:252|497:226,1,300,2|0,3:2|0:0,0:0:0:0:
501,229,83167,1,10,0:2:0:0:
363,184,83355,2,0,B|240:160|347:84|212:59,1,200,2|2,3:2|1:2,0:0:0:0:
33,105,83730,6,0,B|53:219|53:219|101:138,2,200,2|2|10,3:2|0:2|0:2,0:0:0:0:
83,38,84198,1,2,0:2:0:0:
83,38,84292,2,0,B|104:46|116:71|116:71|164:32|281:8|330:108|292:184,1,300,2|2,3:2|0:2,0:0:0:0:
304,150,84667,2,0,B|290:154|290:154|294:133|319:133|330:156|313:181|290:179|291:150,1,100,8|2,0:2|0:2,0:0:0:0:
219,227,84855,2,0,B|140:203|87:281|183:314|192:261|192:261|208:140,1,300,2|0,3:2|0:0,0:0:0:0:
257,65,85230,6,0,P|362:73|331:229,1,300,6|0,3:2|0:0,0:0:0:0:
336,226,85605,1,10,0:2:0:0:
303,140,85792,2,0,B|407:96|379:227|538:175|571:42|428:-12|383:62|434:138,1,300,2|0,3:2|0:0,0:0:0:0:
424,69,86167,1,10,0:2:0:0:
512,192,86355,6,0,P|479:215|441:224,1,80,2|2,3:2|1:2,0:0:0:0:
336,226,86730,5,2,0:2:0:0:
207,264,87105,1,2,0:2:0:0:
279,273,87292,1,2,0:2:0:0:
143,307,87480,6,2,B|135:337|135:337|139:340|139:340|132:368,1,60,2|0,2:2|0:0,2:0:0:0:
166,384,87855,6,2,P|155:257|138:126,1,240,8|0,2:0|0:0,0:0:0:0:
141,97,88230,6,2,B|142:60|158:33|158:33|151:51|150:69,1,100,4|0,3:2|0:0,1:0:0:0:
104,171,88417,2,0,B|71:188|39:187|39:187|59:185|75:176,1,100
186,166,88605,2,0,B|216:185|232:213|232:213|220:197|205:188,1,100,10|0,2:0|0:0,0:0:0:0:
296,271,88792,6,2,B|321:249|319:203|319:203|340:162|399:143|461:173|461:173|470:204|501:223,1,300,2|0,3:2|0:0,3:0:0:0:
501,223,89167,1,10,0:2:0:0:
362,83,89355,2,0,B|396:3|396:3|370:5|370:5|424:92,1,200,2|2,3:2|1:2,0:0:0:0:
404,252,89730,6,2,B|410:292|365:320|365:320|321:310|308:280|308:280|296:308|266:324|266:324|202:289|209:210,1,300,2|0,3:2|0:0,1:0:0:0:
214,263,90105,1,10,0:2:0:0:
92,344,90292,2,2,B|25:325|25:325|121:290|140:207|62:168|8:184|1:243|5:270|30:275,1,300,2|0,3:2|0:0,3:0:0:0:
14,233,90667,1,10,0:2:0:0:
206,176,90855,2,0,B|222:203|203:212|170:184|161:140|206:121|231:155|250:191|235:221|215:257|135:295,1,200,2|2,3:2|1:2,0:0:0:0:
348,368,91230,6,0,P|311:361|303:289,1,100,2|0,3:2|0:3,3:2:0:0:
293,306,91417,2,0,B|304:252|349:303|367:221,1,100,0|0,3:2|0:0,0:0:0:0:
361,241,91605,2,0,P|351:194|306:179,1,100,10|0,0:2|0:0,0:0:0:0:
206,176,91792,6,0,B|184:50|184:50|225:48|225:48|212:179,1,300,6|0,3:2|0:0,0:0:0:0:
209,261,92167,1,10,0:2:0:0:
0,242,92355,6,0,B|10:213|10:213|42:208|42:208|77:286|77:286|82:202|82:202|116:195|116:195|139:220,1,300,2|0,3:2|0:0,0:0:0:0:
144,227,92730,6,0,B|177:269|177:269|130:240,1,100,2|0,3:2|0:0,0:0:0:0:
0,242,92917,2,0,B|-7:295|-7:295|18:246,1,100,2|0,0:2|0:0,0:0:0:0:
52,135,93105,1,2,3:2:0:0:
4,73,93292,1,10,0:2:0:0:
31,41,93480,1,0,3:0:0:0:
21,31,93667,2,0,L|17:11,2,16,10|2|2,0:2|1:2|1:2,0:0:0:0:
100,141,94230,6,0,B|108:145|108:145|88:156|88:156|108:72|108:72|206:134|206:134|159:224,1,300,6|0,3:2|0:0,0:0:0:0:
175,192,94605,1,10,0:2:0:0:
303,136,94792,2,0,B|280:154|280:154|299:89|299:89|408:156|408:156|343:214,1,300,2|0,3:2|0:0,0:0:0:0:
351,206,95167,1,10,0:2:0:0:
483,95,95355,2,0,B|478:118|478:118|465:87|465:87|508:69|508:69|511:122|511:122|485:156,1,200,2|2,3:2|1:2,0:0:0:0:
402,18,95730,6,0,B|361:55|371:111|371:111|309:112|300:57,2,200,2|2|10,3:2|0:2|0:2,0:0:0:0:
295,34,96198,1,2,0:2:0:0:
295,34,96292,2,0,B|237:9|196:26|166:76|166:76|260:108|266:228,1,300,2|2,3:2|0:2,0:0:0:0:
262,193,96667,2,0,L|202:315,1,100,8|2,0:2|0:2,0:0:0:0:
303,358,96855,2,0,B|361:367|361:367|362:359|362:359|320:297|320:297|308:294|308:294|286:333,1,200,2|0,3:2|1:2,0:0:0:0:
98,350,97230,6,0,B|128:190|128:190|102:171|102:171|136:324,1,300,6|0,3:2|0:0,0:0:0:0:
124,273,97605,1,10,0:2:0:0:
34,73,97792,2,0,B|49:17|49:17|2:96|2:96|35:243,1,300,2|0,3:2|0:0,0:0:0:0:
35,243,98167,1,10,0:2:0:0:
132,83,98355,2,0,B|234:58|234:58|232:73|232:73|121:101,1,200,2|2,3:2|1:2,0:0:0:0:
288,6,98730,5,2,1:2:0:0:
372,81,98917,5,2,1:2:0:0:
389,214,99105,5,10,0:2:0:0:
302,353,99292,6,0,L|296:292,1,60,2|0,0:1|0:0,0:0:0:0:
277,292,99667,6,2,B|285:363|285:363|318:360|318:360|307:274,1,180.000006866455,0|0,0:0|0:0,0:0:0:0:
287,263,99855,6,0,L|273:160,1,90.0000034332277,10|0,3:2|0:0,0:0:0:0:
249,137,100230,6,2,B|245:109|245:109|276:77|276:77|262:113,1,100,6|0,3:2|0:0,1:0:0:0:
187,200,100417,2,0,B|160:189|160:189|148:146|148:146|172:176,1,100
210,285,100605,2,0,B|187:302|187:302|144:291|144:291|182:285,1,100,10|0,0:2|0:0,0:0:0:0:
302,353,100792,6,2,B|369:360|369:360|423:216|423:216|511:227,1,300,2|0,3:2|0:0,3:0:0:0:
500,225,101167,1,10,0:2:0:0:
453,349,101355,2,0,B|402:340|402:340|380:241|380:241|330:229,1,200,2|2,3:2|1:2,0:0:0:0:
181,48,101730,6,2,B|202:143|202:143|247:171|247:171|218:211|218:211|236:310,1,300,2|0,3:2|0:0,1:0:0:0:
236,310,102105,1,10,0:2:0:0:
58,210,102292,2,2,L|379:145,1,300,2|0,3:2|0:0,3:0:0:0:
352,150,102667,1,10,0:2:0:0:
373,0,102855,2,0,B|358:30|358:30|446:133|446:133|427:188,1,200,2|2,3:2|1:2,0:0:0:0:
263,327,103230,6,0,B|240:302|240:302|254:228,1,100,2|0,3:2|0:0,0:0:0:0:
252,237,103417,2,0,L|274:131,1,100,0|0,3:2|0:0,0:0:0:0:
272,139,103605,2,0,B|284:74|284:74|261:49,1,100,10|0,0:2|0:0,0:0:0:0:
183,102,103792,6,0,B|38:125|38:125|42:164|119:159|140:105|91:49,1,300,6|0,3:2|0:0,0:0:0:0:
103,66,104167,1,10,0:2:0:0:
26,214,104355,2,0,B|123:254|215:175|168:96|272:53|358:64,1,300,2|0,3:2|1:2,0:0:0:0:
292,86,104730,6,0,B|339:100|339:100|276:89,1,100,2|0,3:2|0:0,0:0:0:0:
453,47,104917,2,0,B|416:80|416:80|458:31,1,100,2|0,1:2|0:0,0:0:0:0:
402,199,105105,2,0,B|390:150|390:150|412:211,1,100,2|0,3:2|0:0,0:0:0:0:
436,303,105292,1,2,1:2:0:0:
436,303,105480,1,0,3:0:0:0:
261,270,105667,6,0,P|278:246|271:274,1,80,2|0,0:1|0:0,0:0:0:0:
351,334,105855,6,0,P|287:270|128:214,1,240,10|0,0:2|0:0,0:0:0:0:
121,233,106230,6,0,P|70:207|57:126,1,120
161,297,106605,2,0,P|105:309|73:292,1,80,2|2,1:2|0:3,0:0:0:0:
210,150,106980,6,0,P|258:118|334:148,1,120
134,152,107355,2,0,P|150:97|181:78,1,80,2|2,1:2|0:3,0:0:0:0:
237,268,107730,6,0,P|239:325|176:376,1,120
273,201,108105,2,0,P|300:226|311:256,1,40,2|0,1:2|0:0,0:0:0:0:
378,229,108292,2,0,P|369:266|349:289,1,40,2|0,0:2|0:0,0:0:0:0:
425,327,108480,1,0,0:0:0:0:
425,327,108855,1,2,1:2:0:0:
287,347,109042,5,2,0:3:0:0:
287,347,109136,1,2,0:0:0:0:
287,347,109230,2,0,L|304:202,1,120
321,212,109605,2,0,L|314:132,1,80,2|2,1:2|0:3,0:0:0:0:
179,6,109980,6,0,L|192:121,1,80
222,237,110355,1,2,1:2:0:0:
231,157,110542,1,2,1:3:0:0:
118,232,110730,6,0,L|105:352,1,120
138,217,111105,2,0,L|127:126,1,80,2|2,1:2|1:3,0:0:0:0:
127,115,111386,1,2,0:0:0:0:
127,115,111480,1,0,1:0:0:0:
115,31,111855,6,0,L|49:21,1,60,2|0,1:2|0:0,0:0:0:0:
26,18,112230,6,0,B|29:80|29:80|81:124,1,120,2|0,0:0|0:0,0:0:0:0:
93,152,112605,2,0,B|136:156|136:156|171:123,1,80,2|2,1:2|0:3,0:0:0:0:
329,68,112980,6,0,B|273:39|273:39|209:62,1,120,0|2,0:0|0:0,0:0:0:0:
179,59,113355,2,0,B|154:94|154:94|165:141,1,80,2|2,1:2|0:3,0:0:0:0:
137,313,113730,6,0,B|189:279|189:279|201:212,1,120
219,187,114105,1,2,1:2:0:0:
162,130,114292,1,2,1:2:0:0:
292,158,114480,2,0,P|345:148|385:54,1,160,0|2,0:0|1:2,0:0:0:0:
301,72,115042,1,2,0:3:0:0:
301,72,115136,1,2,0:0:0:0:
301,72,115230,1,2,0:2:0:0:
512,0,115605,5,2,1:2:0:0:
407,66,115792,1,2,0:3:0:0:
356,156,115980,1,2,1:2:0:0:
347,250,116167,5,2,0:3:0:0:
358,244,116261,1,0,0:0:0:0:
366,240,116355,1,2,1:2:0:0:
308,334,116542,5,2,0:3:0:0:
297,328,116636,1,0,0:0:0:0:
289,324,116730,2,0,P|268:297|263:258,1,60,2|2,3:0|0:0,0:0:0:0:
151,146,117105,5,2,3:0:0:0:
161,147,117198,1,2,0:0:0:0:
160,162,117292,1,0,0:0:0:0:
130,188,117386,1,0,0:0:0:0:
61,194,117480,6,2,B|59:152|42:137|42:137|121:150|146:243|139:270|139:270|161:237|214:219,1,320,14|2,0:2|2:0,0:0:0:0:
