osu file format v14

[General]
AudioFilename: audio.mp3
AudioLeadIn: 0
PreviewTime: 35636
Countdown: 0
SampleSet: Soft
StackLeniency: 0.3
Mode: 0
LetterboxInBreaks: 0
WidescreenStoryboard: 1

[Editor]
Bookmarks: 18292,59730,63667
DistanceSpacing: 0.3
BeatDivisor: 8
GridSize: 32
TimelineZoom: 3.099999

[Metadata]
Title:A Bella! (feat. Lucy)
TitleUnicode:A Bella! (feat. Lucy)
Artist:M2U
ArtistUnicode:M2U
Creator:Mithia
Version:Zereph's Light Insane
Source:하이파이브
Tags:HIGH5 DIVERSITY. UICY-15598 Drug Step SQUARE MUSIQ Original Soundtrack OST PNIX Games Electronic video game latin other Nodoro Pepekcz too [[Pause]] SHOGUNMOON00999 Houtaro Zerephiehell
BeatmapID:3662496
BeatmapSetID:1740863

[Difficulty]
HPDrainRate:4.5
CircleSize:4
OverallDifficulty:7.5
ApproachRate:8.5
SliderMultiplier:1.6
SliderTickRate:1

[Events]
//Background and Video events
0,0,"cute girl.jpg",0,0
//Break Periods
2,59930,62730
//Storyboard Layer 0 (Background)
//Storyboard Layer 1 (Fail)
//Storyboard Layer 2 (Pass)
//Storyboard Layer 3 (Foreground)
//Storyboard Layer 4 (Overlay)
//Storyboard Sound Samples

[TimingPoints]
-270,375,4,2,2,30,1,0
855,-100,4,2,1,30,0,0
1136,-100,4,2,1,5,0,0
1230,-100,4,2,1,70,0,0
11917,-100,4,2,1,70,0,0
12855,-100,4,2,3,70,0,0
13136,-100,4,2,3,5,0,0
13230,-100,4,2,1,60,0,0
19230,-100,4,2,1,60,0,0
22792,-100,4,2,1,70,0,0
23355,-100,4,2,1,70,0,0
29167,-100,4,2,1,70,0,0
34136,-100,4,2,1,5,0,0
34230,-100,4,2,1,70,0,0
35730,-100,4,2,1,85,0,1
36667,-100,4,2,1,85,0,1
39667,-100,4,2,1,85,0,1
41730,-100,4,2,1,85,0,1
45667,-100,4,2,1,85,0,1
47167,-100,4,2,1,85,0,0
47730,-100,4,2,1,85,0,1
53167,-100,4,2,1,85,0,1
57667,-100,4,2,1,85,0,1
59167,-100,4,2,1,85,0,1
59730,-100,4,2,1,60,0,0
63667,-100,4,2,1,30,0,0
64792,-100,4,2,1,50,0,0
65167,-100,4,2,1,50,0,0
65355,-100,4,2,1,60,0,0
66292,-100,4,2,1,60,0,0
70230,-100,4,2,1,70,0,0
80355,-100,4,2,1,70,0,0
80917,-100,4,2,1,70,0,0
82230,-100,4,2,1,85,0,1
82605,-100,4,2,1,85,0,1
83167,-100,4,2,1,85,0,1
86730,-100,4,2,1,70,0,0
87480,-100,4,2,1,50,0,0
87855,-100,4,2,2,80,0,0
88230,-100,4,2,1,85,0,1
92917,-100,4,2,1,85,0,1
93105,-100,4,2,1,85,0,1
93480,-100,4,2,1,85,0,1
93667,-200,4,2,1,85,0,0
93855,-200,4,2,1,40,0,0
93948,-200,4,2,1,50,0,0
94042,-200,4,2,1,60,0,0
94136,-200,4,2,1,70,0,0
94230,-100,4,2,1,85,0,1
99292,-100,4,2,1,85,0,1
99667,-100,4,2,1,85,0,1
99855,-100,4,2,1,85,0,1
100230,-100,4,2,1,85,0,1
104167,-100,4,2,1,85,0,1
104917,-100,4,2,1,85,0,1
105105,-100,4,2,1,85,0,1
105480,-100,4,2,1,85,0,1
106230,-100,4,2,1,55,0,0
116730,-100,4,2,1,80,0,0
117855,-100,4,2,1,5,0,0

[Colours]
Combo1 : 73,85,167
Combo2 : 162,143,209
Combo3 : 158,99,173
Combo4 : 201,78,112

[HitObjects]
338,181,855,6,0,P|292:200|231:147,1,120,2|0,0:2|0:0,0:0:0:0:
216,80,1230,1,6,3:2:0:0:
141,103,1417,1,2,0:2:0:0:
100,36,1605,2,0,P|86:19|60:9,1,40,2|0,1:2|0:0,0:0:0:0:
39,92,1792,2,0,P|15:138|51:219,1,120,2|0,3:2|0:0,0:0:0:0:
5,276,2167,1,2,1:2:0:0:
107,326,2355,2,0,L|117:402,2,40,2|0|2,3:2|0:0|1:2,0:0:0:0:
233,282,2730,6,0,P|292:255|379:265,1,120,6|0,3:2|0:0,0:0:0:0:
337,341,3105,2,0,P|356:343|376:352,1,40,2|0,1:2|0:0,0:0:0:0:
443,308,3292,2,0,P|479:279|469:197,1,120,2|0,3:2|0:0,0:0:0:0:
418,159,3667,1,2,1:2:0:0:
470,71,3855,2,0,L|477:27,2,40,2|0|2,3:2|0:0|1:2,0:0:0:0:
389,31,4230,5,6,3:2:0:0:
316,11,4417,1,2,1:2:0:0:
199,107,4605,2,0,P|203:86|199:66,1,40,2|0,1:2|0:0,0:0:0:0:
124,88,4792,2,0,P|48:76|8:132,1,120,2|0,3:2|0:0,0:0:0:0:
52,172,5167,5,2,1:2:0:0:
112,224,5355,1,2,3:2:0:0:
8,243,5542,1,2,1:2:0:0:
10,257,5636,1,0,1:2:0:0:
12,271,5730,6,0,L|20:359,1,80,2|2,3:2|0:2,0:0:0:0:
113,381,6105,2,0,L|117:341,2,40,2|2|2,3:2|0:2|0:2,0:0:0:0:
258,263,6480,1,0,3:2:0:0:
213,356,6667,1,2,1:2:0:0:
213,356,6761,1,2,1:2:0:0:
213,356,6855,2,0,P|271:337|312:344,1,80,2|2,3:2|1:3,0:0:0:0:
445,356,7230,6,0,P|411:282|471:202,1,160,6|2,3:2|1:2,0:0:0:0:
444,216,7792,2,0,P|391:246|323:222,1,120,2|0,3:2|0:0,0:0:0:0:
289,146,8167,1,2,1:2:0:0:
238,205,8355,1,2,3:2:0:0:
167,116,8542,1,2,1:2:0:0:
165,104,8636,1,0,0:0:0:0:
162,93,8730,5,6,3:2:0:0:
114,172,8917,1,2,1:2:0:0:
19,47,9105,2,0,P|18:68|25:87,1,40,2|0,1:2|0:0,0:0:0:0:
98,49,9292,2,0,P|172:15|222:42,1,120,2|0,3:2|0:0,0:0:0:0:
290,15,9667,1,2,1:2:0:0:
258,105,9855,2,0,P|310:93|358:93,1,80,2|2,3:2|1:2,0:0:0:0:
443,147,10230,6,0,B|470:155|470:155|447:162,1,40,6|0,3:2|0:0,0:0:0:0:
369,218,10417,2,0,B|342:210|342:210|365:203,1,40,2|0,3:2|0:0,0:0:0:0:
423,288,10605,1,2,1:2:0:0:
362,356,10792,2,0,P|333:272|391:208,1,160,2|2,3:2|1:2,0:0:0:0:
283,178,11355,1,2,3:2:0:0:
223,283,11542,1,2,1:2:0:0:
223,283,11636,1,0,0:0:0:0:
223,283,11730,6,0,P|181:285|109:270,1,80,2|2,3:2|0:2,0:0:0:0:
105,195,12105,1,2,3:2:0:0:
172,152,12292,1,2,0:2:0:0:
0,169,12480,6,0,P|20:235|17:310,1,120,2|0,3:2|0:0,0:0:0:0:
19,315,12855,2,0,B|5:334|41:381|-23:380|-27:340|20:315,1,120,8|0,3:0|0:0,0:0:0:0:
94,326,13230,6,0,P|160:358|270:324,1,160,2|10,3:2|0:2,0:0:0:0:
272,248,13792,2,0,P|197:215|102:236,1,160,2|10,3:2|0:2,0:0:0:0:
52,192,14261,1,2,0:0:0:0:
47,200,14355,1,2,3:2:0:0:
126,149,14542,1,10,0:2:0:0:
24,103,14730,6,0,B|48:82|31:28|31:28|66:58|113:39,1,160,0|10,3:2|0:2,0:0:0:0:
197,94,15292,2,0,P|214:170|163:229,1,160,2|10,3:2|0:2,0:0:0:0:
216,292,15855,1,2,3:2:0:0:
300,199,16042,1,8,0:2:0:0:
310,200,16136,1,2,0:0:0:0:
318,202,16230,6,0,L|414:215,2,80,2|2|10,3:2|0:2|0:2,0:0:0:0:
313,285,16792,2,0,L|484:306,1,160,2|10,3:2|0:2,0:0:0:0:
486,269,17261,1,0,0:0:0:0:
486,269,17355,2,0,P|478:210|506:169,1,80,2|10,3:2|0:2,0:0:0:0:
415,102,17730,6,0,P|334:61|289:90,1,120,2|2,3:2|0:2,0:0:0:0:
259,138,18105,2,0,L|254:187,1,40,10|0,3:2|0:0,0:0:0:0:
194,93,18292,1,2,0:2:0:0:
201,81,18385,1,2,0:0:0:0:
197,67,18479,1,2,3:2:0:0:
253,15,18667,1,2,0:2:0:0:
254,177,18855,2,0,L|265:281,1,80,10|0,3:2|0:0,0:0:0:0:
132,176,19230,6,0,P|72:202|0:123,1,160,6|10,3:2|0:2,0:0:0:0:
3,149,19792,2,0,B|36:223|-14:252|20:315,1,160,2|10,3:2|0:2,0:0:0:0:
27,332,20261,1,2,0:0:0:0:
26,341,20355,2,0,L|19:394,2,40,2|0|10,3:2|0:0|0:2,0:0:0:0:
150,267,20730,6,0,L|251:260,2,80,2|2|10,3:2|0:2|0:2,0:0:0:0:
270,330,21292,2,0,P|310:281|277:197,1,160,2|8,3:2|0:2,0:0:0:0:
376,101,21855,2,0,L|427:97,1,40,2|0,3:2|0:0,0:0:0:0:
469,162,22042,1,10,0:2:0:0:
480,165,22136,1,2,0:0:0:0:
489,167,22230,5,2,3:2:0:0:
413,213,22417,2,0,L|397:365,1,120,2|0,3:2|0:0,0:0:0:0:
337,378,22792,2,0,P|327:318|401:353,1,160,6|0,3:2|1:0,0:0:0:0:
489,300,23355,1,6,3:2:0:0:
285,158,23730,6,0,L|196:152,1,80,2|2,3:2|0:3,0:0:0:0:
186,256,24105,2,0,L|97:262,1,80,0|2,3:2|0:3,0:0:0:0:
250,383,24480,2,0,P|254:322|290:241,1,120,0|0,3:0|0:0,0:0:0:0:
350,234,24855,1,2,3:2:0:0:
94,132,25230,6,0,B|54:109|16:136|16:136|38:82|16:59,1,160,2|2,3:2|3:2,0:0:0:0:
104,48,25792,2,0,P|185:34|288:68,1,160,2|2,0:3|0:3,0:0:0:0:
259,137,26355,2,0,P|300:135|348:108,1,80,2|0,3:2|1:2,0:0:0:0:
349,125,26636,1,0,0:0:0:0:
351,134,26730,6,0,L|370:231,1,80,0|2,3:2|0:3,0:0:0:0:
304,304,27105,1,2,3:2:0:0:
364,353,27292,2,0,L|505:343,1,120,2|0,0:3|0:0,0:0:0:0:
483,344,27667,1,2,1:2:0:0:
512,258,27855,2,0,P|475:217|385:238,1,120,2|0,3:2|0:0,0:0:0:0:
334,273,28230,6,0,L|340:234,1,40,2|0,1:2|0:0,0:0:0:0:
255,317,28417,2,0,L|250:278,1,40,2|0,1:2|0:0,0:0:0:0:
204,381,28605,1,2,1:2:0:0:
84,352,28792,2,0,P|39:319|72:244,1,120,2|0,3:2|0:0,0:0:0:0:
120,219,29167,5,2,0:3:0:0:
24,140,29355,2,0,L|14:54,1,80,6|0,3:2|0:0,0:0:0:0:
38,35,29636,1,2,0:0:0:0:
48,32,29730,2,0,P|100:30|134:42,1,80,2|2,3:2|0:3,0:0:0:0:
192,88,30105,2,0,P|244:90|278:78,1,80,0|2,3:2|0:3,0:0:0:0:
342,0,30480,6,0,P|301:79|333:141,1,160,0|2,3:0|3:2,0:0:0:0:
385,279,31230,2,0,B|371:269|371:269|269:261,1,120,2|0,3:2|0:0,0:0:0:0:
193,298,31605,1,2,3:2:0:0:
245,170,31792,2,0,B|225:161|225:161|125:176,1,120,2|0,0:3|0:0,0:0:0:0:
67,230,32167,1,2,0:3:0:0:
129,176,32355,2,0,P|144:119|131:84,1,80,2|0,3:2|1:2,0:0:0:0:
30,150,32636,1,0,0:0:0:0:
22,157,32730,6,0,P|-16:254|13:304,1,160,0|2,3:2|3:2,0:0:0:0:
71,348,33292,2,0,L|208:356,1,120,2|0,0:3|0:0,0:0:0:0:
260,312,33667,1,2,1:2:0:0:
149,222,33855,2,0,L|291:204,1,120,2|0,3:2|0:0,0:0:0:0:
339,145,34230,6,0,P|335:125|339:100,1,40,2|0,3:2|0:0,0:0:0:0:
392,237,34417,2,0,P|376:250|353:259,1,40,2|0,1:2|0:0,0:0:0:0:
456,186,34605,2,0,P|474:193|491:205,1,40,2|0,1:2|0:0,0:0:0:0:
434,80,34792,2,0,B|429:52|376:79|377:18|465:10|435:61|435:81,1,120,2|0,3:1|3:0,0:0:0:0:
339,145,35167,2,2,B|304:131|268:166|268:166|268:115|225:97,1,160,2|0,3:2|0:0,3:0:0:0:
103,40,35730,5,6,3:2:0:0:
46,91,35917,1,0,0:0:0:0:
115,209,36105,2,0,L|101:154,1,40,10|0,0:2|0:0,0:0:0:0:
179,245,36292,2,0,P|192:316|155:378,1,120,2|0,3:2|0:0,0:0:0:0:
96,384,36667,2,0,L|62:362,1,40,10|0,0:2|0:0,0:0:0:0:
173,358,36855,1,2,3:2:0:0:
251,382,37042,1,2,1:2:0:0:
289,307,37230,6,0,P|335:302|384:334,1,80,2|2,3:2|0:2,0:0:0:0:
451,316,37605,2,0,L|446:276,2,40,10|2|2,0:2|0:2|3:2,0:0:0:0:
376,236,37980,1,2,0:2:0:0:
375,223,38073,1,2,0:2:0:0:
373,212,38167,1,8,0:2:0:0:
470,177,38355,2,0,P|491:153|480:63,1,120,2|0,3:2|0:0,0:0:0:0:
378,72,38730,6,0,B|338:86|350:56|276:43|240:112,1,160,6|10,3:2|0:2,0:0:0:0:
252,234,39292,2,0,P|194:240|177:184,1,120,2|0,3:2|0:0,0:0:0:0:
95,146,39667,1,10,0:2:0:0:
41,81,39855,1,2,3:2:0:0:
123,67,40042,1,2,1:2:0:0:
7,193,40230,6,0,L|15:253,2,40,2|0|2,3:2|0:0|0:2,0:0:0:0:
24,316,40605,1,10,3:2:0:0:
124,241,40792,1,2,0:3:0:0:
126,229,40886,1,2,0:3:0:0:
127,218,40980,2,0,L|135:150,1,40,2|2,3:0|0:0,0:0:0:0:
205,139,41167,1,10,0:2:0:0:
172,306,41355,2,0,P|226:292|306:323,1,120,2|0,3:2|0:0,0:0:0:0:
327,373,41730,5,6,3:2:0:0:
436,229,41917,1,0,0:0:0:0:
456,313,42105,2,0,L|467:359,1,40,10|0,0:2|0:0,0:0:0:0:
375,288,42292,2,2,P|351:242|378:167,1,120,2|0,3:2|0:0,3:0:0:0:
334,108,42667,1,10,0:2:0:0:
431,70,42855,2,0,L|351:76,1,80,2|2,3:2|1:2,0:0:0:0:
210,169,43230,6,2,P|302:187|381:174,1,160,2|10,3:2|0:2,1:0:0:0:
473,186,43792,2,2,P|406:180|398:277,1,160,2|10,3:2|0:2,3:0:0:0:
422,341,44355,2,0,L|326:333,1,80,2|2,3:2|1:2,0:0:0:0:
330,332,44636,1,0,0:0:0:0:
318,331,44730,5,2,3:2:0:0:
250,384,44917,1,0,3:2:0:0:
107,322,45105,2,0,L|47:336,1,40,10|0,0:2|0:0,0:0:0:0:
166,271,45292,2,0,P|195:218|172:147,1,120,6|0,3:2|0:0,0:0:0:0:
144,89,45667,1,10,0:2:0:0:
59,177,45855,2,0,P|43:135|69:66,1,120,2|0,3:2|0:0,0:0:0:0:
122,10,46230,5,2,3:2:0:0:
264,83,46417,1,2,1:2:0:0:
144,89,46605,2,0,L|262:70,1,120,2|0,3:2|0:0,0:0:0:0:
367,16,46980,2,0,P|390:16|419:28,1,40,0|0,3:0|0:0,0:0:0:0:
370,110,47167,5,2,0:2:0:0:
372,101,47354,5,2,0:2:0:0:
374,91,47542,5,2,0:2:0:0:
488,151,47730,6,0,P|432:227|446:277,1,120,6|0,3:2|0:0,0:0:0:0:
483,305,48105,1,10,0:2:0:0:
404,371,48292,2,0,P|354:347|287:352,1,120,2|0,3:2|0:0,0:0:0:0:
203,384,48667,1,10,0:2:0:0:
127,349,48854,1,2,3:2:0:0:
196,300,49042,1,2,1:2:0:0:
25,316,49230,6,0,P|13:280|12:211,1,80,2|2,3:2|0:2,0:0:0:0:
104,219,49605,2,0,L|111:179,2,40,10|2|2,0:2|0:2|3:2,0:0:0:0:
41,139,49980,1,2,0:2:0:0:
40,126,50073,1,2,0:2:0:0:
38,115,50167,1,8,0:2:0:0:
128,86,50355,2,0,P|159:86|202:160,1,120,2|0,3:2|0:0,0:0:0:0:
204,155,50730,6,0,P|238:104|346:128,1,160,6|10,3:2|0:2,0:0:0:0:
447,58,51292,2,0,P|459:136|461:204,1,120,2|0,3:2|0:0,0:0:0:0:
415,249,51667,1,10,0:2:0:0:
335,113,51855,1,2,3:2:0:0:
368,38,52042,1,2,1:2:0:0:
204,112,52230,6,0,L|150:103,1,40,2|0,3:2|0:0,0:0:0:0:
286,173,52417,2,0,L|232:183,1,40,2|0,0:2|0:0,0:0:0:0:
405,164,52605,2,0,L|357:191,1,40,10|0,0:2|0:0,0:0:0:0:
486,30,52792,2,0,P|448:-5|451:76,1,160,10|10,0:2|0:2,0:0:0:0:
486,172,53355,2,0,P|479:210|452:239,1,80,2|0,3:2|0:0,0:0:0:0:
320,328,53730,5,6,3:2:0:0:
274,252,53917,1,0,0:0:0:0:
237,325,54105,2,0,P|236:348|247:376,1,40,10|0,0:2|0:0,0:0:0:0:
274,252,54292,2,2,P|227:220|140:246,1,120,2|0,3:2|0:0,3:0:0:0:
138,154,54667,1,10,0:2:0:0:
41,222,54855,2,0,B|44:186|44:186|39:184|39:184|44:186|44:186|49:141,1,80,2|2,3:2|1:2,0:0:0:0:
197,11,55230,6,2,B|217:92|217:92|142:114,1,160,2|10,3:2|0:2,1:0:0:0:
41,222,55792,2,2,P|23:314|92:330,1,160,2|10,3:2|0:2,3:0:0:0:
148,283,56355,2,0,P|178:289|212:292,1,40,2|0,3:2|0:0,0:0:0:0:
233,356,56542,1,2,1:2:0:0:
293,262,56730,2,0,P|350:237|415:254,1,120,2|0,3:2|0:0,0:0:0:0:
448,319,57105,1,10,0:2:0:0:
293,262,57292,6,0,P|271:201|297:97,1,160,6|10,3:2|0:2,0:0:0:0:
441,72,57855,2,0,P|403:104|370:106,1,80,2|0,3:2|0:0,0:0:0:0:
324,41,58230,5,2,3:2:0:0:
251,4,58417,1,2,1:2:0:0:
88,88,58605,2,0,P|146:73|211:71,1,120,2|0,3:2|0:0,0:0:0:0:
244,134,58980,1,0,3:2:0:0:
156,224,59167,2,0,P|185:231|217:232,1,40,2|0,0:1|0:0,0:0:0:0:
68,248,59355,6,0,B|66:251|14:228|14:228|73:256|100:282,1,160,10|0,0:2|0:2,0:0:0:0:
274,251,63667,5,2,3:2:0:0:
276,242,63854,5,2,3:2:0:0:
278,232,64042,5,2,3:2:0:0:
178,170,64230,2,2,P|122:242|149:301,1,160,2|0,3:2|0:0,1:0:0:0:
216,352,64792,6,0,P|276:342|360:336,1,120,2|0,3:2|0:0,0:0:0:0:
408,368,65167,1,0,1:0:0:0:
448,232,65355,2,2,L|480:184,1,40,10|0,0:2|0:0,3:0:0:0:
480,312,65542,2,0,L|512:360,1,40
350,242,65730,6,0,P|318:226|254:250,2,80,6|2|2,3:2|0:2|1:2,0:0:0:0:
445,120,66292,1,2,3:2:0:0:
433,123,66386,1,2,0:2:0:0:
423,124,66480,2,0,P|382:126|338:113,1,80,2|2,0:2|1:2,0:0:0:0:
276,66,66855,2,0,L|232:71,2,40,2|2|2,3:2|0:2|1:2,0:0:0:0:
168,10,67230,6,0,P|145:64|161:120,1,120,6|2,3:2|0:2,0:0:0:0:
52,120,67605,1,2,1:2:0:0:
60,125,67698,1,2,0:2:0:0:
65,131,67792,2,0,P|97:203|89:267,1,120,2|0,3:2|0:0,0:0:0:0:
45,312,68167,1,2,1:2:0:0:
95,242,68355,2,0,L|223:234,1,120,10|0,1:2|0:0,0:0:0:0:
267,171,68730,5,2,3:2:0:0:
260,299,68917,1,2,2:0:0:0:
284,317,69010,1,2,0:2:0:0:
313,322,69104,1,8,1:2:0:0:
341,314,69198,1,2,0:2:0:0:
364,295,69292,1,2,0:2:0:0:
224,368,69480,5,14,0:2:0:0:
152,120,69855,1,14,0:2:0:0:
172,297,70230,6,0,P|103:262|24:282,1,160,2|0,3:2|3:2,0:0:0:0:
83,162,70792,2,0,P|75:86|136:40,1,160,2|2,0:3|0:3,0:0:0:0:
216,72,71355,1,2,3:2:0:0:
304,176,71730,6,0,B|257:161|199:192|199:192|183:159|146:125,1,160,2|2,3:2|3:2,0:0:0:0:
13,157,72292,2,0,B|4:205|39:227|72:250|53:331,1,160,2|2,0:3|0:3,0:0:0:0:
136,384,72855,2,0,P|168:352|160:296,1,80,2|0,3:2|0:0,0:0:0:0:
227,261,73136,1,0,0:0:0:0:
235,260,73230,6,0,L|331:252,1,80,2|2,3:2|0:3,0:0:0:0:
368,185,73605,1,2,3:2:0:0:
283,74,73792,2,0,B|259:84|259:84|108:68,1,160,2|2,0:3|1:2,0:0:0:0:
57,26,74355,2,0,P|7:54|11:111,1,120,2|0,3:2|0:0,0:0:0:0:
68,220,74730,6,0,L|62:181,1,40,2|0,1:2|0:0,0:0:0:0:
158,139,74917,2,0,L|153:178,1,40,2|0,1:2|0:0,0:0:0:0:
230,226,75105,1,2,1:2:0:0:
176,354,75292,2,0,P|136:294|170:257,1,120,2|0,3:2|0:0,0:0:0:0:
230,226,75667,1,2,0:3:0:0:
307,320,75855,2,0,P|350:330|397:317,1,80,4|0,3:2|0:0,0:0:0:0:
417,288,76136,1,0,0:0:0:0:
417,288,76230,6,0,L|429:193,1,80,2|2,3:2|0:3,0:0:0:0:
511,172,76605,2,0,L|500:92,1,80,0|2,3:2|0:3,0:0:0:0:
365,119,76980,2,0,B|325:144|325:144|245:123,1,120,0|0,3:0|0:0,0:0:0:0:
200,69,77355,1,2,3:2:0:0:
248,11,77542,1,0,1:2:0:0:
99,146,77730,6,0,P|102:196|215:190,1,160,0|2,3:2|3:2,0:0:0:0:
275,168,78292,2,0,P|350:168|371:239,1,160,2|2,0:3|0:3,0:0:0:0:
371,239,78855,2,0,L|381:149,1,80,0|0,3:2|1:2,0:0:0:0:
467,142,79136,1,0,0:0:0:0:
467,142,79230,6,0,B|477:179|477:179|465:108|489:51,1,160,2|2,3:2|3:2,0:0:0:0:
390,61,79792,2,0,L|253:43,1,120,2|0,0:3|0:0,0:0:0:0:
198,84,80167,1,2,1:2:0:0:
303,182,80355,2,0,B|218:188|218:188|225:183|225:183|219:187|219:187|163:191,1,120,2|0,3:2|0:0,0:0:0:0:
124,198,80730,6,0,P|128:217|138:234,1,40,2|0,3:2|0:0,0:0:0:0:
198,84,80917,2,0,P|179:92|164:104,1,40,2|0,1:2|0:0,0:0:0:0:
21,127,81105,2,0,P|40:125|60:128,1,40,2|0,1:2|0:0,0:0:0:0:
98,53,81292,5,2,3:1:0:0:
98,53,81667,2,0,P|51:122|66:219,1,160,6|0,3:2|0:0,0:0:0:0:
90,294,82230,5,6,3:2:0:0:
33,345,82417,1,0,0:0:0:0:
175,234,82605,2,0,L|120:220,1,40,10|0,0:2|0:0,0:0:0:0:
199,326,82792,2,0,P|270:339|332:302,1,120,2|0,3:2|0:0,0:0:0:0:
400,328,83167,2,0,L|422:362,1,40,10|0,0:2|0:0,0:0:0:0:
474,223,83355,1,2,3:2:0:0:
479,302,83542,1,2,1:2:0:0:
402,172,83730,6,0,P|358:155|296:162,1,80,2|2,3:2|0:2,0:0:0:0:
287,240,84105,2,0,L|247:245,2,40,10|2|2,0:2|0:2|3:2,0:0:0:0:
232,168,84480,1,2,0:2:0:0:
231,155,84573,1,2,0:2:0:0:
229,144,84667,1,8,0:2:0:0:
120,216,84855,2,0,P|99:191|111:101,1,120,2|0,3:2|0:0,0:0:0:0:
96,32,85230,6,0,B|144:23|166:58|189:91|270:72,1,160,6|10,3:2|0:2,0:0:0:0:
400,8,85792,2,0,P|342:17|334:81,1,120,2|0,3:2|0:0,0:0:0:0:
296,144,86167,1,10,0:2:0:0:
344,208,86355,1,2,3:2:0:0:
424,192,86542,1,2,1:2:0:0:
400,328,86730,6,0,P|353:323|304:312,1,80,2|0,0:2|0:0,0:0:0:0:
224,336,87105,2,0,P|177:340|128:352,2,80,2|2|2,0:2|0:2|2:2,0:0:0:0:
176,240,87855,2,2,P|232:221|250:294,1,120,8|0,2:0|0:0,0:0:0:0:
224,336,88230,5,4,3:2:0:0:
75,242,88417,1,0,0:0:0:0:
64,344,88605,2,0,L|53:390,1,40,10|0,2:0|0:0,0:0:0:0:
136,304,88792,2,2,P|160:258|133:183,1,120,2|0,3:2|0:0,3:0:0:0:
144,112,89167,1,10,0:2:0:0:
47,74,89355,2,0,L|127:80,1,80,2|2,3:2|1:2,0:0:0:0:
208,168,89730,6,2,P|296:192|376:160,1,160,2|10,3:2|0:2,1:0:0:0:
424,24,90292,2,2,P|357:18|349:115,1,160,2|10,3:2|0:2,3:0:0:0:
432,224,90855,2,0,L|440:128,1,80,2|2,3:2|1:2,0:0:0:0:
439,132,91136,1,0,0:0:0:0:
440,120,91230,5,2,3:2:0:0:
272,240,91417,1,0,3:2:0:0:
264,128,91605,2,0,L|201:125,1,40,10|0,0:2|0:0,0:0:0:0:
323,179,91792,2,0,P|352:232|324:301,1,120,6|0,3:2|0:0,0:0:0:0:
301,361,92167,1,10,0:2:0:0:
200,272,92355,2,0,P|184:314|210:383,1,120,2|0,3:2|0:0,0:0:0:0:
104,335,92730,5,2,3:2:0:0:
0,236,92917,1,2,0:2:0:0:
24,320,93105,2,0,L|43:202,1,120,2|0,3:2|0:0,0:0:0:0:
144,136,93480,2,0,P|121:136|92:148,1,40,0|0,3:0|0:0,0:0:0:0:
152,51,93667,6,0,L|136:38,1,20,10|0,0:2|0:0,0:0:0:0:
169,55,93855,2,0,L|158:38,1,20,2|2,1:2|1:2,0:0:0:0:
183,64,94042,2,0,L|178:44,1,20,2|2,1:2|1:2,0:0:0:0:
144,216,94230,6,0,P|220:272|270:258,1,120,6|0,3:2|0:0,0:0:0:0:
298,221,94605,1,10,0:2:0:0:
360,288,94792,2,0,P|392:240|379:171,1,120,2|0,3:2|0:0,0:0:0:0:
440,120,95167,1,10,0:2:0:0:
336,112,95355,2,0,L|424:96,1,80,2|2,3:2|1:2,0:0:0:0:
352,30,95730,6,0,P|320:8|259:8,1,80,2|2,3:2|0:2,0:0:0:0:
207,57,96105,2,0,L|214:97,2,40,10|2|2,0:2|0:2|3:2,0:0:0:0:
266,162,96480,1,2,0:2:0:0:
265,175,96573,1,2,0:2:0:0:
263,186,96667,1,8,0:2:0:0:
213,96,96855,2,0,P|189:75|99:86,1,120,2|0,3:2|0:0,0:0:0:0:
13,66,97230,6,0,P|29:152|29:232,1,160,6|10,3:2|0:2,0:0:0:0:
192,216,97792,2,0,P|176:288|178:362,1,120,2|0,3:2|0:0,0:0:0:0:
232,384,98167,1,10,0:2:0:0:
60,315,98355,1,2,3:2:0:0:
0,369,98542,1,2,1:2:0:0:
61,205,98730,6,0,L|48:168,1,40,2|0,1:2|0:0,0:0:0:0:
184,248,98917,2,0,L|197:285,1,40,2|0,1:2|0:0,0:0:0:0:
128,128,99105,2,0,L|141:90,1,40,10|0,0:2|0:0,0:0:0:0:
232,160,99292,6,0,B|240:162|251:158|251:158|245:162|245:162|265:160|265:160|259:164|259:164|278:162|278:162|273:166|273:166|292:164|292:164|287:168|287:168|306:171,1,120,2|0,0:1|0:0,0:0:0:0:
376,136,99667,1,0,0:0:0:0:
311,318,99855,2,0,B|309:335|300:350|300:350|316:353|326:366|326:366|328:352|334:343|334:343|319:332|312:315,1,120,10|0,3:2|0:0,0:0:0:0:
416,304,100230,5,6,3:2:0:0:
479,252,100417,1,0,0:0:0:0:
441,92,100605,2,0,B|451:79|461:84|461:84|447:87|445:96,1,40,10|0,0:2|0:0,0:0:0:0:
376,136,100792,2,2,P|329:168|242:142,1,120,2|0,3:2|0:0,3:0:0:0:
216,104,101167,1,10,0:2:0:0:
80,168,101355,2,0,B|118:176|118:176|120:184|120:184|123:178|123:178|184:192,1,80,2|2,3:2|1:2,0:0:0:0:
21,218,101730,6,2,P|0:152|64:88,1,160,2|10,3:2|0:2,1:0:0:0:
224,224,102292,2,2,P|245:290|181:354,1,160,2|10,3:2|0:2,3:0:0:0:
107,384,102855,1,2,3:2:0:0:
18,298,103042,1,2,1:2:0:0:
16,288,103136,1,0,0:0:0:0:
16,280,103230,6,0,P|15:256|23:226,1,40,2|0,3:2|0:0,0:0:0:0:
96,195,103417,2,0,P|102:217|102:235,1,40,0|0,3:2|0:0,0:0:0:0:
41,133,103605,1,10,0:2:0:0:
104,64,103792,2,0,L|256:80,1,120,6|0,3:2|0:0,0:0:0:0:
288,32,104167,1,10,0:2:0:0:
368,144,104355,2,0,P|330:176|297:178,1,80,2|0,3:2|0:0,0:0:0:0:
424,80,104730,5,2,3:2:0:0:
368,16,104917,1,2,1:2:0:0:
368,144,105105,2,0,L|384:280,1,120,2|0,3:2|0:0,0:0:0:0:
328,320,105480,1,0,3:0:0:0:
218,247,105667,2,0,L|257:251,1,40,2|0,0:1|0:0,0:0:0:0:
164,302,105855,1,10,0:2:0:0:
73,384,106042,1,0,0:0:0:0:
80,379,106136,1,0,0:0:0:0:
88,374,106230,6,0,P|120:326|64:214,1,160,0|2,0:0|1:2,0:0:0:0:
123,124,106792,1,2,0:3:0:0:
137,120,106886,1,0,0:0:0:0:
146,117,106980,2,0,P|185:110|223:97,1,80,0|2,0:0|0:3,0:0:0:0:
244,211,107355,2,0,P|283:217|321:230,1,80,2|2,1:2|0:3,0:0:0:0:
362,324,107730,2,0,P|413:308|425:275,1,80,0|2,0:0|0:3,0:0:0:0:
422,114,108105,2,0,P|389:156|398:191,1,80,2|2,1:2|0:2,0:0:0:0:
512,40,108480,2,0,L|328:16,1,160,0|2,0:0|1:2,0:0:0:0:
302,185,109042,1,2,0:3:0:0:
292,186,109136,1,2,0:0:0:0:
284,189,109230,6,0,P|208:205|154:209,1,120
110,154,109605,1,2,1:2:0:0:
176,107,109792,1,2,0:3:0:0:
40,88,109980,2,0,P|19:126|0:184,1,80
85,222,110355,1,2,1:2:0:0:
8,280,110542,1,2,1:3:0:0:
18,279,110636,1,2,0:0:0:0:
26,276,110730,6,0,P|101:259|156:256,1,120
170,282,111105,2,0,P|234:314|266:298,1,80,2|2,1:2|1:3,0:0:0:0:
308,283,111386,1,2,0:0:0:0:
312,295,111480,6,0,P|323:350|326:391,1,80,0|0,1:0|0:0,0:0:0:0:
416,248,111855,2,0,P|404:303|401:344,1,80,2|0,1:2|0:0,0:0:0:0:
244,241,112230,2,0,P|332:193|364:201,1,120,2|0,0:0|0:0,0:0:0:0:
424,235,112605,1,2,1:2:0:0:
386,90,112792,1,2,0:3:0:0:
377,81,112886,1,2,0:0:0:0:
368,73,112980,2,0,P|331:61|264:59,1,80,0|2,0:0|0:3,0:0:0:0:
243,131,113261,1,2,0:0:0:0:
231,135,113355,6,0,P|175:147|134:150,1,80,2|2,1:2|0:3,0:0:0:0:
80,192,113636,1,2,0:0:0:0:
86,202,113730,6,0,P|106:262|102:346,1,120
56,384,114105,1,2,1:2:0:0:
56,384,114292,1,2,1:2:0:0:
192,320,114480,6,0,P|252:300|370:332,1,160,0|2,0:0|1:2,0:0:0:0:
462,321,115042,1,2,0:3:0:0:
461,309,115136,1,2,0:0:0:0:
460,298,115230,2,0,L|449:165,1,120,2|0,0:2|0:0,0:0:0:0:
476,101,115605,2,0,P|509:47|490:12,1,80,2|2,1:2|0:3,0:0:0:0:
397,81,115980,2,0,P|340:102|312:104,1,80,2|2,1:2|0:3,0:0:0:0:
233,150,116261,1,0,0:0:0:0:
223,147,116355,6,0,P|168:133|128:128,1,80,2|2,1:2|0:3,0:0:0:0:
113,158,116636,1,0,0:0:0:0:
110,173,116730,5,2,3:0:0:0:
142,349,116917,1,0,0:0:0:0:
177,329,117010,1,2,0:0:0:0:
197,295,117104,1,2,3:0:0:0:
197,255,117198,1,2,0:0:0:0:
177,221,117292,1,0,0:0:0:0:
31,217,117480,6,2,B|53:232|42:289|42:289|74:256|118:270,1,160,14|2,0:2|2:0,0:0:0:0:
