osu file format v14

[General]
AudioFilename: audio.mp3
AudioLeadIn: 0
PreviewTime: 35636
Countdown: 0
SampleSet: Soft
StackLeniency: 0.3
Mode: 0
LetterboxInBreaks: 0
WidescreenStoryboard: 1

[Editor]
Bookmarks: 63667,82230,94230,117855
DistanceSpacing: 0.8
BeatDivisor: 16
GridSize: 32
TimelineZoom: 3.699999

[Metadata]
Title:A Bella! (feat. Lucy)
TitleUnicode:A Bella! (feat. Lucy)
Artist:M2U
ArtistUnicode:M2U
Creator:Mithia
Version:Stella de Betania
Source:하이파이브
Tags:HIGH5 DIVERSITY. UICY-15598 Drug Step SQUARE MUSIQ Original Soundtrack OST PNIX Games Electronic video game latin other Nodoro Pepekcz too [[Pause]] SHOGUNMOON00999 Houtaro Zerephiehell
BeatmapID:3558871
BeatmapSetID:1740863

[Difficulty]
HPDrainRate:5
CircleSize:4.5
OverallDifficulty:8.5
ApproachRate:9.6
SliderMultiplier:2
SliderTickRate:1

[Events]
//Background and Video events
0,0,"cute girl.jpg",0,0
//Break Periods
2,59930,62730
//Storyboard Layer 0 (Background)
//Storyboard Layer 1 (Fail)
//Storyboard Layer 2 (Pass)
//Storyboard Layer 3 (Foreground)
//Storyboard Layer 4 (Overlay)
//Storyboard Sound Samples

[TimingPoints]
-270,375,4,2,1,30,1,0
855,-66.6666666666667,4,2,1,30,0,0
1136,-66.6666666666667,4,2,1,5,0,0
1230,-66.6666666666667,4,2,1,70,0,0
1605,-50,4,2,1,70,0,0
1792,-66.6666666666667,4,2,1,70,0,0
2167,-83.3333333333333,4,2,1,70,0,0
2730,-50,4,2,1,70,0,0
2917,-40,4,2,1,70,0,0
3105,-50,4,2,1,70,0,0
3292,-66.6666666666667,4,2,1,70,0,0
4042,-55.5555555555556,4,2,1,70,0,0
4230,-66.6666666666667,4,2,1,70,0,0
4417,-50,4,2,1,70,0,0
4605,-66.6666666666667,4,2,1,70,0,0
4792,-83.3333333333333,4,2,1,70,0,0
5167,-55.5555555555556,4,2,1,70,0,0
5730,-83.3333333333333,4,2,1,70,0,0
6292,-100,4,2,1,70,0,0
7230,-66.6666666666667,4,2,1,70,0,0
7605,-50,4,2,1,70,0,0
7792,-76.9230769230769,4,2,1,70,0,0
8167,-66.6666666666667,4,2,1,70,0,0
9667,-50,4,2,1,70,0,0
10042,-66.6666666666667,4,2,1,70,0,0
10792,-62.5,4,2,1,70,0,0
11167,-83.3333333333333,4,2,1,70,0,0
11730,-50,4,2,1,70,0,0
11870,-50,4,2,1,5,0,0
11917,-50,4,2,1,70,0,0
12855,-100,4,2,3,70,0,0
13136,-100,4,2,3,5,0,0
13230,-76.9230769230769,4,2,1,60,0,0
14730,-83.3333333333333,4,2,1,60,0,0
15105,-55.5555555555556,4,2,1,60,0,0
15292,-83.3333333333333,4,2,1,60,0,0
15855,-55.5555555555556,4,2,1,60,0,0
16230,-83.3333333333333,4,2,1,60,0,0
17167,-66.6666666666667,4,2,1,60,0,0
18292,-58.8235294117647,4,2,1,60,0,0
18855,-83.3333333333333,4,2,1,60,0,0
19183,-83.3333333333333,4,2,1,5,0,0
19230,-90.9090909090909,4,2,1,60,0,0
19792,-100,4,2,1,60,0,0
20730,-83.3333333333333,4,2,1,60,0,0
21105,-66.6666666666667,4,2,1,60,0,0
21292,-86.9565217391304,4,2,1,60,0,0
21667,-55.5555555555556,4,2,1,60,0,0
22230,-83.3333333333333,4,2,1,60,0,0
22745,-83.3333333333333,4,2,1,5,0,0
22792,-55.5555555555556,4,2,1,70,0,0
23167,-50,4,2,1,70,0,0
23308,-83.3333333333333,4,2,1,5,0,0
23355,-55.5555555555556,4,2,1,70,0,0
23730,-100,4,2,1,70,0,0
25230,-76.9230769230769,4,2,1,70,0,0
25792,-100,4,2,1,70,0,0
28230,-263.157894736842,4,2,1,70,0,0
28792,-66.6666666666667,4,2,1,70,0,0
29120,-66.6666666666667,4,2,1,5,0,0
29167,-66.6666666666667,4,2,1,70,0,0
29355,-50,4,2,1,70,0,0
29730,-100,4,2,1,70,0,0
31792,-90.9090909090909,4,2,1,70,0,0
33292,-83.3333333333333,4,2,1,70,0,0
33667,-55.5555555555556,4,2,1,70,0,0
33855,-66.6666666666667,4,2,1,70,0,0
34136,-66.6666666666667,4,2,1,5,0,0
34230,-50,4,2,1,70,0,0
34792,-76.9230769230769,4,2,1,70,0,0
35167,-66.6666666666667,4,2,1,70,0,0
35730,-45.4545454545455,4,2,1,85,0,1
36105,-66.6666666666667,4,2,1,85,0,1
36292,-40,4,2,1,85,0,1
36620,-83.3333333333333,4,2,1,5,0,1
36667,-55.5555555555556,4,2,1,85,0,1
38730,-66.6666666666667,4,2,1,85,0,1
39105,-50,4,2,1,85,0,1
39292,-43.4782608695652,4,2,1,85,0,1
39620,-83.3333333333333,4,2,1,5,0,1
39667,-50,4,2,1,85,0,1
40230,-66.6666666666667,4,2,1,85,0,1
41683,-83.3333333333333,4,2,1,5,0,1
41730,-40,4,2,1,85,0,1
42292,-66.6666666666667,4,2,1,85,0,1
42667,-58.8235294117647,4,2,1,85,0,1
42855,-66.6666666666667,4,2,1,85,0,1
43230,-50,4,2,1,85,0,1
43792,-40,4,2,1,85,0,1
44730,-66.6666666666667,4,2,1,85,0,1
45292,-55.5555555555556,4,2,1,85,0,1
45620,-55.5555555555556,4,2,1,5,0,1
45667,-55.5555555555556,4,2,1,85,0,1
46230,-43.4782608695652,4,2,1,85,0,1
46980,-50,4,2,1,85,0,0
47120,-50,4,2,1,5,0,0
47167,-50,4,2,1,85,0,0
47730,-50,4,2,1,85,0,1
48855,-50,4,2,1,85,0,1
50730,-58.8235294117647,4,2,1,85,0,1
51105,-50,4,2,1,85,0,1
51855,-90.9090909090909,4,2,1,85,0,1
52230,-55.5555555555556,4,2,1,85,0,1
52417,-40,4,2,1,85,0,1
52605,-33.3333333333333,4,2,1,85,0,1
52792,-33.3333333333333,4,2,1,85,0,1
53120,-33.3333333333333,4,2,1,5,0,1
53167,-33.3333333333333,4,2,1,85,0,1
53355,-100,4,2,1,85,0,1
53730,-50,4,2,1,85,0,1
54292,-66.6666666666667,4,2,1,85,0,1
54667,-50,4,2,1,85,0,1
54855,-66.6666666666667,4,2,1,85,0,1
55230,-44.4444444444445,4,2,1,85,0,1
55792,-41.6666666666667,4,2,1,85,0,1
56730,-66.6666666666667,4,2,1,85,0,1
57292,-55.5555555555556,4,2,1,85,0,1
57620,-55.5555555555556,4,2,1,5,0,1
57667,-55.5555555555556,4,2,1,85,0,1
58230,-43.4782608695652,4,2,1,85,0,1
58980,-33.3333333333333,4,2,1,85,0,1
59120,-33.3333333333333,4,2,1,5,0,1
59167,-50,4,2,1,85,0,1
59355,-125,4,2,1,85,0,1
59730,-100,4,2,1,60,0,0
63667,-113.636363636364,4,2,1,30,0,0
64230,-83.3333333333333,4,2,1,30,0,0
64792,-55.5555555555556,4,2,1,50,0,0
65120,-55.5555555555556,4,2,1,5,0,0
65167,-55.5555555555556,4,2,1,50,0,0
65308,-55.5555555555556,4,2,1,5,0,0
65355,-66.6666666666667,4,2,1,60,0,0
66105,-55.5555555555556,4,2,1,60,0,0
66245,-55.5555555555556,4,2,1,5,0,0
66292,-55.5555555555556,4,2,1,60,0,0
67230,-50,4,2,1,60,0,0
67792,-66.6666666666667,4,2,1,60,0,0
68167,-50,4,2,1,60,0,0
68355,-83.3333333333333,4,2,1,60,0,0
68730,-76.9230769230769,4,2,1,60,0,0
69011,-66.6666666666667,4,2,1,60,0,0
69480,-54.054054054054,4,2,1,60,0,0
70230,-100,4,2,1,70,0,0
71355,-83.3333333333333,4,2,1,70,0,0
71730,-100,4,2,1,70,0,0
72292,-125,4,2,1,70,0,0
72855,-111.111111111111,4,2,1,70,0,0
73792,-100,4,2,1,70,0,0
74355,-90.9090909090909,4,2,1,70,0,0
74730,-100,4,2,1,70,0,0
75292,-142.857142857143,4,2,1,70,0,0
75855,-40,4,2,1,70,0,0
76230,-90.9090909090909,4,2,1,70,0,0
77355,-83.3333333333333,4,2,1,70,0,0
77730,-100,4,2,1,70,0,0
79792,-66.6666666666667,4,2,1,70,0,0
80308,-66.6666666666667,4,2,1,5,0,0
80355,-66.6666666666667,4,2,1,70,0,0
80730,-50,4,2,1,70,0,0
80870,-66.6666666666667,4,2,1,5,0,0
80917,-50,4,2,1,70,0,0
81667,-83.3333333333333,4,2,1,70,0,0
82230,-40,4,2,1,85,0,1
82558,-40,4,2,1,5,0,1
82605,-50,4,2,1,85,0,1
82792,-43.4782608695652,4,2,1,85,0,1
83120,-40,4,2,1,5,0,1
83167,-55.5555555555556,4,2,1,85,0,1
83542,-43.4782608695652,4,2,1,85,0,1
84292,-33.3333333333333,4,2,1,85,0,1
85230,-62.5,4,2,1,85,0,1
85605,-40,4,2,1,85,0,1
85792,-43.4782608695652,4,2,1,85,0,1
86167,-50,4,2,1,85,0,1
86730,-125,4,2,1,70,0,0
87105,-80,4,2,1,70,0,0
87480,-76.9230769230769,4,2,1,50,0,0
87808,-40,4,2,1,5,0,0
87855,-61.3496932515337,4,2,2,80,0,0
88230,-40,4,2,1,85,0,1
88792,-58.8235294117647,4,2,1,85,0,1
89167,-50,4,2,1,85,0,1
89355,-66.6666666666667,4,2,1,85,0,1
89730,-52.6315789473684,4,2,1,85,0,1
90292,-42.5531914893617,4,2,1,85,0,1
91230,-66.6666666666667,4,2,1,85,0,1
91417,-90.9090909090909,4,2,1,85,0,1
91792,-50,4,2,1,85,0,1
92730,-55.5555555555556,4,2,1,85,0,1
92870,-55.5555555555556,4,2,1,5,0,1
92917,-55.5555555555556,4,2,1,85,0,1
93058,-55.5555555555556,4,2,1,5,0,1
93105,-55.5555555555556,4,2,1,85,0,1
93245,-55.5555555555556,4,2,1,5,0,1
93292,-55.5555555555556,4,2,1,85,0,1
93433,-55.5555555555556,4,2,1,5,0,1
93480,-55.5555555555556,4,2,1,85,0,0
93620,-55.5555555555556,4,2,1,5,0,0
93667,-55.5555555555556,4,2,1,85,0,0
93855,-55.5555555555556,4,2,1,40,0,0
93948,-55.5555555555556,4,2,1,50,0,0
94042,-55.5555555555556,4,2,1,60,0,0
94136,-55.5555555555556,4,2,1,70,0,0
94230,-50,4,2,1,85,0,1
94605,-66.6666666666667,4,2,1,85,0,1
94792,-40,4,2,1,85,0,1
95120,-40,4,2,1,85,0,0
95167,-55.5555555555556,4,2,1,85,0,1
95355,-66.6666666666667,4,2,1,85,0,1
96292,-50,4,2,1,85,0,1
96855,-33.3333333333333,4,2,1,85,0,1
97230,-66.6666666666667,4,2,1,85,0,1
97605,-50,4,2,1,85,0,1
97792,-58.8235294117647,4,2,1,85,0,1
98167,-50,4,2,1,85,0,1
98355,-66.6666666666667,4,2,1,85,0,1
98542,-100,4,2,1,85,0,1
98730,-66.6666666666667,4,2,1,85,0,1
98917,-50,4,2,1,85,0,1
99105,-40,4,2,1,85,0,1
99245,-40,4,2,1,5,0,1
99292,-61.7283950617284,4,2,1,85,0,1
99620,-40,4,2,1,5,0,1
99667,-40,4,2,1,85,0,1
99808,-40,4,2,1,5,0,1
99855,-83.3333333333333,4,2,1,85,0,0
100183,-40,4,2,1,5,0,1
100230,-50,4,2,1,85,0,1
100792,-66.6666666666667,4,2,1,85,0,1
101167,-52.6315789473684,4,2,1,85,0,1
101355,-66.6666666666667,4,2,1,85,0,1
101730,-55.5555555555556,4,2,1,85,0,1
102292,-43.4782608695652,4,2,1,85,0,1
103230,-40,4,2,1,85,0,1
103417,-66.6666666666667,4,2,1,85,0,1
103792,-55.5555555555556,4,2,1,85,0,1
104120,-55.5555555555556,4,2,1,5,0,1
104167,-55.5555555555556,4,2,1,85,0,1
104870,-55.5555555555556,4,2,1,5,0,1
104917,-55.5555555555556,4,2,1,85,0,1
105058,-55.5555555555556,4,2,1,5,0,1
105105,-55.5555555555556,4,2,1,85,0,1
105245,-55.5555555555556,4,2,1,5,0,1
105292,-55.5555555555556,4,2,1,85,0,1
105433,-55.5555555555556,4,2,1,5,0,1
105480,-55.5555555555556,4,2,1,85,0,1
105667,-50,4,2,1,85,0,1
105855,-47.6190476190476,4,2,1,85,0,1
106230,-100,4,2,1,55,0,0
107730,-125,4,2,1,55,0,0
108105,-76.9230769230769,4,2,1,55,0,0
108480,-100,4,2,1,55,0,0
109230,-83.3333333333333,4,2,1,55,0,0
109605,-125,4,2,1,55,0,0
110730,-83.3333333333333,4,2,1,55,0,0
111480,-100,4,2,1,55,0,0
111855,-100,4,2,1,55,0,0
112980,-86.9565217391304,4,2,1,55,0,0
113730,-100,4,2,1,55,0,0
115230,-66.6666666666667,4,2,1,55,0,0
115605,-86.9565217391304,4,2,1,55,0,0
115980,-83.3333333333333,4,2,1,55,0,0
116730,-83.3333333333333,4,2,1,80,0,0
117105,-66.6666666666667,4,2,1,80,0,0
117480,-40,4,2,1,80,0,0
117855,-40,4,2,1,5,0,0

[Colours]
Combo1 : 73,85,167
Combo2 : 162,143,209
Combo3 : 158,99,173
Combo4 : 201,78,112

[HitObjects]
23,99,855,6,0,B|12:116|-54:88|-42:6|56:-25|112:57|36:103|85:125,1,225.000008583069,2|0,0:2|0:0,0:0:0:0:
197,174,1230,2,0,B|178:184|155:179|155:179|150:159|134:146,1,75.0000028610231,6|0,3:2|0:0,0:0:0:0:
27,232,1417,2,0,B|42:194|42:194|80:192,1,75.0000028610231,2|0,0:2|0:0,0:0:0:0:
183,361,1605,2,0,P|121:369|107:283,1,150,2|0,1:2|0:0,0:0:0:0:
101,287,1792,2,0,B|168:272|168:272|174:274|174:274|256:257,1,150.000005722046,2|0,3:2|0:0,0:0:0:0:
384,323,2167,2,0,P|401:348|433:370,1,59.9999981689454,2|0,1:2|0:0,0:0:0:0:
339,384,2355,2,0,P|312:370|282:366,1,59.9999981689454,2|0,3:2|0:0,0:0:0:0:
476,235,2542,2,0,P|473:265|456:300,1,59.9999981689454,2|0,1:2|0:0,0:0:0:0:
311,231,2730,6,0,B|304:209|282:196|282:196|316:190|329:222,1,100,6|0,3:2|0:0,0:0:0:0:
384,323,2917,2,0,P|389:284|420:179,1,125,2|0,1:2|0:0,0:0:0:0:
489,97,3105,2,0,B|511:92|526:72|526:72|528:106|495:116,1,100,2|0,1:2|0:0,0:0:0:0:
512,206,3292,2,0,B|461:225|398:142|454:170|370:77|308:123,1,225.000008583069,2|0,3:2|0:0,0:0:0:0:
227,70,3667,2,0,P|263:67|282:36,1,75.0000028610231,2|0,1:2|0:0,0:0:0:0:
106,114,3855,2,0,P|142:114|162:144,1,75.0000028610231,2|0,3:2|0:0,0:0:0:0:
166,32,4042,2,0,B|183:-7|140:-28|132:17|170:36,1,89.9999972534181,2|0,1:2|0:0,0:0:0:0:
161,153,4230,6,0,P|170:197|182:234,1,75.0000028610231,6|0,3:2|0:0,0:0:0:0:
287,361,4417,2,0,P|339:352|354:300,1,100,2|0,1:2|0:0,0:0:0:0:
302,215,4605,2,0,P|295:251|285:287,1,75.0000028610231,2|0,1:2|0:0,0:0:0:0:
196,368,4792,2,0,B|210:322|137:308|137:308|133:303|133:303|52:286,1,179.999994506836,2|0,3:2|0:0,0:0:0:0:
32,204,5167,2,0,B|44:163|0:147|-3:192|36:207,1,89.9999972534181,2|0,1:2|0:0,0:0:0:0:
103,140,5355,2,0,B|83:101|125:78|136:123|99:144,1,89.9999972534181,2|0,3:2|0:0,0:0:0:0:
63,302,5542,1,2,1:2:0:0:
63,295,5636,1,0,1:2:0:0:
58,287,5730,6,0,P|117:280|180:266,1,119.999996337891,2|2,3:2|0:2,0:0:0:0:
370,296,6011,1,2,0:2:0:0:
324,311,6105,1,2,3:2:0:0:
267,349,6198,1,2,0:2:0:0:
256,361,6292,2,0,P|202:349|147:342,1,100,2|0,0:2|3:2,0:0:0:0:
155,158,6667,1,2,1:2:0:0:
155,150,6761,1,2,1:2:0:0:
161,154,6855,2,0,P|177:171|185:196,1,50,2|0,3:2|0:0,0:0:0:0:
291,240,7042,2,0,P|267:245|242:239,1,50,2|0,1:3|0:0,0:0:0:0:
256,164,7230,6,0,P|298:158|345:148,1,75.0000028610231,6|0,3:2|0:0,0:0:0:0:
328,73,7417,2,0,P|365:78|401:85,1,75.0000028610231,2|0,0:2|0:0,0:0:0:0:
473,253,7605,2,0,B|450:246|427:262|427:262|427:231|404:214,1,100,2|0,1:2|0:0,0:0:0:0:
469,185,7792,2,0,B|482:144|421:154|479:46|580:106|518:207|496:153|467:185,1,194.999991073609,2|0,3:2|0:0,0:0:0:0:
392,336,8167,2,0,B|372:333|368:324|368:324|350:266,1,75.0000028610231,2|0,1:2|0:0,0:0:0:0:
469,185,8355,2,0,B|484:197|483:206|483:206|470:265,1,75.0000028610231,2|0,3:2|0:0,0:0:0:0:
314,368,8542,2,0,P|280:364|229:355,1,75.0000028610231,2|0,1:2|0:0,0:0:0:0:
74,279,8730,6,0,B|108:277|108:277|132:311,1,75.0000028610231,6|0,3:2|0:0,0:0:0:0:
233,198,8917,2,0,P|219:223|174:231,1,75.0000028610231,2|0,1:2|0:0,0:0:0:0:
75,118,9105,2,0,P|103:117|132:151,1,75.0000028610231,2|0,1:2|0:0,0:0:0:0:
167,383,9292,2,0,P|148:274|133:151,1,225.000008583069,2|0,3:2|0:0,0:0:0:0:
171,75,9667,2,0,B|193:70|208:50|208:50|210:84|181:92,1,100,2|0,1:2|0:0,0:0:0:0:
75,118,9855,2,0,B|45:119|35:87|35:87|56:100|78:98,1,100,2|0,3:2|0:0,0:0:0:0:
108,29,10042,2,0,B|121:-2|86:-20|80:16|111:32,1,75,2|0,1:2|0:0,0:0:0:0:
176,231,10230,6,0,B|185:212|185:212|249:195,1,75.0000028610231,6|0,3:2|0:0,0:0:0:0:
203,301,10417,2,0,B|185:312|185:312|121:295,1,75.0000028610231,2|0,3:2|0:0,0:0:0:0:
347,283,10605,2,0,B|308:287|308:287|289:256,1,75.0000028610231,2|0,1:2|0:0,0:0:0:0:
302,163,10792,2,0,B|288:141|269:131|269:131|364:92|387:169|387:169|361:185|358:210,1,240,2|0,3:2|0:0,0:0:0:0:
347,283,11167,2,0,P|353:325|359:352,1,59.9999981689454,2|0,1:2|0:0,0:0:0:0:
418,289,11355,2,0,P|424:259|429:230,1,59.9999981689454,2|0,3:2|0:0,0:0:0:0:
426,97,11542,1,2,1:2:0:0:
421,87,11636,1,0,0:0:0:0:
416,80,11730,6,0,B|396:31|364:94|346:-3|431:-1|415:81,1,150,2|0,3:2|0:0,0:0:0:0:
414,81,11917,1,2,0:2:0:0:
487,279,12105,1,2,3:2:0:0:
428,230,12292,1,2,0:2:0:0:
496,204,12480,1,2,3:2:0:0:
356,342,12855,6,0,B|350:341|350:341|348:343|348:343|347:340|347:340|344:340|344:340|343:338|343:338|341:340|341:340|337:339|337:339|335:342|335:342|334:339|334:339|331:339|331:339|330:336|330:336|328:338|328:338|324:338|324:338|323:340|323:340|321:338|321:338|318:337|318:337|317:335|317:335|315:337|315:337|312:336|312:336|310:338|310:338|308:336|308:336|305:336|305:336|304:333|304:333|302:335|302:335|299:335|299:335|298:337|298:337|296:334|296:334|292:334|292:334|291:332|291:332|289:334|289:334|286:334|286:334|285:336|285:336|283:333|283:333|280:333|280:333|279:330|279:330|276:332|276:332|273:332|273:332|272:334|272:334|270:332|270:332|267:331|267:331|266:329|266:329|263:331|263:331|260:330|260:330|259:332|259:332|257:330|257:330|254:330|254:330|253:328|253:328|251:330|251:330|247:329|247:329|246:330|246:330|244:328,1,150,8|0,3:0|0:0,0:0:0:0:
37,242,13230,6,0,B|-22:245|-21:164|48:120|139:175|115:261,1,259.999988098145,2|10,3:2|0:2,0:0:0:0:
134,368,13792,2,0,P|63:368|69:313,1,129.999994049073,2|0,3:2|0:0,0:0:0:0:
120,181,14167,1,10,0:2:0:0:
190,235,14355,1,2,3:2:0:0:
327,174,14542,1,10,0:2:0:0:
335,364,14730,6,0,P|363:357|404:351,1,59.9999981689454,0|0,3:2|0:0,0:0:0:0:
439,287,14917,2,0,P|410:280|370:274,1,59.9999981689454,2|0,0:2|0:0,0:0:0:0:
229,179,15105,2,0,B|196:173|195:138|195:138|204:166|230:174,1,89.9999972534181,10|0,0:2|0:0,0:0:0:0:
193,250,15292,2,0,P|176:182|155:69,1,179.999994506836,2|0,3:2|0:0,0:0:0:0:
247,18,15667,2,0,P|240:54|231:89,1,59.9999981689454,10|0,0:2|0:0,0:0:0:0:
94,188,15855,2,0,B|68:169|68:169|89:151|89:151|103:191,1,89.9999972534181,2|0,3:2|0:0,0:0:0:0:
107,284,16042,1,8,0:2:0:0:
104,292,16136,1,2,0:0:0:0:
100,299,16230,5,2,3:2:0:0:
71,374,16417,1,2,0:2:0:0:
23,303,16605,1,10,0:2:0:0:
149,358,16792,2,0,B|169:366|169:366|234:351|234:351|235:347|235:347|303:329|303:329|320:337,1,179.999994506836,2|0,3:2|0:0,0:0:0:0:
243,384,17167,2,0,B|231:349|231:349|231:345|231:345|221:312,1,74.9999977111817,10|0,0:2|0:0,0:0:0:0:
198,199,17355,2,0,P|232:201|254:240,1,75.0000028610231,2|0,3:2|0:0,0:0:0:0:
379,233,17542,2,0,P|360:261|315:260,1,75.0000028610231,10|0,0:2|0:0,0:0:0:0:
185,192,17730,6,0,P|257:172|341:154,1,150.000005722046,2|2,3:2|0:2,0:0:0:0:
365,81,18011,1,2,0:2:0:0:
369,73,18105,1,10,3:2:0:0:
330,155,18292,2,0,B|322:156|318:157|318:157|317:159|317:159|315:158|315:158|310:159|306:160|306:160|304:158|304:158|303:160|303:160|298:161|293:163|293:163|292:165|292:165|290:163|290:163|283:165|280:165|280:165|278:164|278:164|277:166|277:166|270:168|268:168|268:168|267:171|267:171|265:169|265:169|260:170|255:172|255:172|253:170|253:170|252:172|252:172|247:174|242:175|242:175|241:177|241:177|239:176|239:176|235:177|230:178|230:178|228:177|228:177|227:179|227:179|222:180|217:182|217:182|217:184|217:184|215:183|215:183|210:184|205:186|205:186|203:184|203:184|202:187|202:187|197:188|193:190|193:190|192:192|192:192|190:190|190:190|185:193|185:192|185:192|184:192,1,170.000003242493,2|2,0:2|3:2,0:0:0:0:
138,245,18573,1,2,0:2:0:0:
133,255,18667,1,2,0:2:0:0:
75,106,18855,2,0,B|62:92|62:92|128:55|178:121|178:121|134:129|125:154,1,209.999993591309,10|0,3:2|0:0,0:0:0:0:
66,194,19230,6,0,B|118:200|120:267|114:274|106:281|74:349|160:375,1,220.000006713867,6|10,3:2|0:2,0:0:0:0:
219,282,19792,2,0,B|219:260|250:250|250:250|184:272|184:272|186:289|175:305,1,150,2|0,3:2|0:0,0:0:0:0:
153,382,20167,1,10,0:2:0:0:
225,355,20355,1,2,3:2:0:0:
86,333,20542,1,10,0:2:0:0:
183,192,20730,6,0,P|209:184|242:179,1,59.9999981689454,2|0,3:2|0:0,0:0:0:0:
240,107,20917,2,0,P|266:114|299:120,1,59.9999981689454,2|0,0:2|0:0,0:0:0:0:
411,157,21105,1,10,0:2:0:0:
299,43,21292,2,0,P|324:125|342:209,1,172.500003290176,2|0,3:2|0:0,0:0:0:0:
339,288,21667,2,0,P|308:292|277:246,1,89.9999972534181,8|0,0:2|0:0,0:0:0:0:
419,151,21855,5,2,3:2:0:0:
395,79,22042,1,10,0:2:0:0:
411,155,22230,6,0,P|418:188|425:227,1,59.9999981689454,2|0,3:2|0:0,0:0:0:0:
509,202,22417,2,0,P|501:235|495:274,1,59.9999981689454,2|0,3:2|0:0,0:0:0:0:
412,352,22605,2,0,B|391:356|377:375|377:375|376:343|402:336,1,89.9999972534181,4|0,2:3|0:0,0:0:0:0:
512,363,22792,6,0,B|451:387|393:320|436:311|335:243|276:297,1,269.999991760254,6|0,3:2|0:0,0:0:0:0:
238,234,23167,2,0,B|203:157|286:136|290:235|245:181|236:233,1,150,0|0,1:0|0:0,0:0:0:0:
129,383,23355,2,0,B|98:385|98:385|62:379|52:338|52:338|49:342|49:342|40:327|42:285|84:290|94:310|94:310|95:308|95:308|132:316|141:346|145:371,1,269.999991760254,6|0,3:2|0:0,0:0:0:0:
223,371,23730,5,2,3:2:0:0:
304,331,23917,1,2,0:3:0:0:
146,248,24105,5,0,3:2:0:0:
70,202,24292,2,0,B|56:236|56:236|145:203|145:203|185:189|213:214,1,200,2|2,0:3|0:3,0:0:0:0:
304,331,24855,2,0,P|258:328|245:276,1,100,2|0,3:2|1:2,0:0:0:0:
288,174,25230,6,0,B|297:133|225:155|281:23|393:94|341:184|312:142|288:175,1,194.999991073609,2|0,3:2|0:0,0:0:0:0:
242,282,25605,1,2,3:2:0:0:
196,124,25792,6,0,B|188:93|243:109|200:11|116:63|155:131|177:100|196:124,1,150,2|0,0:3|0:0,0:0:0:0:
242,282,26167,1,2,0:3:0:0:
263,40,26355,6,0,B|299:13|272:-24|236:2|262:40,1,100,2|0,3:2|1:2,0:0:0:0:
246,289,26730,1,0,3:2:0:0:
381,365,26917,1,2,0:3:0:0:
442,321,27105,1,2,3:2:0:0:
374,370,27292,6,0,P|348:271|317:169,1,200,2|2,0:3|1:2,0:0:0:0:
423,252,27855,2,0,P|350:271|278:293,1,150,2|0,3:2|0:0,0:0:0:0:
89,222,28230,6,0,L|79:207,1,18.9999997680664,2|0,1:2|0:0,0:0:0:0:
169,255,28417,2,0,L|170:236,1,18.9999997680664,2|0,1:2|0:0,0:0:0:0:
124,321,28605,2,0,L|114:304,1,18.9999997680664,2|0,1:2|0:0,0:0:0:0:
170,380,28792,2,0,P|136:268|82:125,1,262.500010013581,2|0,3:2|0:0,0:0:0:0:
87,124,29167,1,2,0:3:0:0:
15,316,29355,2,0,B|51:365|108:342|121:302|129:274|129:274|141:241|156:200|219:197|238:236,1,299.999990844727,6|2,3:2|0:0,0:0:0:0:
277,291,29730,5,2,3:2:0:0:
363,265,29917,1,2,0:3:0:0:
458,384,30105,1,0,3:2:0:0:
373,384,30292,6,0,B|363:369|366:351|366:351|390:220|390:220|392:201|382:185,1,200,2|2,0:3|0:3,0:0:0:0:
436,87,30855,2,0,B|412:94|412:122|412:122|438:134|451:165,1,100,2|0,3:2|1:2,0:0:0:0:
360,265,31230,6,0,B|370:261|370:261|291:243|291:243|282:231,1,100,2|2,3:2|0:3,0:0:0:0:
219,150,31605,1,2,3:2:0:0:
105,355,31792,6,0,P|151:373|185:329,1,110.000003356934,2|0,0:3|3:2,0:0:0:0:
219,150,32167,1,2,0:3:0:0:
52,253,32355,6,0,P|21:213|54:168,1,110.000003356934,2|0,3:2|1:2,0:0:0:0:
225,143,32730,1,0,3:2:0:0:
138,251,32917,1,2,1:2:0:0:
184,329,33105,1,2,3:2:0:0:
139,242,33292,6,0,B|144:186|99:176|95:171|91:167|28:141|50:93,1,179.999994506836,2|0,0:3|0:0,0:0:0:0:
169,43,33667,2,0,P|167:74|106:97,1,89.9999972534181,2|0,1:2|0:0,0:0:0:0:
24,204,33855,2,0,B|59:217|59:217|91:187|132:172|132:172|137:173|137:173|191:153|238:172,1,225.000008583069,2|0,3:2|0:0,0:0:0:0:
254,94,34230,6,0,B|254:79|254:79|279:104|313:117|313:117|302:123,1,100,2|0,3:2|0:0,0:0:0:0:
424,60,34417,2,0,B|439:65|439:65|406:80|381:108|381:108|381:95,1,100,2|0,1:2|0:0,0:0:0:0:
327,38,34605,2,0,B|323:37|323:37|322:15|317:-9|317:-9|319:-9|319:-9|323:15|331:34|331:34|328:40,1,100,2|0,1:2|0:0,0:0:0:0:
387,273,34792,2,0,B|364:234|300:291|307:89|444:218|376:227|385:271,1,194.999991073609,2|0,3:1|3:0,0:0:0:0:
403,363,35167,2,2,B|452:349|452:349|489:345|498:312|474:267|436:280|436:280|363:299|363:299|330:308|326:349|345:327|316:386|283:374|260:356,1,375.000014305115,2|0,3:2|0:0,3:0:0:0:
160,172,35730,6,0,B|150:133|116:125|116:125|193:95|248:136|244:208|244:208|205:207|182:242|182:242,1,330.000010070801,6|0,3:2|0:0,0:0:0:0:
81,337,36105,2,0,P|66:349|81:336,1,75.0000028610231,10|0,0:2|0:0,0:0:0:0:
12,207,36292,2,0,B|-40:253|6:324|58:308|85:283|105:288|105:288|161:302|165:377|165:377|151:340|126:326|119:337|101:307|112:257,1,437.5,2|0,3:2|0:0,0:0:0:0:
182,241,36667,2,0,P|226:223|282:209,1,89.9999972534181,10|0,0:2|0:0,0:0:0:0:
483,27,36855,6,0,P|440:30|420:68,1,89.9999972534181,2|0,3:2|0:0,0:0:0:0:
368,123,37042,2,0,P|325:125|301:89,1,89.9999972534181,2|0,1:2|0:0,0:0:0:0:
281,0,37230,1,2,3:2:0:0:
154,100,37417,1,2,0:2:0:0:
22,11,37605,5,10,0:2:0:0:
22,4,37698,1,2,0:2:0:0:
27,7,37792,2,0,B|50:7|58:26|58:26|78:82,1,89.9999972534181,2|0,3:2|0:0,0:0:0:0:
131,184,37980,5,2,0:2:0:0:
174,109,38073,2,0,B|150:109|142:128|142:128|122:184,1,89.9999972534181,2|8,0:2|0:2,0:0:0:0:
72,286,38262,5,2,0:2:0:0:
29,211,38355,2,0,B|52:211|60:230|60:230|80:286,1,89.9999972534181,2|0,3:2|0:0,0:0:0:0:
22,351,38542,1,0,1:2:0:0:
29,211,38730,6,0,B|35:241|73:232|73:232|260:197,1,225,6|0,3:2|0:0,0:0:0:0:
369,81,39105,2,0,B|366:58|379:37|379:37|347:47|349:77,1,100,10|0,0:2|0:0,0:0:0:0:
300,243,39292,6,0,B|278:263|254:267|254:267|232:311|232:311|227:312|227:312|211:349|211:349|204:362|214:406|257:396|268:379|268:379|283:353|283:353|284:345|284:345|316:280|316:280|340:231,1,402.500007677078,2|0,3:2|0:0,0:0:0:0:
323,158,39667,2,0,B|315:129|281:132|281:132|301:147|307:169,1,100,10|0,0:2|0:0,0:0:0:0:
331,332,39855,2,0,P|382:320|446:304,1,100,2|0,3:2|0:0,0:0:0:0:
436,297,40042,2,0,P|387:309|339:320,1,100,2|0,1:2|0:0,0:0:0:0:
228,381,40230,6,0,P|187:375|171:331,1,75.0000028610231,2|0,3:2|0:0,0:0:0:0:
176,170,40417,2,0,P|191:202|175:235,1,75.0000028610231,2|0,0:2|0:0,0:0:0:0:
231,293,40605,2,0,P|251:263|288:260,1,75.0000028610231,10|0,3:2|0:0,0:0:0:0:
31,305,40792,2,0,B|12:315|12:315|21:302,6,37.5000014305115,2|2|2|2|2|2|2,0:3|0:2|0:3|0:2|3:0|0:0|0:0,0:0:0:0:
82,226,41167,2,0,P|105:210|86:231,1,75.0000028610231,10|0,0:2|0:0,0:0:0:0:
43,384,41355,2,0,P|64:250|92:109,1,262.500010013581,2|0,3:2|0:0,0:0:0:0:
89,118,41730,6,2,B|80:93|102:68|102:68|1:97|53:231|146:214|60:194|247:148|299:275|217:366|107:351|136:258,1,500,6|10,3:2|0:2,1:0:0:0:
54,253,42292,2,2,B|76:182|151:193|159:199|167:204|233:188|228:136,1,225.000008583069,2|0,3:2|0:0,3:0:0:0:
186,29,42667,2,0,B|174:12|153:17|153:17|174:24|189:57,1,85.0000016212464,10|0,0:2|0:0,0:0:0:0:
222,138,42855,2,0,P|260:127|306:119,1,75.0000028610231,2|0,3:2|0:0,0:0:0:0:
364,38,43042,2,0,P|327:30|291:20,1,75.0000028610231,2|0,1:2|0:0,0:0:0:0:
343,237,43230,6,2,B|410:192|350:192|355:103|468:63|554:139|519:235|457:297|441:222|410:245|377:294|392:336,1,400,2|10,3:2|0:2,1:0:0:0:
299,384,43792,2,2,B|248:354|266:288|311:280|311:280|413:254|413:254|430:252|477:286|436:325|423:324|423:324|376:333,1,375,2|0,3:2|0:0,3:0:0:0:
275,275,44167,1,10,0:2:0:0:
311,162,44355,1,2,3:2:0:0:
165,362,44542,5,2,1:2:0:0:
132,261,44730,2,0,P|157:233|193:224,1,75.0000028610231,2|0,3:2|0:0,0:0:0:0:
65,308,44917,2,0,P|28:302|0:277,1,75.0000028610231,0|0,3:2|0:0,0:0:0:0:
71,213,45105,2,0,B|56:190|56:190|62:174|62:174|77:215,1,75.0000028610231,10|0,0:2|0:0,0:0:0:0:
74,384,45292,2,0,B|61:361|67:337|67:337|116:126|116:126|127:86|102:73,1,314.999990386963,6|0,3:2|0:0,0:0:0:0:
104,85,45667,1,10,0:2:0:0:
0,277,45855,2,0,B|61:301|119:234|76:225|177:157|236:211,1,269.999991760254,2|0,3:2|0:0,0:0:0:0:
239,377,46230,6,0,P|198:373|176:312,1,112.499996566773,2|0,3:2|0:0,0:0:0:0:
325,248,46417,2,0,P|305:297|247:301,1,115.000002193451,2|0,1:2|0:0,0:0:0:0:
131,251,46605,6,0,B|99:251|78:231|78:231|92:280|125:279,1,112.499996566773,2|0,3:2|0:0,0:0:0:0:
374,192,46792,2,0,B|405:192|427:173|427:173|412:221|379:220,1,115.000002193451,2|0,1:2|0:0,0:0:0:0:
216,119,46980,6,0,B|199:90|173:130|142:42|227:15|253:102|211:87|214:120,1,150,0|0,3:0|0:0,0:0:0:0:
216,126,47167,5,2,0:2:0:0:
220,122,47355,5,2,0:2:0:0:
216,119,47542,5,2,0:2:0:0:
243,324,47730,6,0,P|208:233|239:325,1,300,6|0,3:2|0:0,0:0:0:0:
324,202,48105,2,0,B|350:173|350:173|321:157|321:157|314:207,1,100,10|0,0:2|0:0,0:0:0:0:
362,370,48292,2,0,B|350:381|320:374|320:374|226:356|226:356|233:351|233:351|226:355|226:355|127:339|127:339|104:336|79:350,1,300,2|0,3:2|0:0,0:0:0:0:
17,326,48667,2,0,B|18:333|18:333|32:286|76:276|76:276|69:275,1,100,10|0,0:2|0:0,0:0:0:0:
80,54,48855,6,0,P|47:63|36:130,1,100,2|0,3:2|0:0,0:0:0:0:
195,71,49042,2,0,P|203:37|152:0,1,100,2|0,1:2|0:0,0:0:0:0:
131,108,49230,1,2,3:2:0:0:
236,264,49417,1,2,0:2:0:0:
68,274,49605,5,10,0:2:0:0:
71,269,49698,1,2,0:2:0:0:
71,269,49792,2,0,B|73:243|95:237|95:237|158:222,1,100,2|0,3:2|0:0,0:0:0:0:
219,148,49980,5,2,0:2:0:0:
131,108,50073,2,0,B|132:131|152:138|152:138|209:154,1,100,2|8,0:2|0:2,0:0:0:0:
320,214,50261,5,2,0:2:0:0:
234,253,50355,2,0,B|235:229|255:222|255:222|312:206,1,100,2|0,3:2|0:0,0:0:0:0:
357,142,50542,1,0,1:2:0:0:
461,54,50730,6,0,B|473:31|490:18|490:18|390:-5|382:70|382:70|416:81|430:123,1,255.000004863739,6|0,3:2|0:0,0:0:0:0:
358,266,51105,2,0,B|329:258|330:225|330:225|346:244|369:249,1,100,10|0,0:2|0:0,0:0:0:0:
438,326,51292,6,0,B|420:378|420:378|387:263|387:263|389:257|389:257|356:140,1,300,2|0,3:2|0:0,0:0:0:0:
412,101,51667,2,0,B|432:91|442:68|442:68|452:100|427:115,1,100,10|0,0:2|0:0,0:0:0:0:
306,231,51855,2,0,P|292:202|273:176,1,55.0000016784668,2|0,3:2|0:0,0:0:0:0:
321,49,52042,2,0,P|302:74|289:104,1,55.0000016784668,2|0,1:2|0:0,0:0:0:0:
209,378,52230,6,0,P|246:361|232:307,1,89.9999972534181,2|0,3:2|0:0,0:0:0:0:
101,247,52417,2,0,P|95:311|157:332,1,125,2|0,0:2|0:0,0:0:0:0:
279,183,52605,2,0,P|200:191|185:256,1,150.000005722046,10|0,0:2|0:0,0:0:0:0:
44,131,52792,6,0,B|9:154|30:318|159:266|149:161|46:134|-1:272|-91:171|65:-40|201:-88|279:11|242:86|150:151|198:35|159:62|115:96|113:134,1,525.000020027161,10|0,0:2|0:0,0:0:0:0:
43,130,53167,2,0,B|27:93|-7:78|-7:78|36:78|56:112,1,150.000005722046,10|0,0:2|0:0,0:0:0:0:
149,236,53355,2,0,B|173:245|173:245|207:201|287:180,1,150,2|0,3:2|0:0,0:0:0:0:
333,141,53730,6,2,B|396:92|263:94|330:-23|438:-61|486:45|476:107|449:153|338:152,1,400,6|10,3:2|0:2,1:0:0:0:
271,46,54292,2,2,P|310:138|345:275,1,225.000008583069,2|0,3:2|0:0,3:0:0:0:
325,364,54667,2,0,P|288:365|271:310,1,100,10|0,0:2|0:0,0:0:0:0:
342,258,54855,2,0,P|381:248|419:243,1,75.0000028610231,2|0,3:2|0:0,0:0:0:0:
472,334,55042,2,0,P|432:324|395:319,1,75.0000028610231,2|0,1:2|0:0,0:0:0:0:
227,251,55230,6,2,B|266:229|253:151|175:143|148:204|175:241|175:241|192:267|204:303|157:372|76:369|45:276|89:243,1,450,2|10,3:2|0:2,1:0:0:0:
2,230,55792,2,2,B|-22:188|-22:188|-36:160|-12:123|30:126|44:149|44:149|79:209|79:209|87:237|64:251|39:298|97:336,1,359.999989013672,2|0,3:2|0:0,3:0:0:0:
197,384,56167,1,10,0:2:0:0:
303,343,56355,1,2,3:2:0:0:
468,333,56542,1,2,1:2:0:0:
364,289,56730,6,0,P|335:268|287:260,1,75.0000028610231,2|0,3:2|0:0,0:0:0:0:
417,238,56917,2,0,P|456:222|474:189,1,75.0000028610231,0|0,3:2|0:0,0:0:0:0:
327,190,57105,2,0,B|304:173|304:173|304:156|304:156|333:189,1,75.0000028610231,10|0,0:2|0:0,0:0:0:0:
393,383,57292,2,0,B|406:360|400:336|400:336|348:140|348:140|337:93|359:75,1,314.999990386963,6|0,3:2|0:0,0:0:0:0:
362,76,57667,1,10,0:2:0:0:
498,279,57855,2,0,B|437:303|379:236|422:227|321:159|262:213,1,269.999991760254,2|0,3:2|0:2,0:0:0:0:
117,384,58230,6,0,P|157:389|193:334,1,112.499996566773,2|0,3:2|0:0,0:0:0:0:
62,238,58417,2,0,P|70:290|126:303,1,115.000002193451,2|0,1:2|0:0,0:0:0:0:
249,286,58605,6,0,B|280:293|305:278|305:278|280:323|248:314,1,112.499996566773,2|0,3:2|0:0,0:0:0:0:
27,173,58792,2,0,B|0:164|-16:140|-16:140|-16:192|15:199,1,115.000002193451,10|0,1:2|0:0,0:0:0:0:
182,192,58980,6,0,B|214:176|214:176|217:171|217:171|248:156|248:156|212:131|212:131|207:131|207:131|165:104|165:104|163:160,1,225.000008583069,0|0,3:2|0:0,0:0:0:0:
156,143,59167,2,0,B|155:181|155:181|151:182|151:182|150:214|150:214|166:207|166:207|169:202|169:202|191:195,1,100,2|0,0:1|0:0,0:0:0:0:
249,71,59355,6,0,B|264:37|212:39|270:-40|346:16|286:92|273:46|246:68,1,160,10|2,0:2|0:2,0:0:0:0:
22,79,63667,6,0,P|17:113|35:145,1,66.0000020141602,2|0,3:2|0:0,0:0:0:0:
75,34,63855,6,0,P|47:45|26:76,1,66.0000020141602,2|0,3:2|0:0,0:0:0:0:
140,59,64042,6,0,P|116:36|81:32,1,66.0000020141602,2|0,3:2|0:0,0:0:0:0:
83,173,64230,6,2,P|54:58|156:119,1,300,2|0,3:2|0:0,1:0:0:0:
97,259,64792,2,0,B|-10:413|-61:362|8:259|103:275|143:299,1,314.999990386963,2|0,3:2|0:0,0:0:0:0:
139,297,65167,2,0,B|180:315|182:359|182:359|174:328|133:306,1,134.999995880127,0|0,1:0|0:0,0:0:0:0:
164,230,65355,2,2,B|196:163|269:185|276:193|283:199|350:193|354:141,1,225.000008583069,10|0,0:2|0:0,3:0:0:0:
408,90,65730,5,6,3:2:0:0:
356,27,65917,1,2,0:2:0:0:
269,121,66105,2,0,B|259:149|259:149|309:187|324:245,1,134.999995880127,2|0,1:2|0:0,0:0:0:0:
320,241,66292,1,2,3:2:0:0:
320,241,66386,1,2,0:2:0:0:
294,307,66480,2,0,B|274:318|274:318|237:296|237:296|233:272,1,89.9999972534181,2|0,0:2|0:0,0:0:0:0:
333,365,66667,2,0,B|356:373|356:373|393:352|393:352|393:329,1,89.9999972534181,2|0,1:2|0:0,0:0:0:0:
227,278,66855,5,2,3:2:0:0:
218,283,66948,1,2,0:2:0:0:
209,290,67042,1,2,1:2:0:0:
199,296,67136,1,2,0:2:0:0:
159,358,67230,2,0,B|136:351|113:367|113:367|113:336|90:319,1,100,6|0,3:2|0:0,0:0:0:0:
135,169,67417,5,2,0:2:0:0:
127,96,67511,1,2,0:2:0:0:
105,63,67605,1,2,1:2:0:0:
87,45,67698,1,2,0:2:0:0:
77,44,67792,6,0,P|124:173|136:260,1,225,2|0,3:2|0:0,0:0:0:0:
51,351,68167,2,0,B|37:356|21:311|21:311|41:328|71:326,1,100,2|0,1:2|0:0,0:0:0:0:
159,358,68355,2,0,B|176:363|176:363|341:336,1,179.999994506836,10|0,1:2|0:0,0:0:0:0:
502,368,68730,6,0,P|448:377|428:314,1,129.999994049073,2|2,3:2|2:0,0:0:0:0:
465,223,69011,1,2,0:2:0:0:
468,229,69105,2,0,P|486:262|499:307,3,75.0000028610231,8|2|2|2,1:2|0:2|0:2|0:2,0:0:0:0:
458,39,69480,6,0,B|449:-8|368:-21|316:48|356:103|369:98|378:94|411:121|415:162|390:203,1,277.499998941422,14|0,0:2|0:0,0:0:0:0:
458,39,69855,2,0,B|496:11|564:57|553:144|485:155|480:143|476:134|434:130|403:157|392:204,1,277.499998941422,14|0,0:2|0:0,0:0:0:0:
361,270,70230,5,2,3:2:0:0:
353,357,70417,1,2,0:3:0:0:
266,306,70605,1,0,3:2:0:0:
361,270,70792,2,0,B|351:294|325:286|325:286|175:243,1,200,2|2,0:3|0:3,0:0:0:0:
92,120,71355,2,0,P|132:107|161:168,1,120,2|0,3:2|1:2,0:0:0:0:
73,279,71730,6,0,B|42:275|45:207|45:207|63:241|102:254,1,150,2|0,3:2|0:0,0:0:0:0:
164,315,72105,1,2,3:2:0:0:
185,183,72292,6,0,B|207:175|195:124|195:124|186:152|158:168,1,120,2|0,0:3|0:0,0:0:0:0:
164,315,72667,1,2,0:3:0:0:
92,120,72855,2,0,B|81:104|65:97|65:97|99:89|105:125,1,89.9999972534181,2|0,3:2|0:0,0:0:0:0:
168,323,73230,1,2,3:2:0:0:
102,270,73417,1,2,0:3:0:0:
239,292,73605,1,2,3:2:0:0:
238,303,73792,6,0,P|339:275|434:259,1,200,2|2,0:3|1:2,0:0:0:0:
350,364,74355,2,0,P|328:277|301:202,1,165.000005035401,2|0,3:2|0:0,0:0:0:0:
196,20,74730,6,0,P|180:22|159:52,1,50,2|0,1:2|0:0,0:0:0:0:
172,166,74917,2,0,P|184:179|220:184,1,50,2|0,1:2|0:0,0:0:0:0:
317,110,75105,2,0,P|325:93|310:61,1,50,2|0,1:2|0:0,0:0:0:0:
235,82,75292,2,0,P|227:116|237:83,1,104.999996795654,2|0,3:2|0:0,0:0:0:0:
61,133,75667,1,2,0:3:0:0:
66,136,75855,2,0,P|229:100|441:70,1,375,4|0,3:2|0:0,0:0:0:0:
331,12,76230,5,2,3:2:0:0:
317,110,76417,1,2,0:3:0:0:
400,143,76605,1,0,3:2:0:0:
482,178,76792,2,0,B|506:220|506:220|416:187|416:187|371:171|340:199,1,220.000006713867,2|2,0:3|0:3,0:0:0:0:
392,376,77355,2,0,P|428:381|445:314,1,119.999996337891,2|0,3:2|1:2,0:0:0:0:
336,200,77730,6,0,P|356:255|365:303,1,100,0|2,3:2|0:3,0:0:0:0:
392,375,78105,1,2,3:2:0:0:
241,217,78292,6,0,P|255:168|272:121,1,101.249996910095,2|0,0:3|3:2,0:0:0:0:
218,294,78667,1,2,0:3:0:0:
182,132,78855,6,0,P|168:87|145:32,1,100,0|0,3:2|1:2,0:0:0:0:
224,302,79230,5,2,3:2:0:0:
306,269,79417,1,2,0:3:0:0:
93,204,79605,1,2,3:2:0:0:
19,176,79792,6,0,B|-34:166|-16:94|53:69|123:137|84:208,1,225.000008583069,2|0,0:3|0:0,0:0:0:0:
118,378,80167,2,0,P|75:382|58:322,1,112.500004291535,2|0,1:2|0:0,0:0:0:0:
59,316,80355,2,0,B|87:247|161:267|169:274|176:280|243:271|245:219,1,225.000008583069,2|0,3:2|0:0,0:0:0:0:
238,35,80730,6,0,P|182:100|215:139,1,150,2|0,3:2|0:0,0:0:0:0:
219,144,80917,2,0,P|282:139|290:99,1,100,2|0,1:2|0:0,0:0:0:0:
340,274,81105,2,0,P|312:216|342:190,1,100,2|0,1:2|0:0,0:0:0:0:
366,126,81292,2,0,B|409:51|486:77|500:111|500:111|438:83|386:93|361:124|368:122,1,300,2|0,3:1|3:0,0:0:0:0:
219,144,81667,2,0,P|97:169|-21:216,1,239.999992675781,6|0,3:2|0:0,0:0:0:0:
110,159,82230,6,0,B|95:105|131:70|131:70|97:18|37:35|37:35|123:244|45:48|113:231|46:48|123:258,1,437.5,6|0,3:2|0:0,0:0:0:0:
175,330,82605,2,0,B|193:323|183:280|183:280|175:304|152:317,1,100,10|0,0:2|0:0,0:0:0:0:
45,370,82792,2,0,B|34:382|34:382|9:394|-10:383|-31:354|-24:315|14:304|14:304|268:236,1,402.500007677078,2|0,3:2|0:0,0:0:0:0:
259,238,83167,2,0,B|305:247|308:293|308:293|291:257|252:247,1,134.999995880127,10|0,0:2|0:0,0:0:0:0:
219,144,83355,6,0,B|237:108|201:90|183:124|218:144,1,89.9999972534181,2|0,3:2|0:0,0:0:0:0:
292,66,83542,2,0,B|269:20|315:-3|339:40|295:66,1,115.000002193451,2|0,1:2|0:0,0:0:0:0:
371,273,83730,5,2,3:2:0:0:
399,162,83917,1,2,0:2:0:0:
453,72,84105,5,10,0:2:0:0:
453,63,84198,1,2,0:2:0:0:
460,67,84292,2,0,B|465:45|495:47|495:47|471:23|438:29|438:29|465:45|460:67,1,150.000005722046,2|0,3:2|0:0,0:0:0:0:
315,167,84480,5,2,0:2:0:0:
311,158,84573,2,0,B|305:137|275:139|275:139|299:116|331:121|331:121|305:137|310:158,1,150.000005722046,2|8,0:2|0:2,0:0:0:0:
451,276,84761,5,2,0:2:0:0:
453,268,84855,2,0,B|458:246|488:249|488:249|464:225|431:231|431:231|458:246|453:268,1,150.000005722046,2|0,3:2|0:0,0:0:0:0:
496,353,85042,1,0,1:2:0:0:
359,259,85230,6,0,B|342:261|342:261|261:201|146:197|146:197|131:181,1,240,6|0,3:2|0:0,0:0:0:0:
276,142,85605,2,0,B|306:107|314:168|357:94|287:70|276:142,1,125,10|0,0:2|0:0,0:0:0:0:
70,318,85792,2,0,B|69:357|38:372|38:372|118:383|162:330|138:268|138:268|65:256|67:201|67:201,1,345.000006580353,2|0,3:2|0:0,0:0:0:0:
51,0,86167,1,10,0:2:0:0:
0,91,86355,5,2,3:2:0:0:
116,114,86542,1,2,1:2:0:0:
122,199,86730,2,0,B|95:190|68:209|68:209|68:173|41:153,1,120,2|0,0:2|0:0,0:0:0:0:
165,77,87105,6,0,P|137:91|114:119,1,62.5,2|0,0:2|0:0,0:0:0:0:
51,0,87292,2,0,P|68:26|70:56,1,62.5,2|0,0:2|0:0,0:0:0:0:
125,205,87480,6,2,B|136:220|136:220|149:219|149:219|153:216|153:216|154:217|154:217|174:214|174:214|168:217|168:217|187:212|187:212|189:213|189:213|191:212|191:212|209:208|209:208|202:211|202:211|221:208|221:208|225:205|225:205|226:207|226:207|245:203|245:203|237:206|237:206|259:202|259:202|261:203|261:203|262:201|262:201|271:200|271:200|282:181,1,227.499989585877,2|0,2:2|2:0,2:0:0:0:
273,305,87855,2,2,B|279:295|279:295|279:293|279:293|281:292|281:292|286:285|286:285|287:285|287:285|288:287|288:287|290:286|290:286|300:287|300:287|302:285|302:285|303:287|303:287|313:289|313:289|314:291|314:291|316:289|316:289|326:291|326:291|327:289|327:289|328:291|328:291|338:293|338:293|340:295|340:295|341:293|341:293|351:295|351:295|353:293|353:293|354:295|354:295|364:297|364:297|365:299|365:299|367:297|367:297|377:298|377:298|379:297|379:297|380:299|380:299|390:300|390:300|391:303|391:303|393:301|393:301|403:302|403:302|404:301|404:301|406:303|406:303|415:304|415:304|417:306|417:306|418:305|418:305|428:306|428:306|430:304|430:304|431:307|431:307|441:308|441:308|442:310|442:310|444:308|444:308|448:309|448:309|450:315|450:315|453:315|453:315|451:317|451:317|455:327|455:327|454:329|454:329|456:329|456:329|457:330,1,242.811899682409,8|0,2:0|0:0,0:0:0:0:
276,315,88230,6,2,B|286:347|266:375|266:375|314:375|386:339|348:263|348:263|347:267|347:267|295:225|382:161|429:201|429:201|358:212|352:262,1,500,4|10,3:2|2:0,1:0:0:0:
293,83,88792,2,2,B|237:72|256:-3|328:-29|423:51|352:134,1,255.000004863739,2|0,3:2|0:0,3:0:0:0:
373,207,89167,6,0,B|356:229|332:223|332:223|266:203,1,100,10|0,0:2|0:0,0:0:0:0:
186,322,89355,2,0,P|207:280|245:268,1,75.0000028610231,2|0,3:2|0:0,0:0:0:0:
246,136,89542,2,0,P|217:159|180:159,1,75.0000028610231,2|0,1:2|0:0,0:0:0:0:
69,146,89730,6,2,B|14:122|24:54|68:41|68:41|166:3|166:3|182:0|233:27|197:70|184:71|184:71|139:85,1,379.999989852906,2|10,3:2|0:2,1:0:0:0:
75,255,90292,2,2,B|-35:304|7:417|115:404|160:324|74:255|133:198,1,352.499994621277,2|0,3:2|0:0,3:0:0:0:
147,82,90667,5,10,0:2:0:0:
20,42,90855,1,2,3:2:0:0:
153,74,91042,1,2,1:2:0:0:
209,202,91230,6,0,B|231:202|243:220|243:220|232:198|244:170,1,75.0000028610231,2|0,3:2|0:3,3:2:0:0:
247,29,91417,2,0,B|236:33|236:33|235:49|231:63|231:63|242:74,1,55.0000016784668,0|0,3:2|0:0,0:0:0:0:
251,75,91605,2,0,B|262:75|262:75|270:62|280:50|280:50|275:37,1,55.0000016784668,10|0,0:2|0:0,0:0:0:0:
147,82,91792,2,0,B|125:134|125:134|219:97|219:97|225:98|225:98|262:83|262:83|324:61|367:100,1,300,6|0,3:2|0:0,0:0:0:0:
354,90,92167,1,10,0:2:0:0:
374,262,92355,2,0,P|304:301|369:260,1,300,2|0,3:2|0:0,0:0:0:0:
354,90,92730,6,0,B|347:51|308:43|308:43|335:63|343:98,1,134.999995880127,2|0,3:2|0:0,0:0:0:0:
352,99,92917,2,0,B|388:112|415:82|415:82|384:96|350:85,1,134.999995880127,2|0,0:2|0:0,0:0:0:0:
236,183,93105,6,0,B|199:196|172:166|172:166|203:180|237:169,1,134.999995880127,2|0,3:2|0:0,0:0:0:0:
235,175,93292,2,0,B|241:136|280:128|280:128|253:148|245:183,1,134.999995880127,10|0,0:2|0:0,0:0:0:0:
247,193,93480,2,0,B|262:240|262:240|256:260|256:260|234:187,1,134.999995880127,0|0,3:0|0:0,0:0:0:0:
195,98,93667,1,10,0:2:0:0:
137,42,93855,6,0,P|144:20|153:0,1,44.999998626709,2|0,1:2|0:0,0:0:0:0:
143,41,93949,2,0,P|149:19|160:0,1,44.999998626709,2|0,1:2|0:0,0:0:0:0:
92,121,94042,6,0,P|82:100|72:81,1,44.999998626709,2|0,1:2|0:0,0:0:0:0:
84,126,94136,2,0,P|75:105|65:86,1,44.999998626709,2|0,1:2|0:0,0:0:0:0:
2,23,94230,6,0,P|82:171|114:313,1,300,6|0,3:2|0:0,0:0:0:0:
180,344,94605,2,0,P|161:375|126:381,1,75,10|0,0:2|0:0,0:0:0:0:
11,339,94792,2,0,B|60:290|6:291|48:191|148:182|139:253|167:249|227:239|257:198|257:198|226:212|183:183|179:285,1,437.5,2|0,3:2|0:0,0:0:0:0:
201,363,95167,2,0,P|268:355|288:289,1,134.999995880127,10|0,0:2|0:0,0:0:0:0:
326,176,95355,6,0,P|314:142|280:130,1,75.0000028610231,2|0,3:2|0:0,0:0:0:0:
385,112,95542,2,0,P|383:76|411:52,1,75.0000028610231,2|0,1:2|0:0,0:0:0:0:
502,38,95730,1,2,3:2:0:0:
410,194,95917,1,2,0:2:0:0:
306,59,96105,5,10,0:2:0:0:
311,52,96198,1,2,0:2:0:0:
306,51,96292,2,0,B|289:31|267:39|267:39|207:64,1,100,2|0,3:2|0:0,0:0:0:0:
84,127,96480,5,2,0:2:0:0:
184,140,96573,2,0,B|169:159|147:154|147:154|87:135,1,100,2|8,0:2|0:2,0:0:0:0:
43,64,96761,1,2,0:2:0:0:
39,55,96855,6,0,B|33:34|3:36|3:36|27:13|59:18|59:18|33:34|38:55,1,150.000005722046,2|0,3:2|0:0,0:0:0:0:
84,127,97042,1,0,1:2:0:0:
37,248,97230,6,0,P|38:347|135:328,1,225.000008583069,6|0,3:2|0:0,0:0:0:0:
97,182,97605,2,0,B|77:158|48:173|48:173|72:179|85:198,1,100,10|0,0:2|0:0,0:0:0:0:
203,295,97792,6,0,B|185:261|150:256|150:256|146:180|249:187|249:187|234:203|226:228,1,255.000004863739,2|0,3:2|0:0,0:0:0:0:
135,104,98167,2,0,B|130:74|161:62|161:62|150:84|154:107,1,100,10|0,0:2|0:0,0:0:0:0:
45,89,98355,2,0,P|35:72|42:93,1,75.0000028610231,2|0,3:2|0:0,0:0:0:0:
80,12,98542,2,0,P|85:-5|77:10,1,50,2|0,1:2|0:0,0:0:0:0:
250,122,98730,6,0,P|290:119|317:93,1,75.0000028610231,2|0,1:2|0:0,0:0:0:0:
463,68,98917,2,0,P|443:30|385:23,1,100,2|0,1:2|0:0,0:0:0:0:
308,10,99105,2,0,P|340:118|369:188,1,187.5,10|0,0:2|0:0,0:0:0:0:
455,213,99292,6,0,B|452:211|451:208|451:208|449:207|449:207|451:205|451:205|450:202|451:200|451:200|453:199|453:199|452:197|452:197|453:194|454:192|454:192|453:190|453:190|455:190|455:190|457:188|458:186|458:186|461:186|461:186|460:184|460:184|462:182|464:181|464:181|465:178|465:178|467:179|467:179|469:178|471:177|471:177|474:179|474:179|474:176|474:176|477:175|479:175|479:175|481:173|481:173|482:175|482:175|485:175|487:175|487:175|488:177|488:177|490:175|490:175|493:176|495:177|495:177|497:175|497:175|498:178|498:178|500:179|502:180|502:180|503:182|503:182|505:181|505:181|507:183|509:184|509:184|511:184|511:184|511:186|511:186|513:188|514:190|514:190|513:193|513:193|516:193|516:193|517:195|518:197|518:197|521:198|521:198|519:200|519:200|520:202|521:205|521:205|519:207|519:207|521:208|521:208|522:210|522:213|522:213|524:214|524:214|522:216|522:216|522:218|521:221|521:221|519:222|519:222|520:224|520:224|520:226|519:228|519:228|520:230|520:230|517:231|517:231|516:233|515:235|515:235|512:235|512:235|513:237|513:237|511:239|509:241|509:241|509:244|509:244|507:243|507:243|505:245|503:246|503:246|500:245|500:245|500:247|500:247|498:249|496:250|496:250|495:252|495:252|493:251|493:251|490:252|488:252|488:252|486:251|486:251|485:253|485:253|483:254|481:254|481:254|479:257|479:257|478:255|478:255|475:255|473:256|473:256|471:254|471:254|470:256|470:256|467:256|465:257|465:257|463:259|463:259|462:257|462:257|459:257|457:258|457:258|455:256|455:256|454:258|454:258|451:258|449:259|449:259|448:261|448:261|446:260|446:260|440:264|444:261|442:262|442:262|440:261|440:261|440:264,1,284.133588733314,2|0,0:1|0:0,0:0:0:0:
440,264,99667,2,2,P|414:345|494:353,1,187.5,0|0,0:0|0:0,0:0:0:0:
496,347,99855,6,0,P|391:314|284:290,1,209.999993591309,10|0,3:2|0:0,0:0:0:0:
200,247,100230,6,2,B|221:206|221:206|270:105|270:105|281:87|325:77|335:122|328:135|328:135|284:219|284:219|260:223|238:244,1,400,6|10,3:2|0:2,1:0:0:0:
247,384,100792,2,2,P|194:328|53:273,1,225.000008583069,2|0,3:2|0:0,3:0:0:0:
95,103,101167,2,0,B|106:85|127:90|127:90|106:97|92:131,1,93.7500035762788,10|0,0:2|0:0,0:0:0:0:
0,233,101355,2,0,P|20:208|75:205,1,75.0000028610231,2|0,3:2|0:0,0:0:0:0:
196,225,101542,2,0,P|167:201|154:166,1,75.0000028610231,2|0,1:2|0:0,0:0:0:0:
79,26,101730,6,2,B|20:45|20:45|-4:52|-20:91|12:117|35:110|35:110|110:87|110:87|116:87|116:87|167:70|167:70|203:60|240:73,1,359.999989013672,2|10,3:2|0:2,1:0:0:0:
370,176,102292,2,2,B|461:178|485:138|495:84|454:-8|359:22|299:124|415:124|359:166,1,345.000006580353,2|0,3:2|0:0,3:0:0:0:
308,222,102667,1,10,0:2:0:0:
266,318,102855,1,2,3:2:0:0:
135,377,103042,5,2,1:2:0:0:
116,276,103230,2,0,B|92:243|57:247|57:247|97:261|107:289,1,125,2|0,3:2|0:0,0:0:0:0:
135,377,103417,2,0,P|183:371|206:340,1,75.0000028610231,0|0,3:2|0:0,0:0:0:0:
267,220,103605,2,0,P|302:233|321:265,1,75.0000028610231,10|0,0:2|0:0,0:0:0:0:
414,302,103792,2,0,B|391:315|367:309|367:309|155:264|155:264|115:254|102:279,1,314.999990386963,6|0,3:2|0:0,0:0:0:0:
101,278,104167,1,10,0:2:0:0:
203,372,104355,2,0,P|258:256|351:148,1,269.999991760254,2|0,3:2|1:2,0:0:0:0:
427,78,104730,6,0,B|427:38|390:23|390:23|413:47|414:83,1,134.999995880127,2|0,3:2|0:0,0:0:0:0:
423,86,104917,2,0,B|455:105|488:81|488:81|454:89|423:71,1,134.999995880127,2|0,1:2|0:0,0:0:0:0:
217,162,105105,6,0,B|183:180|151:155|151:155|184:164|216:146,1,134.999995880127,2|0,3:2|0:0,0:0:0:0:
213,153,105292,2,0,B|212:112|249:98|249:98|226:122|224:158,1,134.999995880127,2|0,1:2|0:0,0:0:0:0:
226,167,105480,2,0,B|247:211|247:211|243:231|243:231|212:162,1,134.999995880127,0|0,3:0|0:0,0:0:0:0:
159,60,105667,6,0,B|188:41|193:23|193:23|195:58|148:72,1,100,2|0,0:1|0:0,0:0:0:0:
91,93,105855,2,0,B|85:9|-48:-33|-82:114|-26:107|43:19|79:145,1,312.5,10|0,0:2|0:0,0:0:0:0:
29,285,106230,6,0,P|106:222|209:190,1,200,0|2,0:0|1:2,0:0:0:0:
259,359,106792,1,2,0:3:0:0:
259,359,106886,1,0,0:0:0:0:
259,359,106980,2,0,P|206:356|179:310,1,100,0|2,0:0|0:3,0:0:0:0:
124,232,107355,2,0,P|153:188|207:188,1,100,2|2,1:2|0:3,0:0:0:0:
281,274,107730,6,0,P|240:262|196:255,1,80,0|2,0:0|0:3,0:0:0:0:
130,113,108105,2,0,P|162:106|195:98,1,64.9999970245363,2|0,1:2|0:0,0:0:0:0:
176,16,108292,2,0,P|209:22|246:31,1,64.9999970245363,2|0,0:2|0:0,0:0:0:0:
340,2,108480,2,0,P|302:87|269:199,1,200,0|2,0:0|1:2,0:0:0:0:
336,366,109042,1,2,0:3:0:0:
332,359,109136,1,2,0:0:0:0:
340,357,109230,6,0,P|413:375|416:292,1,179.999994506836,0|0,0:0|0:0,0:0:0:0:
498,170,109605,2,0,P|456:179|438:215,1,80,2|2,1:2|0:3,0:0:0:0:
287,115,109980,2,0,P|315:146|355:144,1,80
424,110,110355,2,0,P|442:72|426:35,1,80,2|2,1:2|1:3,0:0:0:0:
278,105,110730,6,0,P|319:192|343:283,1,179.999994506836,0|0,0:0|0:0,0:0:0:0:
351,384,111105,1,2,1:2:0:0:
432,324,111292,1,2,1:3:0:0:
351,384,111480,2,0,P|360:362|353:383,1,100,0|0,1:0|0:0,0:0:0:0:
236,295,111855,2,0,P|265:252|227:287,1,150,2|0,1:2|0:0,0:0:0:0:
231,383,112230,6,0,P|202:304|173:186,1,200,2|2,0:0|1:2,0:0:0:0:
191,74,112792,1,2,0:3:0:0:
184,64,112886,1,2,0:0:0:0:
188,52,112980,2,0,B|215:49|233:22|233:22|232:65|192:71,1,115.000002193451,0|2,0:0|0:3,0:0:0:0:
66,188,113261,1,2,0:0:0:0:
61,179,113355,2,0,B|44:156|13:155|13:155|50:133|76:165,1,115.000002193451,2|2,1:2|0:3,0:0:0:0:
174,191,113636,1,2,0:0:0:0:
181,199,113730,6,0,B|203:207|203:207|246:158|321:157,1,150,0|0,0:0|0:0,0:0:0:0:
387,288,114105,2,0,P|353:293|315:238,1,100,2|2,1:2|1:2,0:0:0:0:
341,84,114480,2,0,B|348:55|348:55|348:41|383:19|418:52|412:75|412:75|387:160,1,200,0|2,0:0|1:2,0:0:0:0:
381,273,115042,1,2,0:3:0:0:
386,279,115136,1,2,0:0:0:0:
386,279,115230,6,0,B|438:296|433:372|433:372|413:306|368:336|378:281,1,225.000008583069,2|0,0:2|0:0,0:0:0:0:
440,217,115605,2,0,B|464:213|479:185|479:185|482:229|453:235,1,115.000002193451,2|2,1:2|0:3,0:0:0:0:
379,282,115980,2,0,P|330:256|257:236,1,119.999996337891,2|2,1:2|0:3,0:0:0:0:
94,329,116261,1,0,0:0:0:0:
99,333,116355,2,0,B|122:322|154:343|154:343|152:307|174:288,1,119.999996337891,2|2,1:2|0:3,0:0:0:0:
110,252,116636,1,0,0:0:0:0:
105,245,116730,6,0,P|114:225|106:244,1,179.999994506836,2|2,3:0|0:0,0:0:0:0:
218,112,117105,2,0,P|235:38|215:111,1,225.000008583069,2|0,3:0|0:0,0:0:0:0:
349,95,117480,6,2,B|371:65|371:65|378:61|378:61|394:36|394:36|233:72|233:72|229:76|229:76|58:114|58:114|92:83|92:83|95:77|95:77|131:51,1,500,14|2,0:2|2:0,0:0:0:0:
