osu file format v14

[General]
AudioFilename: audio.mp3
AudioLeadIn: 0
PreviewTime: 35636
Countdown: 0
SampleSet: Soft
StackLeniency: 0.3
Mode: 0
LetterboxInBreaks: 0
WidescreenStoryboard: 1

[Editor]
Bookmarks: 13230,35730,47730,63667,70230,76230,82230,94230,106230
DistanceSpacing: 0.8
BeatDivisor: 16
GridSize: 32
TimelineZoom: 3.099999

[Metadata]
Title:A Bella! (feat. Lucy)
TitleUnicode:A Bella! (feat. Lucy)
Artist:M2U
ArtistUnicode:M2U
Creator:Mithia
Version:Shoutaro's Insane
Source:하이파이브
Tags:HIGH5 DIVERSITY. UICY-15598 Drug Step SQUARE MUSIQ Original Soundtrack OST PNIX Games Electronic video game latin other Nodoro Pepekcz too [[Pause]] SHOGUNMOON00999 Houtaro Zerephiehell
BeatmapID:3652882
BeatmapSetID:1740863

[Difficulty]
HPDrainRate:5
CircleSize:3.8
OverallDifficulty:8
ApproachRate:8.5
SliderMultiplier:1.6
SliderTickRate:1

[Events]
//Background and Video events
0,0,"cute girl.jpg",0,0
//Break Periods
2,59930,62992
//Storyboard Layer 0 (Background)
//Storyboard Layer 1 (Fail)
//Storyboard Layer 2 (Pass)
//Storyboard Layer 3 (Foreground)
//Storyboard Layer 4 (Overlay)
//Storyboard Sound Samples

[TimingPoints]
-270,375,4,2,1,30,1,0
855,-100,4,2,1,30,0,0
1136,-100,4,2,1,5,0,0
1230,-100,4,2,1,70,0,0
1792,-71.4285714285714,4,2,1,70,0,0
5917,-50,4,2,1,70,0,0
6105,-71.4285714285714,4,2,1,70,0,0
6292,-55.5555555555556,4,2,1,70,0,0
8355,-71.4285714285714,4,2,1,70,0,0
9292,-55.5555555555556,4,2,1,70,0,0
10417,-71.4285714285714,4,2,1,70,0,0
11917,-71.4285714285714,4,2,1,70,0,0
12855,-50,4,2,3,70,0,0
13136,-50,4,2,3,5,0,0
13230,-100,4,2,1,60,0,0
19230,-100,4,2,1,60,0,0
22792,-100,4,2,1,70,0,0
23355,-100,4,2,1,70,0,0
23730,-142.857142857143,4,2,1,70,0,0
28792,-100,4,2,1,70,0,0
29167,-100,4,2,1,70,0,0
34230,-100,4,2,1,70,0,0
35167,-142.857142857143,4,2,1,70,0,0
35730,-55.5555555555556,4,2,1,85,0,1
36292,-58.8235294117647,4,2,1,85,0,1
36667,-58.8235294117647,4,2,1,85,0,1
36855,-71.4285714285714,4,2,1,85,0,1
39292,-55.5555555555556,4,2,1,85,0,1
39667,-55.5555555555556,4,2,1,85,0,1
39855,-62.5,4,2,1,85,0,1
40605,-71.4285714285714,4,2,1,85,0,1
41355,-50,4,2,1,85,0,1
41730,-55.5555555555556,4,2,1,85,0,1
42292,-62.5,4,2,1,85,0,1
42855,-71.4285714285714,4,2,1,85,0,1
43230,-55.5555555555556,4,2,1,85,0,1
43792,-58.8235294117647,4,2,1,85,0,1
44355,-71.4285714285714,4,2,1,85,0,1
45667,-71.4285714285714,4,2,1,85,0,1
46605,-50,4,2,1,85,0,1
46792,-62.5,4,2,1,85,0,1
47167,-40,4,2,1,85,0,0
47730,-55.5555555555556,4,2,1,85,0,1
48105,-66.6666666666667,4,2,1,85,0,1
50730,-50,4,2,1,85,0,1
51292,-62.5,4,2,1,85,0,1
51855,-66.6666666666667,4,2,1,85,0,1
52792,-55.5555555555556,4,2,1,85,0,1
53167,-55.5555555555556,4,2,1,85,0,1
53355,-125,4,2,1,85,0,1
53730,-62.5,4,2,1,85,0,1
55230,-76.9230769230769,4,2,1,85,0,1
57667,-76.9230769230769,4,2,1,85,0,1
59167,-76.9230769230769,4,2,1,85,0,1
59730,-50,4,2,1,60,0,0
63667,-333.333333333333,4,2,1,30,0,0
64230,-125,4,2,1,30,0,0
64792,-125,4,2,1,50,0,0
65167,-125,4,2,1,50,0,0
65355,-55.5555555555556,4,2,1,60,0,0
65730,-71.4285714285714,4,2,1,60,0,0
66292,-71.4285714285714,4,2,1,60,0,0
68917,-71.4285714285714,4,2,1,60,0,0
70230,-90.9090909090909,4,2,1,70,0,0
70792,-76.9230769230769,4,2,1,70,0,0
71730,-90.9090909090909,4,2,1,70,0,0
75855,-55.5555555555556,4,2,1,70,0,0
76230,-90.9090909090909,4,2,1,70,0,0
76792,-76.9230769230769,4,2,1,70,0,0
77730,-90.9090909090909,4,2,1,70,0,0
78292,-76.9230769230769,4,2,1,70,0,0
78855,-100,4,2,1,70,0,0
79042,-76.9230769230769,4,2,1,70,0,0
80355,-50,4,2,1,70,0,0
80917,-55.5555555555556,4,2,1,70,0,0
81105,-100,4,2,1,70,0,0
81667,-50,4,2,1,70,0,0
82230,-76.9230769230769,4,2,1,85,0,1
82605,-76.9230769230769,4,2,1,85,0,1
82792,-71.4285714285714,4,2,1,85,0,1
83167,-71.4285714285714,4,2,1,85,0,1
86730,-100,4,2,1,70,0,0
88230,-43.4782608695652,4,2,1,85,0,1
88417,-76.9230769230769,4,2,1,85,0,1
88792,-58.8235294117647,4,2,1,85,0,1
89730,-66.6666666666667,4,2,1,85,0,1
89917,-50,4,2,1,85,0,1
90855,-52.6315789473684,4,2,1,85,0,1
91230,-71.4285714285714,4,2,1,85,0,1
91417,-47.6190476190476,4,2,1,85,0,1
91792,-58.8235294117647,4,2,1,85,0,1
92355,-66.6666666666667,4,2,1,85,0,1
92917,-62.5,4,2,1,85,0,1
93105,-47.6190476190476,4,2,1,85,0,1
93292,-58.8235294117647,4,2,1,85,0,1
93480,-58.8235294117647,4,2,1,85,0,1
93667,-58.8235294117647,4,2,1,85,0,1
93855,-58.8235294117647,4,2,1,40,0,1
93948,-58.8235294117647,4,2,1,50,0,1
94042,-58.8235294117647,4,2,1,60,0,1
94136,-58.8235294117647,4,2,1,70,0,1
94230,-55.5555555555556,4,2,1,85,0,1
94792,-50,4,2,1,85,0,1
95355,-71.4285714285714,4,2,1,85,0,1
97792,-50,4,2,1,85,0,1
98355,-55.5555555555556,4,2,1,85,0,1
99292,-55.5555555555556,4,2,1,85,0,1
99667,-45.4545454545455,4,2,1,85,0,1
99855,-50,4,2,1,85,0,1
100230,-62.5,4,2,1,85,0,1
100792,-55.5555555555556,4,2,1,85,0,1
101355,-83.3333333333333,4,2,1,85,0,1
101542,-71.4285714285714,4,2,1,85,0,1
101730,-62.5,4,2,1,85,0,1
102292,-55.5555555555556,4,2,1,85,0,1
102855,-71.4285714285714,4,2,1,85,0,1
103792,-62.5,4,2,1,85,0,1
104167,-62.5,4,2,1,85,0,1
104730,-45.4545454545455,4,2,1,85,0,1
104917,-50,4,2,1,85,0,1
105105,-100,4,2,1,85,0,1
105292,-100,4,2,1,85,0,1
105480,-100,4,2,1,85,0,1
105855,-50,4,2,1,85,0,1
106136,-50,4,2,1,85,0,1
106230,-100,4,2,1,55,0,0
112792,-83.3333333333333,4,2,1,55,0,0
116730,-100,4,2,1,80,0,0
117105,-66.6666666666667,4,2,1,80,0,0
117480,-66.6666666666667,4,2,1,80,0,0

[Colours]
Combo1 : 73,85,167
Combo2 : 162,143,209
Combo3 : 158,99,173
Combo4 : 201,78,112

[HitObjects]
146,377,855,6,0,B|145:389|106:381|137:338|162:381|141:370|180:388|208:354|201:317,1,120,2|0,0:2|0:0,0:0:0:0:
130,290,1230,5,6,3:2:0:0:
289,319,1417,1,2,0:2:0:0:
451,346,1605,1,2,1:2:0:0:
371,317,1792,6,0,P|372:232|416:140,1,167.999994873047,2|0,3:2|0:0,0:0:0:0:
481,133,2167,2,0,P|474:83|460:60,1,55.9999982910157,2|0,1:2|0:0,0:0:0:0:
306,172,2355,2,0,P|289:133|273:114,1,55.9999982910157,2|0,3:2|0:0,0:0:0:0:
260,235,2542,1,2,1:2:0:0:
394,177,2730,5,6,3:2:0:0:
205,151,2917,1,2,1:2:0:0:
19,122,3105,1,2,1:2:0:0:
101,0,3292,6,0,P|120:69|98:173,1,167.999994873047,2|0,3:2|0:0,0:0:0:0:
42,211,3667,1,2,1:2:0:0:
95,86,3855,1,2,3:2:0:0:
134,237,4042,1,2,1:2:0:0:
222,73,4230,6,0,P|273:59|349:51,1,111.999996582031,6|2,3:2|1:2,0:0:0:0:
394,7,4605,1,2,1:2:0:0:
456,112,4792,6,0,P|427:95|401:92,1,55.9999982910157,2|0,3:2|0:0,0:0:0:0:
334,128,4980,1,0,0:0:0:0:
327,142,5074,1,2,0:0:0:0:
334,159,5167,1,2,1:2:0:0:
258,11,5355,6,0,P|234:77|251:138,1,111.999996582031,2|2,3:2|1:2,0:0:0:0:
252,194,5636,1,0,1:2:0:0:
250,205,5730,2,0,P|208:198|193:181,1,55.9999982910157,2|0,3:2|0:0,0:0:0:0:
217,383,5917,6,0,P|264:360|312:357,1,80,2|2,0:2|0:2,0:0:0:0:
303,275,6105,2,0,P|335:281|358:297,1,55.9999982910157,2|2,3:2|0:2,0:0:0:0:
420,357,6292,6,0,P|328:320|142:310,1,287.999991210938,2|2,0:2|1:2,0:0:0:0:
72,352,6761,1,2,1:2:0:0:
59,363,6855,2,0,P|33:322|34:225,1,143.999995605469,2|2,3:2|1:3,0:0:0:0:
228,53,7230,5,6,3:2:0:0:
63,138,7417,1,2,0:2:0:0:
142,197,7605,1,2,1:2:0:0:
58,0,7792,2,0,P|94:68|108:222,1,215.999993408203,2|0,3:2|0:0,0:0:0:0:
150,278,8167,2,0,P|188:268|212:239,1,71.9999978027344,2|0,1:2|0:0,0:0:0:0:
321,222,8355,2,0,P|326:176|289:105,1,111.999996582031,2|2,3:2|1:2,0:0:0:0:
306,42,8636,1,2,0:0:0:0:
318,36,8730,1,6,3:2:0:0:
327,232,8917,5,2,1:2:0:0:
308,224,9011,1,2,0:0:0:0:
290,194,9105,6,0,P|261:179|236:177,1,55.9999982910157,2|0,1:2|0:0,0:0:0:0:
461,80,9292,2,0,P|415:178|413:303,1,215.999993408203,2|0,3:2|0:0,0:0:0:0:
479,327,9667,1,2,1:2:0:0:
436,206,9855,1,2,3:2:0:0:
400,375,10042,1,2,1:2:0:0:
207,285,10230,5,6,3:2:0:0:
148,344,10417,1,2,3:2:0:0:
128,264,10605,1,2,1:2:0:0:
296,191,10792,2,0,P|338:252|314:356,1,167.999994873047,2|0,3:2|0:0,0:0:0:0:
315,365,11167,2,0,L|244:356,1,55.9999982910157,2|0,1:2|0:0,0:0:0:0:
271,199,11355,2,0,L|200:190,1,55.9999982910157,2|0,3:2|0:0,0:0:0:0:
156,133,11542,1,2,1:2:0:0:
146,108,11636,1,2,0:0:0:0:
156,81,11730,1,2,3:2:0:0:
69,6,11917,5,2,0:2:0:0:
236,103,12105,1,2,3:2:0:0:
91,203,12292,1,2,0:2:0:0:
138,270,12480,1,2,3:2:0:0:
78,346,12667,5,0,0:0:0:0:
88,357,12761,1,2,0:0:0:0:
101,366,12855,2,0,P|190:334|355:339,1,240,8|0,3:0|0:0,0:0:0:0:
342,342,13230,6,0,B|392:391|471:311|420:246,1,160,2|10,3:2|0:2,0:0:0:0:
205,316,13792,2,0,P|243:283|305:276,1,80,2|0,3:2|0:0,0:0:0:0:
351,254,14167,1,10,0:2:0:0:
432,268,14355,1,2,3:2:0:0:
494,323,14542,1,10,0:2:0:0:
406,189,14730,5,0,3:2:0:0:
406,189,14917,1,2,0:2:0:0:
432,268,15105,1,10,0:2:0:0:
512,121,15292,2,0,P|493:164|486:205,1,80,2|0,3:2|0:0,0:0:0:0:
439,261,15667,1,10,0:2:0:0:
398,40,15855,2,0,P|396:79|422:109,1,80,2|8,3:2|0:2,0:0:0:0:
431,105,16136,1,2,0:0:0:0:
437,99,16230,6,0,P|403:64|288:73,1,160,2|10,3:2|0:2,0:0:0:0:
128,103,16792,2,0,B|84:102|50:73|31:27|62:-8|107:-1,1,160,2|10,3:2|0:2,0:0:0:0:
298,65,17355,1,2,3:2:0:0:
207,49,17542,1,10,0:2:0:0:
243,230,17730,2,0,B|240:210|240:210|237:207|237:207|238:203|238:203|223:134,1,80,2|2,3:2|0:2,0:0:0:0:
225,142,18011,1,2,0:2:0:0:
223,134,18105,1,10,3:2:0:0:
143,250,18292,2,0,L|119:236,8,20,2|0|2|0|2|0|2|0|2,0:2|0:0|0:0|0:0|3:2|0:0|0:2|0:0|0:2,0:0:0:0:
189,348,18855,2,0,B|216:326|216:326|311:341,1,120,10|0,3:2|0:0,0:0:0:0:
317,338,19230,6,0,B|367:318|398:223|320:195,1,160,6|10,3:2|0:2,0:0:0:0:
421,166,19792,2,0,P|409:112|439:74,1,80,2|0,3:2|0:0,0:0:0:0:
484,32,20167,1,10,0:2:0:0:
407,2,20355,1,2,3:2:0:0:
340,54,20542,1,10,0:2:0:0:
341,205,20730,5,2,3:2:0:0:
341,205,20917,1,2,0:2:0:0:
258,133,21105,1,10,0:2:0:0:
103,244,21292,6,0,B|126:190|215:182|262:239,1,160,2|8,3:2|0:2,0:0:0:0:
205,371,21855,2,0,L|183:289,1,80,2|10,3:2|0:2,0:0:0:0:
103,244,22230,1,2,3:2:0:0:
242,220,22417,1,2,3:2:0:0:
157,160,22605,1,4,2:3:0:0:
184,293,22792,2,0,B|200:324|200:324|191:337|191:337|196:352|196:352|205:371,1,80,6|0,3:2|0:0,0:0:0:0:
341,250,23167,1,0,1:0:0:0:
341,250,23261,1,0,0:0:0:0:
341,250,23355,2,0,B|325:281|325:281|334:294|334:294|329:309|329:309|320:328,1,80,6|0,3:2|0:0,0:0:0:0:
157,160,23730,6,0,L|102:148,2,55.9999982910157,2|2|0,3:2|0:3|3:2,0:0:0:0:
209,90,24292,2,0,L|77:61,1,111.999996582031,2|2,0:3|0:3,0:0:0:0:
169,26,24855,1,2,3:2:0:0:
169,26,25042,1,0,1:2:0:0:
320,107,25230,6,0,P|357:108|376:91,2,55.9999982910157,2|0|2,3:2|0:0|3:2,0:0:0:0:
277,42,25792,2,0,P|316:18|402:31,1,111.999996582031,2|2,0:3|0:3,0:0:0:0:
358,141,26355,1,2,3:2:0:0:
358,141,26542,1,0,1:2:0:0:
215,229,26730,6,0,B|205:254|205:254|220:292,2,55.9999982910157,0|2|2,3:2|0:3|3:2,0:0:0:0:
294,197,27292,2,0,B|318:246|318:246|295:299,1,111.999996582031,2|2,0:3|1:2,0:0:0:0:
181,256,27855,1,2,3:2:0:0:
181,256,28042,1,0,0:0:0:0:
256,131,28230,5,2,1:2:0:0:
256,115,28417,1,2,1:2:0:0:
256,98,28605,1,2,1:2:0:0:
327,45,28792,2,0,P|259:10|187:46,1,160,2|2,3:2|0:3,0:0:0:0:
256,131,29355,1,6,3:2:0:0:
257,222,29542,5,0,0:0:0:0:
257,230,29636,1,2,0:0:0:0:
257,238,29730,2,0,L|257:340,1,80,2|2,3:2|0:3,0:0:0:0:
389,290,30105,2,0,L|321:359,1,80,0|2,3:2|0:3,0:0:0:0:
123,290,30480,2,0,L|191:359,1,80,0|2,3:0|0:3,0:0:0:0:
257,365,30855,1,2,3:2:0:0:
257,375,31042,1,0,1:2:0:0:
414,182,31230,6,0,L|330:220,1,80,2|2,3:2|0:3,0:0:0:0:
98,182,31605,2,0,L|182:220,1,80,2|2,3:2|0:3,0:0:0:0:
256,76,31980,2,0,L|256:178,1,80,0|2,3:2|0:3,0:0:0:0:
256,236,32355,1,2,3:2:0:0:
256,251,32542,1,0,1:2:0:0:
420,99,32730,6,0,L|318:116,1,80,0|2,3:2|1:2,0:0:0:0:
95,99,33105,2,0,L|197:116,1,80,2|2,3:2|0:3,0:0:0:0:
256,236,33480,2,0,L|256:156,1,80,0|2,3:0|1:2,0:0:0:0:
255,24,33855,1,2,3:2:0:0:
255,0,34042,1,0,0:0:0:0:
341,112,34230,5,2,3:2:0:0:
173,112,34417,1,2,1:2:0:0:
299,198,34605,1,2,1:2:0:0:
213,198,34792,1,2,3:1:0:0:
255,384,35073,5,0,3:0:0:0:
255,384,35167,2,2,L|255:252,1,111.999996582031,2|0,3:2|0:0,3:0:0:0:
386,278,35730,6,0,B|311:227|215:217|133:250|133:250|103:235,1,287.999991210938,6|10,3:2|0:2,0:0:0:0:
0,138,36292,2,0,B|39:143|71:174|71:174|-4:98|27:-8,1,272.000005187988,2|10,3:2|0:2,0:0:0:0:
125,22,36855,2,0,B|148:18|148:18|114:53|116:104,1,111.999996582031,2|2,3:2|1:2,0:0:0:0:
112,239,37230,6,0,L|183:223,1,55.9999982910157,2|0,3:2|0:0,0:0:0:0:
236,263,37417,2,0,L|307:247,1,55.9999982910157,2|0,0:2|0:0,0:0:0:0:
357,293,37605,1,10,0:2:0:0:
374,303,37698,1,2,0:2:0:0:
391,312,37792,1,2,3:2:0:0:
490,262,37980,1,2,0:2:0:0:
490,262,38073,2,0,B|527:221|527:221|509:158,1,111.999996582031,2|2,0:2|0:2,0:0:0:0:
450,100,38355,2,0,B|413:141|413:141|431:204,1,111.999996582031,2|0,3:2|1:2,0:0:0:0:
281,235,38730,5,6,3:2:0:0:
183,172,38917,1,0,0:0:0:0:
178,189,39011,1,0,0:0:0:0:
167,175,39105,1,10,0:2:0:0:
36,286,39292,2,0,B|162:264|272:339|272:339|314:308,1,287.999991210938,2|10,3:2|0:2,0:0:0:0:
373,260,39855,1,2,3:2:0:0:
278,223,40042,1,2,1:2:0:0:
332,101,40230,5,2,3:2:0:0:
256,117,40417,1,2,0:2:0:0:
180,127,40605,2,0,P|120:131|69:94,1,111.999996582031,10|2,3:2|0:3,0:0:0:0:
14,61,40886,1,2,0:3:0:0:
14,61,40980,2,0,P|16:22|31:4,1,55.9999982910157,2|2,3:0|0:0,0:0:0:0:
76,133,41167,2,0,P|74:173|62:191,1,55.9999982910157,10|0,0:2|0:0,0:0:0:0:
10,243,41355,2,0,B|-17:290|-17:290|28:344|28:344|89:312|89:312|85:263,1,240,2|0,3:2|0:0,0:0:0:0:
96,258,41730,6,2,B|161:242|210:288|210:288|253:269,1,143.999995605469,6|0,3:2|0:0,1:0:0:0:
271,344,42105,1,10,0:2:0:0:
227,202,42292,2,2,B|203:99|296:44|296:44|290:91|329:125,1,256,2|10,3:2|0:2,3:0:0:0:
472,35,42855,2,0,B|428:74|428:74|367:56,1,111.999996582031,2|2,3:2|1:2,0:0:0:0:
310,98,43136,1,0,0:0:0:0:
314,109,43230,6,2,B|242:110|259:57|167:60,1,143.999995605469,2|0,3:2|0:0,1:0:0:0:
116,105,43605,1,10,0:2:0:0:
0,0,43792,2,2,B|51:78|48:219|48:219|109:261,1,272.000005187988,2|10,3:2|0:2,3:0:0:0:
23,302,44355,2,0,P|35:356|35:369,1,55.9999982910157,2|0,3:2|0:0,0:0:0:0:
110,321,44542,1,2,1:2:0:0:
140,324,44636,1,0,0:0:0:0:
163,310,44730,1,2,3:2:0:0:
241,263,44917,1,0,3:2:0:0:
351,302,45105,1,10,0:2:0:0:
445,171,45292,6,0,B|467:141|467:141|520:154|520:154|525:207|525:207|492:225,1,167.999994873047,6|0,3:2|0:0,0:0:0:0:
504,218,45667,1,10,0:2:0:0:
386,233,45855,2,0,P|355:164|354:118,1,111.999996582031,2|0,3:2|0:0,0:0:0:0:
271,146,46136,1,0,0:0:0:0:
271,146,46230,2,0,P|259:110|258:85,1,55.9999982910157,2|0,3:2|0:0,0:0:0:0:
320,0,46417,2,0,P|331:46|329:68,1,55.9999982910157,2|0,1:2|0:0,0:0:0:0:
261,156,46605,6,0,P|244:88|248:61,1,80,2|0,3:2|0:0,0:0:0:0:
163,78,46792,2,0,P|107:72|59:8,1,128,2|0,1:2|3:0,0:0:0:0:
26,115,47167,5,2,0:2:0:0:
39,152,47354,1,2,0:2:0:0:
73,163,47542,1,2,0:2:0:0:
183,156,47730,6,0,B|186:83|242:47|242:47|146:18|146:18|154:81|206:90,1,287.999991210938,6|10,3:2|0:2,0:0:0:0:
90,168,48292,2,0,P|183:112|330:105,1,240.000009155274,2|10,3:2|0:2,0:0:0:0:
426,122,48855,1,2,3:2:0:0:
510,51,49042,1,2,1:2:0:0:
310,113,49230,6,0,P|332:152|332:201,1,60.0000022888184,2|0,3:2|0:0,0:0:0:0:
415,206,49417,2,0,P|393:245|393:294,1,60.0000022888184,2|0,0:2|0:0,0:0:0:0:
357,344,49605,1,10,0:2:0:0:
371,365,49698,1,2,0:2:0:0:
402,372,49792,1,2,3:2:0:0:
468,310,49980,1,2,0:2:0:0:
485,307,50073,1,2,0:2:0:0:
312,263,50261,1,2,0:2:0:0:
294,256,50355,2,0,B|255:269|267:326|245:387|185:356|157:358,1,180.000006866455,2|0,3:2|0:0,0:0:0:0:
165,350,50730,6,0,B|133:296|96:297|47:351|-16:270|-25:160|146:145|104:258,1,320,6|10,3:2|0:2,0:0:0:0:
80,347,51292,2,0,B|71:270|156:237|166:299|268:222|217:135,1,256,2|10,3:2|0:2,0:0:0:0:
226,159,51855,2,0,P|194:154|170:202,1,60.0000022888184,2|0,3:2|0:0,0:0:0:0:
70,81,52042,2,0,P|95:116|145:110,1,60.0000022888184,2|0,1:2|0:0,0:0:0:0:
311,169,52230,1,2,3:2:0:0:
420,145,52417,1,2,0:2:0:0:
457,27,52605,1,10,0:2:0:0:
318,160,52792,6,0,P|421:129|463:18,1,215.999993408203,10|0,0:2|0:0,0:0:0:0:
457,27,53167,1,10,0:2:0:0:
380,44,53355,2,0,P|349:51|333:77,1,64,2|0,3:2|0:0,0:0:0:0:
254,237,53730,5,6,3:2:0:0:
254,237,53917,2,0,B|252:309|325:274|318:351,1,128,0|10,0:0|0:2,0:0:0:0:
407,271,54292,2,2,P|292:288|148:382,1,256,2|10,3:2|0:2,3:0:0:0:
68,376,54855,1,2,3:2:0:0:
1,294,55042,1,2,1:2:0:0:
78,368,55230,2,2,B|38:292|209:296|155:198,1,207.999990478516,2|10,3:2|0:2,1:0:0:0:
80,31,55792,2,2,B|146:84|-11:150|78:217,1,207.999990478516,2|10,3:2|0:2,3:0:0:0:
115,127,56355,1,2,3:2:0:0:
115,127,56542,1,2,1:2:0:0:
169,188,56730,6,0,P|217:158|250:166,1,51.999997619629,2|0,3:2|0:0,0:0:0:0:
284,119,56917,2,0,P|332:149|365:141,1,51.999997619629,0|0,3:2|0:0,0:0:0:0:
395,199,57105,1,10,0:2:0:0:
395,199,57292,2,0,P|468:146|515:157,1,103.999995239258,6|0,3:2|0:0,0:0:0:0:
315,234,57667,1,10,0:2:0:0:
385,91,57855,1,2,3:2:0:0:
232,232,58230,6,0,B|225:241|254:265|215:293,1,51.999997619629,2|0,3:2|0:0,0:0:0:0:
196,269,58417,2,0,B|215:275|203:310|250:314,1,51.999997619629,2|0,1:2|0:0,0:0:0:0:
287,358,58605,1,2,3:2:0:0:
290,368,58792,1,10,1:2:0:0:
364,316,58980,1,0,3:2:0:0:
444,346,59167,2,0,B|490:344|499:330|521:317|511:262,2,103.999995239258,2|10|0,0:1|0:2|0:0,0:0:0:0:
361,308,59730,1,2,0:2:0:0:
454,342,63667,6,0,P|449:334|451:327,1,11.9999996337891,2|0,3:2|0:0,0:0:0:0:
376,324,63855,2,0,P|376:315|381:308,1,11.9999996337891,2|0,3:2|0:0,0:0:0:0:
312,276,64042,2,0,P|317:267|325:262,1,11.9999996337891,2|0,3:2|0:0,0:0:0:0:
255,224,64230,6,2,B|175:239|190:166|79:188,1,160,2|0,3:2|0:0,1:0:0:0:
104,184,64792,5,2,3:2:0:0:
80,33,64980,1,0,0:0:0:0:
217,7,65167,1,0,1:0:0:0:
244,153,65355,2,2,B|281:135|281:135|256:333,1,215.999993408203,10|0,0:2|0:0,3:0:0:0:
319,360,65730,6,0,P|380:333|428:341,1,111.999996582031,6|2,3:2|0:2,0:0:0:0:
483,293,66105,1,2,1:2:0:0:
450,225,66292,1,2,3:2:0:0:
440,212,66386,1,2,0:2:0:0:
434,198,66480,2,0,P|428:170|427:135,2,55.9999982910157,2|0|2,0:2|0:0|1:2,0:0:0:0:
359,291,66855,1,2,3:2:0:0:
210,242,67042,1,2,1:2:0:0:
136,370,67230,6,0,B|89:361|89:361|69:341|69:341|3:327,1,111.999996582031,6|2,3:2|0:2,0:0:0:0:
117,217,67604,1,2,1:2:0:0:
119,225,67698,1,2,0:2:0:0:
120,233,67792,2,0,L|132:297,2,55.9999982910157,2|0|0,3:2|0:0|0:0,0:0:0:0:
57,163,68167,1,2,1:2:0:0:
94,84,68355,2,0,P|157:80|227:124,1,111.999996582031,10|0,1:2|0:0,0:0:0:0:
401,196,68730,5,2,3:2:0:0:
506,94,68917,1,2,2:0:0:0:
347,45,69105,1,8,1:2:0:0:
420,121,69292,1,2,0:2:0:0:
420,121,69386,1,2,0:2:0:0:
420,121,69480,2,0,P|433:197|515:264,1,167.999994873047,14|0,0:2|0:0,0:0:0:0:
428,335,69855,2,0,P|347:263|283:255,1,167.999994873047,14|0,0:2|0:0,0:0:0:0:
278,260,70230,6,0,B|260:226|214:253|215:181,2,88.000002685547,2|2|0,3:2|0:3|3:2,0:0:0:0:
305,163,70792,2,0,B|329:242|164:210|200:313,1,207.999990478516,2|2,0:3|0:3,0:0:0:0:
259,371,71355,1,2,3:2:0:0:
259,371,71542,1,0,1:2:0:0:
122,208,71730,2,0,B|112:187|97:181|97:181|81:164|82:125,2,88.000002685547,2|0|2,3:2|0:0|3:2,0:0:0:0:
168,123,72292,2,0,B|156:71|123:50|123:50|61:61|28:19,1,176.000005371094,2|2,0:3|0:3,0:0:0:0:
1,108,72855,1,2,3:2:0:0:
1,108,73042,1,0,0:0:0:0:
209,199,73230,6,0,B|247:176|247:176|257:119,2,88.000002685547,2|2|2,3:2|0:3|3:2,0:0:0:0:
168,123,73792,2,0,B|185:92|195:62|195:62|220:45|260:43|260:43|219:-26,1,176.000005371094,2|2,0:3|1:2,0:0:0:0:
255,133,74355,1,2,3:2:0:0:
255,133,74542,1,0,0:0:0:0:
258,259,74730,5,2,1:2:0:0:
258,276,74917,1,2,1:2:0:0:
258,293,75105,1,2,1:2:0:0:
183,340,75292,2,0,B|224:362|254:383|254:383|287:361|357:328,1,176.000005371094,2|2,3:2|0:3,0:0:0:0:
258,259,75855,2,0,B|246:222|208:207|208:207|201:149|256:117|256:117|245:70,1,215.999993408203,4|0,3:2|0:0,0:0:0:0:
248,85,76230,5,2,3:2:0:0:
98,54,76417,1,2,0:3:0:0:
173,82,76605,1,0,3:2:0:0:
276,4,76792,6,0,B|236:40|207:79|207:79|140:48|76:38,1,207.999990478516,2|2,0:3|0:3,0:0:0:0:
14,127,77355,1,2,3:2:0:0:
14,127,77542,1,0,1:2:0:0:
112,215,77730,6,0,P|142:252|134:293,2,88.000002685547,0|2|2,3:2|0:3|3:2,0:0:0:0:
93,366,78292,2,0,B|112:312|173:301|173:301|203:352|268:345,1,207.999990478516,2|2,0:3|0:3,0:0:0:0:
245,265,78855,6,0,P|262:256|290:258,1,40,0|0,3:2|0:0,0:0:0:0:
382,323,79042,2,0,P|344:326|319:310,1,51.999997619629,0|0,1:2|0:0,0:0:0:0:
306,176,79230,5,2,3:2:0:0:
226,182,79417,1,2,0:3:0:0:
166,132,79605,1,2,3:2:0:0:
113,0,79792,2,0,B|124:19|171:41|171:41|158:90|158:90|114:94|88:133,1,207.999990478516,2|2,0:3|1:2,0:0:0:0:
11,277,80355,6,0,B|-4:250|-53:297|-14:336|71:344|138:238|36:266|110:188|156:210,1,240,2|0,3:2|0:0,0:0:0:0:
166,132,80730,2,0,P|215:206|212:222,1,80,2|0,3:2|0:0,0:0:0:0:
276,252,80917,2,0,P|298:212|304:165,1,71.9999978027344,2|0,1:2|0:0,0:0:0:0:
320,96,81105,2,0,P|303:107|284:108,1,40,2|0,1:2|0:0,0:0:0:0:
172,84,81292,6,0,P|208:130|213:189,1,120,2|0,3:1|3:0,0:0:0:0:
291,265,81667,6,0,P|299:177|451:14,1,320,6|0,3:2|0:0,0:0:0:0:
475,94,82230,6,0,P|447:198|370:268,1,207.999990478516,6|10,3:2|0:2,0:0:0:0:
330,350,82792,2,0,B|247:337|228:246|228:246|270:284|327:250,1,223.999993164063,2|10,3:2|0:2,0:0:0:0:
491,297,83355,2,0,B|484:297|523:306|492:349|479:297|474:318|449:298|411:333|420:366,1,111.999996582031,2|2,3:2|1:2,0:0:0:0:
288,255,83730,6,0,P|267:216|228:195,1,55.9999982910157,2|0,3:2|0:0,0:0:0:0:
357,110,83917,2,0,P|346:135|327:156,1,55.9999982910157,2|0,0:2|0:0,0:0:0:0:
177,188,84105,1,10,0:2:0:0:
156,178,84198,1,2,0:2:0:0:
145,158,84292,1,2,3:2:0:0:
167,53,84480,1,2,0:2:0:0:
167,53,84573,2,0,P|135:97|82:108,1,111.999996582031,2|2,0:2|0:2,0:0:0:0:
0,77,84855,2,0,P|30:31|83:20,1,111.999996582031,2|0,3:2|1:2,0:0:0:0:
16,164,85230,5,6,3:2:0:0:
165,189,85417,1,0,0:0:0:0:
160,206,85511,1,0,0:0:0:0:
149,192,85605,1,10,0:2:0:0:
290,195,85792,2,0,B|245:159|176:221|206:235|165:323|88:265,1,223.999993164063,2|10,3:2|0:2,0:0:0:0:
16,164,86355,1,2,3:2:0:0:
22,250,86542,1,2,1:2:0:0:
117,270,86730,6,0,B|149:252|196:294|177:303|203:360|245:328,1,160,2|2,0:2|0:2,0:0:0:0:
352,277,87292,1,2,0:2:0:0:
352,277,87480,2,2,B|354:285|354:285|338:292|338:292|351:294|351:294|336:313|336:313|350:312|350:312|335:337|335:337|344:337|344:337|331:355|331:355|339:355|339:355|327:370,1,160,2|8,2:2|2:0,2:0:0:0:
470,122,88230,6,2,P|471:79|425:46,1,92.0000017547608,4|0,3:2|0:0,1:0:0:0:
360,0,88417,2,0,P|347:22|350:47,1,51.999997619629
411,196,88605,1,10,2:0:0:0:
459,129,88792,2,2,B|439:114|407:107|407:107|332:152|196:176,1,272.000005187988,2|10,3:2|0:2,3:0:0:0:
102,192,89355,1,2,3:2:0:0:
31,124,89542,1,2,1:2:0:0:
209,183,89730,6,2,P|197:204|194:271,1,60.0000022888184,2|0,3:2|0:0,1:0:0:0:
116,284,89917,2,0,P|127:313|186:354,1,80
245,306,90105,1,10,0:2:0:0:
31,239,90292,6,2,B|-11:264|17:342|29:372|121:389|199:343|172:227|116:285,1,320,2|10,3:2|0:2,3:0:0:0:
222,364,90855,2,0,B|280:370|291:304|266:223|385:302,1,151.999995941162,2|2,3:2|1:2,0:0:0:0:
459,227,91230,2,0,P|427:238|392:239,1,55.9999982910157,2|0,3:2|0:3,3:2:0:0:
353,349,91417,2,0,P|395:332|439:329,1,83.9999974365235,0|0,3:2|0:0,0:0:0:0:
512,307,91605,1,10,0:2:0:0:
398,233,91792,6,0,B|301:169|359:69|359:69|365:119|417:132,1,272.000005187988,6|10,3:2|0:2,0:0:0:0:
487,161,92355,2,0,P|485:88|443:54,1,120.000004577637,2|0,3:2|0:0,0:0:0:0:
366,21,92636,1,0,0:0:0:0:
366,21,92730,2,0,P|335:39|292:37,1,60.0000022888184,2|0,3:2|0:0,0:0:0:0:
239,149,92917,2,0,P|270:131|313:133,1,64,2|0,0:2|0:0,0:0:0:0:
376,29,93105,2,0,P|344:49|299:49,1,83.9999974365235,2|0,3:2|0:0,0:0:0:0:
216,7,93292,6,0,P|156:99|108:94,1,136.000002593994,10|0,0:2|3:0,0:0:0:0:
53,65,93667,1,10,0:2:0:0:
14,195,93855,1,2,1:2:0:0:
18,205,93948,1,2,1:2:0:0:
25,215,94042,1,2,1:2:0:0:
33,225,94136,1,2,1:2:0:0:
38,233,94230,6,0,B|73:248|113:254|113:254|129:325|129:325|171:326|205:354,1,215.999993408203,6|0,3:2|0:0,0:0:0:0:
189,343,94605,1,10,0:2:0:0:
401,384,94792,6,0,B|401:277|475:205|475:205|460:151,1,240,2|0,3:2|0:0,0:0:0:0:
464,166,95167,1,10,0:2:0:0:
356,86,95355,2,0,B|342:144|342:144|384:185,1,111.999996582031,2|2,3:2|1:2,0:0:0:0:
480,314,95730,6,0,L|411:301,1,55.9999982910157,2|0,3:2|0:0,0:0:0:0:
359,256,95917,2,0,L|289:240,1,55.9999982910157,2|0,0:2|0:0,0:0:0:0:
214,228,96105,1,10,0:2:0:0:
205,243,96198,1,2,0:2:0:0:
197,259,96292,1,2,3:2:0:0:
271,90,96480,5,2,0:2:0:0:
276,73,96574,1,2,0:2:0:0:
135,119,96761,5,2,0:2:0:0:
123,129,96855,2,0,L|193:150,1,55.9999982910157,2|0,3:2|0:0,0:0:0:0:
63,69,97042,2,0,L|-15:50,1,55.9999982910157,0|0,1:2|0:0,0:0:0:0:
128,17,97230,5,6,3:2:0:0:
82,200,97417,1,0,0:0:0:0:
91,216,97511,1,0,0:0:0:0:
71,218,97605,1,10,0:2:0:0:
31,384,97792,2,0,B|59:360|115:357|115:357|141:307|141:307|200:317|249:262,1,240,2|0,3:2|0:0,0:0:0:0:
228,281,98167,1,10,0:2:0:0:
381,321,98355,2,0,B|450:318|446:372|512:368,1,143.999995605469,2|2,3:2|1:2,0:0:0:0:
298,346,98730,5,2,1:2:0:0:
317,255,98917,1,2,1:2:0:0:
337,159,99105,1,10,0:2:0:0:
360,58,99292,2,0,L|408:50,6,35.9999989013672,2|0|0|0|0|0|0,0:1|0:0|0:0|0:0|0:0|0:0|0:0,0:0:0:0:
354,51,99667,6,2,B|307:59|307:59|314:62|314:62|307:59|307:59|254:67,1,88.000002685547,0|0,0:0|0:0,0:0:0:0:
201,92,99855,6,0,B|204:45|204:45|143:13|143:13|98:67|98:67|125:114,1,240,10|0,3:2|0:0,0:0:0:0:
116,127,100230,6,2,B|102:223|102:223|127:268,1,128,6|0,3:2|0:0,1:0:0:0:
138,367,100605,1,10,0:2:0:0:
256,376,100792,2,2,B|280:329|261:257|198:242|198:242|202:280|172:306,1,215.999993408203,2|0,3:2|0:0,3:0:0:0:
187,288,101167,1,10,0:2:0:0:
117,250,101355,6,0,P|105:219|104:202,1,47.9999985351563,2|0,3:2|0:0,0:0:0:0:
241,210,101542,2,0,P|235:173|238:141,1,55.9999982910157,2|0,1:2|0:0,0:0:0:0:
375,229,101730,6,2,B|472:246|472:246|507:220,1,128,2|0,3:2|0:0,1:0:0:0:
511,315,102105,1,10,0:2:0:0:
450,163,102292,2,2,B|426:82|463:-1|527:-14|530:54|472:60,1,215.999993408203,2|0,3:2|0:0,3:0:0:0:
486,56,102667,1,10,0:2:0:0:
364,100,102855,2,0,P|357:56|353:27,1,55.9999982910157,2|0,3:2|0:0,0:0:0:0:
266,75,103042,5,2,1:2:0:0:
251,71,103136,1,0,0:0:0:0:
235,68,103230,1,2,3:2:0:0:
274,0,103417,5,0,3:2:0:0:
249,165,103605,1,10,0:2:0:0:
226,323,103792,2,0,B|271:375|271:375|395:350|395:350|419:273,1,256,6|10,3:2|0:2,0:0:0:0:
333,282,104355,6,0,P|286:232|282:159,1,128,2|0,3:2|0:0,0:0:0:0:
177,57,104636,1,0,1:2:0:0:
182,46,104730,2,0,P|210:91|206:154,1,88.000002685547,2|0,3:2|0:0,0:0:0:0:
278,175,104917,2,0,P|256:208|206:202,1,80,2|0,1:2|0:0,0:0:0:0:
141,174,105105,2,0,P|114:161|97:160,1,40,2|0,3:2|0:0,0:0:0:0:
24,174,105292,6,0,L|19:215,1,40,2|0,1:2|0:0,0:0:0:0:
26,252,105480,2,0,L|15:339,1,80,0|2,3:0|0:1,0:0:0:0:
86,372,105855,6,0,P|125:317|118:140,1,240,10|0,0:2|0:0,0:0:0:0:
110,135,106230,6,0,P|189:151|297:168,1,160,0|2,0:0|1:2,0:0:0:0:
352,201,106792,1,2,0:3:0:0:
352,201,106886,1,0,0:0:0:0:
352,201,106980,2,0,P|430:216|456:221,1,80,0|2,0:0|0:3,0:0:0:0:
276,246,107355,2,0,P|236:253|197:262,1,80,2|2,1:2|0:3,0:0:0:0:
354,287,107730,5,0,0:0:0:0:
267,163,108105,1,2,1:2:0:0:
340,111,108292,1,2,0:2:0:0:
340,111,108480,1,0,0:0:0:0:
177,39,108855,2,0,P|187:87|197:153,1,80,2|2,1:2|0:3,0:0:0:0:
194,129,109136,1,2,0:0:0:0:
196,140,109230,6,0,B|124:147|172:263|63:240,1,160,0|2,0:0|1:2,0:0:0:0:
25,296,109792,1,2,0:3:0:0:
25,296,109980,2,0,P|35:344|45:410,1,80
197,275,110355,2,0,P|187:323|177:389,1,80,2|2,1:2|1:3,0:0:0:0:
344,379,110730,2,0,P|328:288|309:198,1,160,0|2,0:0|1:2,0:0:0:0:
378,156,111292,1,2,1:3:0:0:
378,156,111480,1,0,1:0:0:0:
247,24,111855,1,2,1:2:0:0:
0,112,112230,2,0,P|75:123|172:151,1,160,2|2,0:0|1:2,0:0:0:0:
193,221,112792,6,0,P|223:205|276:198,2,47.9999985351563,2|2|0,0:3|0:0|0:0,0:0:0:0:
141,288,113167,2,0,P|139:321|119:371,2,47.9999985351563,2|2|2,0:3|0:0|1:2,0:0:0:0:
106,212,113542,2,0,P|77:194|44:151,2,47.9999985351563,2|2|0,0:3|0:0|0:0,0:0:0:0:
55,281,114105,5,2,1:2:0:0:
156,145,114480,1,0,0:0:0:0:
222,302,114855,1,2,1:2:0:0:
272,383,115042,5,2,0:3:0:0:
272,383,115136,1,2,0:0:0:0:
272,383,115230,2,0,B|304:373|322:337|322:337|365:298|450:309,1,191.999994140625,2|2,0:2|1:2,0:0:0:0:
497,247,115792,1,2,0:3:0:0:
382,192,115980,2,0,P|406:207|418:229,2,47.9999985351563,2|0|2,1:2|0:0|0:3,0:0:0:0:
492,116,116355,2,0,P|477:153|479:184,2,47.9999985351563,2|0|2,1:2|0:0|0:3,0:0:0:0:
308,226,116730,6,0,B|298:174|242:207|233:143,1,120,2|2,3:0|0:0,0:0:0:0:
300,102,117105,2,0,B|315:198|219:175|228:254,1,180.000006866455,2|0,3:0|0:0,0:0:0:0:
236,269,117480,1,14,0:2:0:0:
