osu file format v14

[General]
AudioFilename: audio.mp3
AudioLeadIn: 0
PreviewTime: 35636
Countdown: 0
SampleSet: Soft
StackLeniency: 0.6
Mode: 0
LetterboxInBreaks: 0
WidescreenStoryboard: 1

[Editor]
DistanceSpacing: 1.4
BeatDivisor: 16
GridSize: 32
TimelineZoom: 4.499999

[Metadata]
Title:A Bella! (feat. Lucy)
TitleUnicode:A Bella! (feat. Lucy)
Artist:M2U
ArtistUnicode:M2U
Creator:Mithia
Version:Pepekcz's Hard
Source:하이파이브
Tags:HIGH5 DIVERSITY. UICY-15598 Drug Step SQUARE MUSIQ Original Soundtrack OST PNIX Games Electronic video game latin other Nodoro Pepekcz too [[Pause]] SHOGUNMOON00999 Houtaro Zerephiehell
BeatmapID:3629776
BeatmapSetID:1740863

[Difficulty]
HPDrainRate:4.4
CircleSize:4
OverallDifficulty:6.5
ApproachRate:8
SliderMultiplier:1.4
SliderTickRate:1

[Events]
//Background and Video events
0,0,"cute girl.jpg",0,0
//Break Periods
2,59929,62917
//Storyboard Layer 0 (Background)
//Storyboard Layer 1 (Fail)
//Storyboard Layer 2 (Pass)
//Storyboard Layer 3 (Foreground)
//Storyboard Layer 4 (Overlay)
//Storyboard Sound Samples

[TimingPoints]
-270,375,4,2,1,30,1,0
855,-111.111111111111,4,2,1,30,0,0
1230,-100,4,2,1,70,0,0
12855,-100,4,2,3,70,0,0
13230,-125,4,2,1,60,0,0
18855,-125,4,2,1,60,0,0
22792,-111.111111111111,4,2,1,60,0,0
34230,-111.111111111111,4,2,1,70,0,0
35730,-100,4,2,1,85,0,1
46980,-111.111111111111,4,2,1,85,0,0
47730,-100,4,2,1,85,0,1
59730,-125,4,2,1,60,0,0
63667,-125,4,2,1,30,0,0
64792,-125,4,2,1,50,0,0
65355,-100,4,2,1,60,0,0
70230,-111.111111111111,4,2,1,70,0,0
80730,-111.111111111111,4,2,1,70,0,0
82230,-100,4,2,1,85,0,1
86730,-111.111111111111,4,2,1,70,0,0
87480,-111.111111111111,4,2,1,50,0,0
87855,-111.111111111111,4,2,2,80,0,0
88230,-100,4,2,1,85,0,1
99855,-111.111111111111,4,2,1,85,0,0
100230,-100,4,2,1,85,0,1
106230,-111.111111111111,4,2,1,55,0,0
116730,-100,4,2,1,80,0,0
117855,-100,4,2,1,5,0,0

[Colours]
Combo1 : 73,85,167
Combo2 : 162,143,209
Combo3 : 158,99,173
Combo4 : 201,78,112

[HitObjects]
22,28,855,6,0,P|66:33|74:90,1,94.499997116089,2|0,0:2|0:0,0:0:0:0:
77,89,1230,6,0,P|112:74|159:57,1,70,6|2,3:2|0:2,0:0:0:0:
240,96,1605,1,2,1:2:0:0:
240,96,1792,2,0,B|316:108|292:48|380:60,1,140,2|2,3:2|1:2,0:0:0:0:
452,120,2355,1,2,3:2:0:0:
452,120,2542,1,2,1:2:0:0:
408,208,2730,6,0,P|388:240|392:280,1,70,6|2,3:2|1:2,0:0:0:0:
432,364,3105,1,2,1:2:0:0:
432,364,3292,2,0,P|366:347|284:328,1,140,2|2,3:2|1:2,0:0:0:0:
200,348,3855,2,0,L|116:372,1,70,2|2,3:2|1:2,0:0:0:0:
40,332,4230,5,6,3:2:0:0:
40,332,4417,1,2,1:2:0:0:
96,252,4605,1,2,1:2:0:0:
96,252,4792,2,0,P|132:200|88:136,1,140,2|2,3:2|1:2,0:0:0:0:
12,88,5355,1,2,3:2:0:0:
92,36,5542,5,2,1:2:0:0:
104,32,5636,1,0,1:2:0:0:
116,28,5730,1,2,3:2:0:0:
212,52,5917,2,0,L|252:68,3,35,2|2|2|2,0:2|0:2|3:2|0:2,0:0:0:0:
256,72,6292,2,0,P|208:100|228:196,1,140,2|2,0:2|1:2,0:0:0:0:
216,188,6761,1,2,1:2:0:0:
224,196,6855,2,0,P|256:244|252:272,1,70,2|2,3:2|1:3,0:0:0:0:
192,356,7230,6,0,L|276:384,1,70,6|2,3:2|0:2,0:0:0:0:
344,332,7605,1,2,1:2:0:0:
344,332,7792,2,0,P|362:258|388:168,1,140,2|2,3:2|1:2,0:0:0:0:
456,132,8355,1,2,3:2:0:0:
456,132,8542,1,2,1:2:0:0:
417,41,8730,6,0,P|393:21|349:21,1,70,6|2,3:2|1:2,0:0:0:0:
264,96,9105,1,2,1:2:0:0:
264,96,9292,2,0,P|208:135|141:120,1,140,2|2,3:2|1:2,0:0:0:0:
49,85,9855,2,0,L|65:161,1,70,2|2,3:2|1:2,0:0:0:0:
16,240,10230,5,6,3:2:0:0:
16,240,10417,1,2,3:2:0:0:
80,312,10605,1,2,1:2:0:0:
80,312,10792,2,0,B|156:324|132:264|220:276,1,140,2|2,3:2|1:2,0:0:0:0:
304,300,11355,1,2,3:2:0:0:
372,372,11542,5,2,1:2:0:0:
384,368,11636,1,0,0:0:0:0:
396,364,11730,1,2,3:2:0:0:
472,304,11917,1,2,0:2:0:0:
404,236,12105,1,2,3:2:0:0:
404,236,12292,1,2,0:2:0:0:
472,164,12480,1,2,3:2:0:0:
328,32,12855,2,0,P|288:28|264:96,1,105,8|0,3:0|0:0,0:0:0:0:
260,88,13230,6,0,P|206:69|152:52,1,112,2|10,3:2|0:2,0:0:0:0:
84,92,13792,1,2,3:2:0:0:
36,240,14167,2,0,L|56:304,2,56,10|2|10,0:2|3:2|0:2,0:0:0:0:
92,184,14730,6,0,P|113:165|148:160,1,56,0|2,3:2|0:2,0:0:0:0:
204,212,15105,1,10,0:2:0:0:
204,212,15292,2,0,P|244:256|304:256,1,112,2|10,3:2|0:2,0:0:0:0:
356,212,15855,1,2,3:2:0:0:
480,116,16230,6,0,P|496:88|496:60,2,56,2|2|10,3:2|0:2|0:2,0:0:0:0:
424,172,16792,2,0,P|439:225|460:300,1,112,2|10,3:2|0:2,0:0:0:0:
444,356,17355,1,2,3:2:0:0:
444,356,17542,1,10,0:2:0:0:
368,332,17730,6,0,P|327:318|280:304,1,84,2|2,3:2|0:2,0:0:0:0:
276,304,18105,1,10,3:2:0:0:
204,332,18292,2,0,B|169:341|169:341|166:346|166:346|154:349|154:349|149:346|149:346|138:349|138:349|135:354|135:354|100:363,1,112,2|2,0:2|0:2,0:0:0:0:
36,320,18855,2,0,P|60:296|52:248,1,84,10|0,3:2|0:0,0:0:0:0:
44,240,19230,6,0,P|12:200|48:140,1,112,6|10,3:2|0:2,0:0:0:0:
104,116,19792,1,2,3:2:0:0:
244,188,20167,2,0,L|224:252,2,56,10|2|10,0:2|3:2|0:2,0:0:0:0:
204,120,20730,6,0,L|224:48,1,56,2|2,3:2|0:2,0:0:0:0:
280,20,21105,1,10,0:2:0:0:
280,20,21292,2,0,B|336:20|320:56|392:56,1,112,2|8,3:2|0:2,0:0:0:0:
460,36,21855,2,0,L|476:104,1,56,2|10,3:2|0:2,0:0:0:0:
452,168,22230,1,2,3:2:0:0:
452,168,22417,1,2,3:2:0:0:
488,340,22792,6,0,P|464:304|384:300,1,125.999996154785,6|0,3:2|1:0,0:0:0:0:
316,352,23355,1,6,3:2:0:0:
316,352,23542,1,0,0:0:0:0:
244,264,23730,6,0,P|265:210|300:128,1,125.999996154785,2|0,3:2|3:2,0:0:0:0:
336,72,24292,2,0,P|280:104|224:60,1,125.999996154785,2|2,0:3|0:3,0:0:0:0:
160,24,24855,2,0,P|136:3|105:0,1,62.9999980773926,2|0,3:2|1:2,0:0:0:0:
28,44,25230,6,0,L|56:156,1,94.499997116089,2|0,3:2|0:0,0:0:0:0:
53,148,25605,1,2,3:2:0:0:
16,228,25792,2,0,P|27:276|44:352,1,125.999996154785,2|2,0:3|0:3,0:0:0:0:
128,376,26355,2,0,P|191:357|264:336,1,125.999996154785,2|0,3:2|3:2,0:0:0:0:
332,368,26917,5,2,0:3:0:0:
400,312,27105,1,2,3:2:0:0:
400,312,27292,2,0,P|376:276|412:200,1,125.999996154785,2|2,0:3|1:2,0:0:0:0:
476,156,27855,2,0,P|508:120|488:68,1,94.499997116089,2|0,3:2|0:0,0:0:0:0:
492,68,28230,6,0,L|427:50,1,62.9999980773926,2|2,1:2|1:2,0:0:0:0:
356,96,28605,1,2,1:2:0:0:
356,96,28792,2,0,L|228:60,1,125.999996154785,2|2,3:2|0:3,0:0:0:0:
152,92,29355,1,6,3:2:0:0:
0,16,29730,6,0,P|19:78|40:148,1,125.999996154785,2|0,3:2|3:2,0:0:0:0:
68,220,30292,2,0,B|131:227|109:182|191:190,1,125.999996154785,2|2,0:3|0:3,0:0:0:0:
272,212,30855,2,0,L|340:196,1,62.9999980773926,2|0,3:2|1:2,0:0:0:0:
416,172,31230,6,0,P|452:204|456:256,1,94.499997116089,2|0,3:2|0:0,0:0:0:0:
452,260,31605,1,2,3:2:0:0:
412,340,31792,2,0,B|344:348|368:300|280:308,1,125.999996154785,2|2,0:3|0:3,0:0:0:0:
212,336,32355,2,0,P|156:372|80:348,1,125.999996154785,2|0,3:2|3:2,0:0:0:0:
28,312,32917,5,2,1:2:0:0:
88,248,33105,1,2,3:2:0:0:
88,248,33292,2,0,L|60:124,1,125.999996154785,2|2,0:3|1:2,0:0:0:0:
8,52,33855,2,0,P|56:52|96:16,1,94.499997116089,2|0,3:2|0:0,0:0:0:0:
100,16,34230,6,0,P|136:12|164:32,1,62.9999980773926,2|2,3:2|1:2,0:0:0:0:
234,102,34605,1,2,1:2:0:0:
234,102,34792,2,0,P|258:126|322:126,1,94.499997116089,2|0,3:1|3:0,0:0:0:0:
326,118,35167,2,2,P|345:183|366:262,1,125.999996154785,2|0,3:2|0:0,3:0:0:0:
364,357,35730,6,0,P|297:337|240:321,1,105,6|0,3:2|0:0,0:0:0:0:
248,325,36105,1,10,0:2:0:0:
137,364,36292,2,0,P|75:348|73:276,1,140,2|10,3:2|0:2,0:0:0:0:
132,204,36855,2,0,P|152:176|140:128,1,70,2|2,3:2|1:2,0:0:0:0:
96,68,37230,5,2,3:2:0:0:
96,68,37417,1,2,0:2:0:0:
184,24,37605,1,10,0:2:0:0:
196,28,37698,1,2,0:2:0:0:
208,32,37792,1,2,3:2:0:0:
288,88,37980,2,0,L|336:72,1,35,2|2,0:2|0:2,0:0:0:0:
400,20,38261,2,0,L|433:31,1,35,2|2,0:2|3:2,0:0:0:0:
496,108,38542,1,0,1:2:0:0:
412,196,38730,6,0,P|426:246|440:297,1,105,6|0,3:2|0:0,0:0:0:0:
444,312,39105,1,10,0:2:0:0:
340,376,39292,2,0,P|321:308|302:241,1,140,2|10,3:2|0:2,0:0:0:0:
328,148,39855,2,0,L|356:68,1,70,2|2,3:2|1:2,0:0:0:0:
276,24,40230,5,2,3:2:0:0:
276,24,40417,1,2,0:2:0:0:
192,72,40605,1,10,3:2:0:0:
99,41,40792,2,0,L|82:36,8,17.5,2|2|2|2|2|2|2|0|10,0:3|0:2|0:3|0:2|3:0|0:0|0:0|0:0|0:2,0:0:0:0:
20,108,41355,2,0,P|33:158|48:216,1,105,2|0,3:2|0:0,0:0:0:0:
52,224,41730,5,6,3:2:0:0:
136,284,41917,1,0,0:0:0:0:
136,284,42105,1,10,0:2:0:0:
244,236,42292,2,2,B|320:224|304:280|384:268,1,140,2|10,3:2|0:2,3:0:0:0:
452,208,42855,1,2,3:2:0:0:
452,208,43042,1,2,1:2:0:0:
416,116,43230,6,2,L|304:84,1,105,2|0,3:2|0:0,1:0:0:0:
300,84,43605,1,10,0:2:0:0:
204,60,43792,2,2,B|128:72|144:16|64:28,1,140,2|10,3:2|0:2,3:0:0:0:
8,104,44355,1,2,3:2:0:0:
60,188,44542,5,2,1:2:0:0:
56,200,44636,1,0,0:0:0:0:
52,212,44730,1,2,3:2:0:0:
4,296,44917,1,0,3:2:0:0:
4,296,45105,1,10,0:2:0:0:
100,368,45292,2,0,P|170:349|256:328,1,140,6|10,3:2|0:2,0:0:0:0:
332,356,45855,2,0,L|408:380,1,70,2|0,3:2|0:0,0:0:0:0:
484,328,46230,5,2,3:2:0:0:
484,328,46417,1,2,1:2:0:0:
452,234,46605,2,0,L|348:201,1,105,2|0,3:2|0:0,0:0:0:0:
339,198,46980,1,0,3:0:0:0:
251,192,47167,2,0,L|244:125,2,62.9999980773926,2|2|2,0:2|0:2|0:2,0:0:0:0:
142,246,47730,6,0,P|92:235|90:164,1,105,6|0,3:2|0:0,0:0:0:0:
85,176,48105,1,10,0:2:0:0:
152,72,48292,2,0,B|228:84|212:28|292:40,1,140,2|10,3:2|0:2,0:0:0:0:
376,76,48855,2,0,L|396:152,1,70,2|2,3:2|1:2,0:0:0:0:
452,224,49230,5,2,3:2:0:0:
452,224,49417,1,2,0:2:0:0:
388,296,49605,1,10,0:2:0:0:
376,300,49698,1,2,0:2:0:0:
364,296,49792,1,2,3:2:0:0:
276,256,49980,2,0,P|256:244|236:240,1,35,2|2,0:2|0:2,0:0:0:0:
164,296,50261,2,0,P|144:308|124:312,1,35,2|2,0:2|3:2,0:0:0:0:
48,260,50542,1,0,1:2:0:0:
16,144,50730,6,0,P|71:129|132:116,1,105,6|0,3:2|0:0,0:0:0:0:
132,116,51105,1,10,0:2:0:0:
248,152,51292,2,0,P|308:170|392:196,1,140,2|10,3:2|0:2,0:0:0:0:
476,216,51855,2,0,P|500:180|496:152,1,70,2|2,3:2|1:2,0:0:0:0:
452,68,52230,5,2,3:2:0:0:
452,68,52417,1,2,0:2:0:0:
356,88,52605,1,10,0:2:0:0:
256,20,52792,2,0,P|206:33|148:52,1,105,10|0,0:2|0:0,0:0:0:0:
144,56,53167,1,10,0:2:0:0:
48,28,53355,2,0,P|16:76|36:132,1,105,2|0,3:2|0:0,0:0:0:0:
36,132,53730,5,6,3:2:0:0:
104,204,53917,1,0,0:0:0:0:
104,204,54105,1,10,0:2:0:0:
36,304,54292,2,2,P|105:324|184:348,1,140,2|10,3:2|0:2,3:0:0:0:
260,304,54855,1,2,3:2:0:0:
260,304,55042,1,2,1:2:0:0:
344,356,55230,6,2,P|392:338|448:320,1,105,2|0,3:2|0:0,1:0:0:0:
456,316,55605,1,10,0:2:0:0:
488,224,55792,2,2,P|452:188|484:100,1,140,2|10,3:2|0:2,3:0:0:0:
504,16,56355,1,2,3:2:0:0:
408,40,56542,5,2,1:2:0:0:
396,36,56636,1,0,0:0:0:0:
384,32,56730,1,2,3:2:0:0:
292,12,56917,1,0,3:2:0:0:
292,12,57105,1,10,0:2:0:0:
184,72,57292,2,0,B|108:84|124:28|44:40,1,140,6|10,3:2|0:2,0:0:0:0:
12,128,57855,2,0,L|36:216,1,70,2|0,3:2|0:0,0:0:0:0:
8,292,58230,5,2,3:2:0:0:
8,292,58417,1,2,1:2:0:0:
88,348,58605,2,0,P|136:376|200:352,1,105,2|0,3:2|0:0,0:0:0:0:
192,356,58980,1,0,3:2:0:0:
244,248,59167,1,2,0:1:0:0:
244,248,59355,2,0,P|266:178|296:92,1,140,10|0,0:2|0:2,0:0:0:0:
464,16,63667,6,0,L|488:84,1,56,2|2,3:2|3:2,0:0:0:0:
440,136,64042,1,2,3:2:0:0:
440,136,64230,2,2,B|472:156|504:148|504:148|460:160|404:208,1,168,2|2,3:2|3:2,1:0:0:0:
296,296,65167,5,0,1:0:0:0:
296,296,65355,2,2,P|252:264|200:276,1,105,10|0,0:2|0:0,3:0:0:0:
196,284,65730,6,0,P|140:328|60:304,1,140,6|2,3:2|1:2,0:0:0:0:
24,232,66292,1,2,3:2:0:0:
28,220,66386,1,2,0:2:0:0:
32,208,66480,2,0,L|60:124,1,70,2|2,0:2|1:2,0:0:0:0:
88,48,66855,2,0,L|128:40,3,35,2|2|2|2,3:2|0:2|1:2|0:2,0:0:0:0:
136,40,67230,5,6,3:2:0:0:
228,72,67417,2,0,L|262:78,3,35,2|2|2|2,0:2|0:2|1:2|0:2,0:0:0:0:
276,72,67792,2,0,P|343:53|432:32,1,140,2|2,3:2|1:2,0:0:0:0:
492,92,68355,2,0,L|464:176,1,70,10|0,1:2|0:0,0:0:0:0:
500,252,68730,5,2,3:2:0:0:
500,252,68917,1,2,2:0:0:0:
422,312,69105,2,0,L|374:328,2,35,8|2|2,1:2|0:2|0:2,0:0:0:0:
292,272,69480,2,0,P|264:252|212:248,1,70,14|0,0:2|0:0,0:0:0:0:
128,316,69855,2,0,P|100:336|48:340,1,70,14|0,0:2|0:0,0:0:0:0:
12,248,70230,6,0,P|-12:192|16:132,1,125.999996154785,2|0,3:2|3:2,0:0:0:0:
100,136,70792,2,0,P|124:192|99:248,1,125.999996154785,2|2,0:3|0:3,0:0:0:0:
65,342,71355,2,0,L|141:362,1,62.9999980773926,2|0,3:2|1:2,0:0:0:0:
204,316,71730,6,0,P|253:298|308:280,1,94.499997116089,2|0,3:2|0:0,0:0:0:0:
304,280,72105,1,2,3:2:0:0:
384,320,72292,2,0,P|428:284|420:204,1,125.999996154785,2|2,0:3|0:3,0:0:0:0:
376,148,72855,2,0,B|308:140|332:188|244:180,1,125.999996154785,2|2,3:2|3:2,0:0:0:0:
188,128,73417,5,2,0:3:0:0:
104,152,73605,1,2,3:2:0:0:
104,152,73792,2,0,P|86:211|64:292,1,125.999996154785,2|2,0:3|1:2,0:0:0:0:
132,336,74355,2,0,P|180:345|248:360,1,94.499997116089,2|0,3:2|0:0,0:0:0:0:
236,352,74730,6,0,L|316:332,1,62.9999980773926,2|2,1:2|1:2,0:0:0:0:
380,364,75105,1,2,1:2:0:0:
380,364,75292,2,0,P|432:328|416:260,1,125.999996154785,2|2,3:2|0:3,0:0:0:0:
368,204,75855,1,4,3:2:0:0:
468,60,76230,6,0,B|400:68|424:20|336:28,1,125.999996154785,2|0,3:2|3:2,0:0:0:0:
268,56,76792,2,0,P|208:72|128:96,1,125.999996154785,2|2,0:3|0:3,0:0:0:0:
56,88,77355,2,0,P|32:124|32:144,1,62.9999980773926,2|0,3:2|1:2,0:0:0:0:
92,208,77730,6,0,P|124:248|112:304,1,94.499997116089,0|0,3:2|0:0,0:0:0:0:
116,300,78105,1,2,3:2:0:0:
64,372,78292,2,0,P|119:351|192:328,1,125.999996154785,2|2,0:3|0:3,0:0:0:0:
252,276,78855,2,0,P|231:216|208:148,1,125.999996154785,0|2,3:2|3:2,0:0:0:0:
152,92,79417,5,2,0:3:0:0:
220,36,79605,1,2,3:2:0:0:
220,36,79792,2,0,B|288:28|264:76|352:68,1,125.999996154785,2|2,0:3|1:2,0:0:0:0:
420,32,80355,2,0,P|456:56|464:112,1,94.499997116089,2|0,3:2|0:0,0:0:0:0:
460,116,80730,6,0,L|476:188,1,62.9999980773926,2|2,3:2|1:2,0:0:0:0:
437,278,81105,1,2,1:2:0:0:
437,278,81292,2,0,P|397:282|373:326,1,94.499997116089,2|0,3:1|3:0,0:0:0:0:
373,338,81667,2,0,P|316:354|245:378,1,125.999996154785,6|0,3:2|0:0,0:0:0:0:
176,284,82230,6,0,L|64:316,1,105,6|0,3:2|0:0,0:0:0:0:
60,316,82605,1,10,0:2:0:0:
0,212,82792,2,0,P|18:148|44:68,1,140,2|10,3:2|0:2,0:0:0:0:
124,28,83355,2,0,L|204:52,1,70,2|2,3:2|1:2,0:0:0:0:
272,112,83730,5,2,3:2:0:0:
272,112,83917,1,2,0:2:0:0:
344,48,84105,1,10,0:2:0:0:
356,52,84198,1,2,0:2:0:0:
368,56,84292,1,2,3:2:0:0:
440,120,84480,2,0,L|428:168,1,35,2|2,0:2|0:2,0:0:0:0:
480,240,84761,2,0,L|492:288,1,35,2|2,0:2|3:2,0:0:0:0:
436,356,85042,1,0,1:2:0:0:
340,288,85230,6,0,P|308:260|236:272,1,105,6|0,3:2|0:0,0:0:0:0:
236,272,85605,1,10,0:2:0:0:
152,356,85792,2,0,P|92:364|44:292,1,140,2|10,3:2|0:2,0:0:0:0:
52,208,86355,2,0,L|132:184,1,70,2|2,3:2|1:2,0:0:0:0:
188,132,86730,5,2,0:2:0:0:
344,216,87105,1,2,0:2:0:0:
344,216,87292,1,2,0:2:0:0:
416,164,87480,2,2,P|448:136|436:76,1,94.499997116089,2|0,2:2|0:0,2:0:0:0:
436,80,87855,2,2,B|421:71|421:71|405:71|405:71|400:73|400:73|381:68|381:68|378:63|378:63|360:54|360:54|339:52,1,94.499997116089,8|0,2:0|0:0,0:0:0:0:
336,48,88230,5,4,3:2:0:0:
248,88,88417,1,0,0:0:0:0:
248,88,88605,1,10,2:0:0:0:
136,36,88792,6,2,P|76:28|36:88,1,140,2|10,3:2|0:2,3:0:0:0:
88,176,89355,1,2,3:2:0:0:
88,176,89542,1,2,1:2:0:0:
48,264,89730,6,2,L|160:296,1,105,2|0,3:2|0:0,1:0:0:0:
164,296,90105,1,10,0:2:0:0:
256,332,90292,2,2,B|332:320|316:376|396:364,1,140,2|10,3:2|0:2,3:0:0:0:
476,324,90855,1,2,3:2:0:0:
424,240,91042,5,2,1:2:0:0:
428,228,91136,1,0,0:0:0:0:
432,216,91230,1,2,3:2:0:0:
504,152,91417,1,0,3:2:0:0:
504,152,91605,1,10,0:2:0:0:
416,64,91792,6,0,P|368:16|300:32,1,140,6|10,3:2|0:2,0:0:0:0:
232,100,92355,2,0,L|252:180,1,70,2|0,3:2|0:0,0:0:0:0:
308,248,92730,5,2,3:2:0:0:
308,248,92917,1,2,0:2:0:0:
256,332,93105,2,0,P|206:344|148:360,1,105,2|0,3:2|0:0,0:0:0:0:
140,364,93480,1,0,3:0:0:0:
60,308,93667,1,10,0:2:0:0:
128,236,93855,2,0,P|133:214|132:192,3,35,2|2|2|2,1:2|1:2|1:2|1:2,0:0:0:0:
128,188,94230,6,0,P|96:132|120:88,1,105,6|0,3:2|0:0,0:0:0:0:
120,88,94605,1,10,0:2:0:0:
224,24,94792,2,0,P|294:40|380:64,1,140,2|10,3:2|0:2,0:0:0:0:
448,104,95355,2,0,P|468:132|468:180,1,70,2|2,3:2|1:2,0:0:0:0:
408,244,95730,5,2,3:2:0:0:
408,244,95917,1,2,0:2:0:0:
456,328,96105,1,10,0:2:0:0:
452,340,96198,1,2,0:2:0:0:
448,352,96292,1,2,3:2:0:0:
352,372,96480,2,0,L|340:328,1,35,2|2,0:2|0:2,0:0:0:0:
280,264,96761,2,0,L|292:220,1,35,2|2,0:2|3:2,0:0:0:0:
348,152,97042,1,0,1:2:0:0:
304,64,97230,6,0,P|272:36|204:40,1,105,6|0,3:2|0:0,0:0:0:0:
200,44,97605,1,10,0:2:0:0:
100,112,97792,2,0,P|83:179|64:264,1,140,2|10,3:2|0:2,0:0:0:0:
72,348,98355,2,0,P|104:338|140:328,1,70,2|2,3:2|1:2,0:0:0:0:
224,276,98730,5,2,1:2:0:0:
224,276,98917,1,2,1:2:0:0:
308,328,99105,1,10,0:2:0:0:
388,268,99292,2,0,B|395:241|395:241|398:246|398:246|409:207|409:207|404:210|404:210|412:183,1,105,2|0,0:1|0:0,0:0:0:0:
416,172,99667,1,0,0:0:0:0:
456,92,99855,2,0,P|412:92|380:44,1,94.499997116089,10|0,3:2|0:0,0:0:0:0:
376,44,100230,5,6,3:2:0:0:
284,12,100417,1,0,0:0:0:0:
284,12,100605,1,10,0:2:0:0:
192,88,100792,2,2,B|116:100|132:44|52:56,1,140,2|10,3:2|0:2,3:0:0:0:
4,140,101355,1,2,3:2:0:0:
4,140,101542,1,2,1:2:0:0:
44,232,101730,6,2,P|84:268|144:264,1,105,2|0,3:2|0:0,1:0:0:0:
144,264,102105,1,10,0:2:0:0:
196,184,102292,2,2,P|228:140|320:140,1,140,2|10,3:2|0:2,3:0:0:0:
392,184,102855,1,2,3:2:0:0:
464,252,103042,5,2,1:2:0:0:
468,264,103136,1,0,0:0:0:0:
468,280,103230,1,2,3:2:0:0:
400,348,103417,1,0,3:2:0:0:
400,348,103605,1,10,0:2:0:0:
280,312,103792,2,0,B|204:300|220:356|140:344,1,140,6|10,3:2|0:2,0:0:0:0:
56,308,104355,2,0,P|32:276|36:232,1,70,2|0,3:2|0:0,0:0:0:0:
104,180,104730,5,2,3:2:0:0:
104,180,104917,1,2,1:2:0:0:
52,96,105105,2,0,P|106:79|160:64,1,105,2|0,3:2|0:0,0:0:0:0:
168,64,105480,1,0,3:0:0:0:
264,136,105667,1,2,0:1:0:0:
264,136,105855,2,0,B|340:148|324:92|404:104,1,140,10|0,0:2|0:0,0:0:0:0:
492,252,106605,6,0,L|472:328,1,62.9999980773926,2|2,1:2|0:3,0:0:0:0:
472,324,106886,1,0,0:0:0:0:
468,336,106980,2,0,L|391:316,1,62.9999980773926,0|2,0:0|0:3,0:0:0:0:
324,288,107355,2,0,L|263:303,1,62.9999980773926,2|2,1:2|0:3,0:0:0:0:
192,352,107730,2,0,P|132:336|120:272,1,125.999996154785,0|2,0:0|1:2,0:0:0:0:
156,200,108292,1,2,0:2:0:0:
156,200,108480,2,0,L|120:72,1,125.999996154785,0|2,0:0|1:2,0:0:0:0:
192,24,109042,5,2,0:3:0:0:
204,20,109136,1,2,0:0:0:0:
216,16,109230,1,0,0:0:0:0:
376,88,109605,2,0,P|392:120|392:152,1,62.9999980773926,2|2,1:2|0:3,0:0:0:0:
308,168,109980,2,0,P|293:140|291:109,1,62.9999980773926
320,24,110355,1,2,1:2:0:0:
320,24,110542,1,2,1:3:0:0:
232,12,110730,6,0,L|96:56,1,125.999996154785,0|2,0:0|1:2,0:0:0:0:
48,112,111292,1,2,1:3:0:0:
48,112,111480,1,0,1:0:0:0:
28,288,111855,2,0,P|76:292|108:332,1,94.499997116089,2|0,1:2|0:0,0:0:0:0:
108,336,112230,5,2,0:0:0:0:
280,368,112605,2,0,L|360:348,1,62.9999980773926,2|2,1:2|0:3,0:0:0:0:
352,352,112886,1,2,0:0:0:0:
364,348,112980,2,0,P|384:316|384:288,1,62.9999980773926,0|2,0:0|0:3,0:0:0:0:
332,220,113355,2,0,P|312:188|312:160,1,62.9999980773926,2|2,1:2|0:3,0:0:0:0:
316,152,113636,1,2,0:0:0:0:
324,140,113730,6,0,P|352:112|324:32,1,125.999996154785,0|2,0:0|1:2,0:0:0:0:
244,28,114292,1,2,1:2:0:0:
244,28,114480,2,0,B|176:16|192:64|120:52,1,125.999996154785,0|2,0:0|1:2,0:0:0:0:
40,32,115042,5,2,0:3:0:0:
36,44,115136,1,2,0:0:0:0:
32,56,115230,1,2,0:2:0:0:
96,220,115605,2,0,L|120:296,1,62.9999980773926,2|2,1:2|0:3,0:0:0:0:
172,348,115980,2,0,L|244:328,1,62.9999980773926,2|2,1:2|0:3,0:0:0:0:
244,324,116261,1,0,0:0:0:0:
252,316,116355,2,0,L|324:296,1,62.9999980773926,2|2,1:2|0:3,0:0:0:0:
400,344,116730,5,2,3:0:0:0:
464,272,116917,1,0,0:0:0:0:
468,260,117011,1,2,0:0:0:0:
472,248,117105,2,0,L|496:184,3,35,2|2|0|0,3:0|0:0|0:0|0:0,0:0:0:0:
488,200,117480,6,2,P|424:184|420:108,1,140,14|2,0:2|2:0,0:0:0:0:
