osu file format v14

[General]
AudioFilename: audio.mp3
AudioLeadIn: 0
PreviewTime: 35636
Countdown: 0
SampleSet: Soft
StackLeniency: 0.6
Mode: 0
LetterboxInBreaks: 0
WidescreenStoryboard: 1

[Editor]
Bookmarks: 63667,82230,94230,117855
DistanceSpacing: 1
BeatDivisor: 2
GridSize: 32
TimelineZoom: 1.800001

[Metadata]
Title:A Bella! (feat. Lucy)
TitleUnicode:A Bella! (feat. Lucy)
Artist:M2U
ArtistUnicode:M2U
Creator:Mithia
Version:Nodoro's Normal
Source:하이파이브
Tags:HIGH5 DIVERSITY. UICY-15598 Drug Step SQUARE MUSIQ Original Soundtrack OST PNIX Games Electronic video game latin other Nodoro Pepekcz too [[Pause]] SHOGUNMOON00999 Houtaro Zerephiehell
BeatmapID:3596586
BeatmapSetID:1740863

[Difficulty]
HPDrainRate:3.4
CircleSize:3.4
OverallDifficulty:4.4
ApproachRate:5.4
SliderMultiplier:1
SliderTickRate:1

[Events]
//Background and Video events
0,0,"cute girl.jpg",0,0
//Break Periods
2,59930,62528
//Storyboard Layer 0 (Background)
//Storyboard Layer 1 (Fail)
//Storyboard Layer 2 (Pass)
//Storyboard Layer 3 (Foreground)
//Storyboard Layer 4 (Overlay)
//Storyboard Sound Samples

[TimingPoints]
-270,375,4,2,1,10,1,0
855,-90.9090909090909,4,2,1,30,0,0
1230,-90.9090909090909,4,2,1,70,0,0
12855,-90.9090909090909,4,2,3,70,0,0
13230,-100,4,2,1,60,0,0
18292,-93.4581696282773,4,2,1,60,0,0
18855,-100,4,2,1,60,0,0
22792,-100,4,2,1,70,0,0
34136,-100,4,2,1,5,0,0
34230,-95.2380952380952,4,2,1,70,0,0
35730,-90.9090909090909,4,2,1,85,0,1
46980,-95.2380952380952,4,2,1,85,0,0
47730,-90.9090909090909,4,2,1,85,0,1
59167,-90.9090909090909,4,2,1,85,0,1
59730,-100,4,2,1,60,0,0
63667,-111.111111111111,4,2,1,30,0,0
64792,-100,4,2,1,50,0,0
65355,-100,4,2,1,60,0,0
70230,-100,4,2,1,70,0,0
80730,-95.2380952380952,4,2,1,70,0,0
82230,-90.9090909090909,4,2,1,85,0,1
86730,-111.111111111111,4,2,1,70,0,0
87480,-100,4,2,1,50,0,0
87855,-100,4,2,2,80,0,0
88230,-90.9090909090909,4,2,1,85,0,1
93480,-95.2380952380952,4,2,1,85,0,1
94230,-90.9090909090909,4,2,1,85,0,1
99855,-95.2380952380952,4,2,1,85,0,0
100230,-90.9090909090909,4,2,1,85,0,1
106230,-100,4,2,1,55,0,0
116730,-90.9090909090909,4,2,1,80,0,0
117855,-100,4,2,1,5,0,0

[Colours]
Combo1 : 73,85,167
Combo2 : 162,143,209
Combo3 : 158,99,173
Combo4 : 201,78,112

[HitObjects]
51,63,1230,6,0,L|116:68,1,55.0000016784668,6|2,3:2|0:2,0:0:0:0:
148,32,1605,1,2,1:2:0:0:
148,32,1792,2,0,L|159:146,1,110.000003356934,2|2,3:2|1:2,0:0:0:0:
201,177,2355,1,2,3:2:0:0:
292,115,2730,6,0,L|287:50,2,55.0000016784668,6|2|2,3:2|1:2|1:2,0:0:0:0:
330,153,3292,2,0,L|448:177,1,110.000003356934,2|2,3:2|1:2,0:0:0:0:
473,217,3855,1,2,3:2:0:0:
410,309,4230,6,0,L|343:303,1,55.0000016784668,6|2,3:2|1:2,0:0:0:0:
312,278,4605,1,2,1:2:0:0:
312,278,4792,2,0,L|198:288,1,110.000003356934,2|2,3:2|1:2,0:0:0:0:
150,267,5355,1,2,3:2:0:0:
91,361,5730,5,2,3:2:0:0:
91,361,5917,2,0,L|36:355,1,55.0000016784668,2|2,0:2|3:2,0:0:0:0:
0,313,6292,2,0,L|8:196,1,110.000003356934,2|2,0:2|1:2,0:0:0:0:
44,161,6855,1,2,3:2:0:0:
13,58,7230,6,0,L|0:1,1,55.0000016784668,6|2,3:2|0:2,0:0:0:0:
59,8,7605,1,2,1:2:0:0:
59,8,7792,2,0,L|172:23,1,110.000003356934,2|2,3:2|1:2,0:0:0:0:
208,60,8355,1,2,3:2:0:0:
305,111,8730,6,0,L|322:49,1,55.0000016784668,6|2,3:2|1:2,0:0:0:0:
358,12,9105,1,2,1:2:0:0:
358,12,9292,2,0,L|388:122,1,110.000003356934,2|2,3:2|1:2,0:0:0:0:
432,149,9855,1,2,3:2:0:0:
486,244,10230,6,0,L|480:306,1,55.0000016784668,6|2,3:2|3:2,0:0:0:0:
512,350,10605,1,2,1:2:0:0:
512,350,10792,2,0,L|401:360,1,110.000003356934,2|2,3:2|1:2,0:0:0:0:
347,361,11355,1,2,3:2:0:0:
263,288,11730,6,0,L|246:349,1,55.0000016784668,2|2,3:2|0:2,0:0:0:0:
201,370,12105,2,0,L|184:309,1,55.0000016784668,2|2,3:2|0:2,0:0:0:0:
170,264,12480,1,2,3:2:0:0:
61,281,12855,2,0,L|-13:274,1,55.0000016784668,8|0,3:0|0:0,0:0:0:0:
5,226,13230,6,0,L|39:125,1,100,2|10,3:2|0:2,0:0:0:0:
67,92,13792,2,0,L|101:193,1,100,2|10,3:2|0:2,0:0:0:0:
141,212,14355,1,2,3:2:0:0:
208,140,14730,2,0,L|213:90,2,50,0|2|10,3:2|0:2|0:2,0:0:0:0:
248,169,15292,2,0,L|348:180,1,100,2|10,3:2|0:2,0:0:0:0:
395,165,15855,1,2,3:2:0:0:
493,181,16230,6,0,L|481:104,2,50,2|2|10,3:2|0:2|0:2,0:0:0:0:
471,225,16792,2,0,L|489:341,1,100,2|10,3:2|0:2,0:0:0:0:
455,364,17355,1,2,3:2:0:0:
366,317,17730,2,0,L|264:329,1,100,2|10,3:2|3:2,0:0:0:0:
223,360,18292,2,0,B|217:362|217:362|211:360|211:360|205:363|205:363|199:362|199:362|193:365|193:365|187:363|187:363|181:366|181:366|175:365|175:365|169:367|169:367|163:366|163:366|157:369|157:369|151:367|151:367|145:370|145:370|139:369|139:369|133:372|133:372|127:370|127:370|123:372,1,106.999741593209,2|2,0:2|0:2,0:0:0:0:
73,383,18855,1,10,3:2:0:0:
83,283,19230,6,0,L|70:176,1,100,6|10,3:2|0:2,0:0:0:0:
28,158,19792,2,0,L|40:51,1,100,2|10,3:2|0:2,0:0:0:0:
75,24,20355,1,2,3:2:0:0:
163,70,20730,6,0,L|170:20,2,50,2|2|10,3:2|0:2|0:2,0:0:0:0:
195,108,21292,2,0,L|295:119,1,100,2|8,3:2|0:2,0:0:0:0:
344,114,21855,1,2,3:2:0:0:
364,19,22230,5,2,3:2:0:0:
364,19,22417,2,0,L|303:10,1,50,2|4,3:2|2:3,0:0:0:0:
266,0,22792,2,0,L|150:18,1,100,6|0,3:2|1:0,0:0:0:0:
123,40,23355,1,6,3:2:0:0:
30,1,23730,6,0,L|20:112,1,100,2|0,3:2|3:2,0:0:0:0:
63,127,24292,2,0,B|66:163|66:163|78:178|78:178|82:223,1,100,2|2,0:3|0:3,0:0:0:0:
95,270,24855,2,0,L|43:279,1,50,2|0,3:2|1:2,0:0:0:0:
0,299,25230,1,2,3:2:0:0:
57,384,25605,1,2,3:2:0:0:
57,384,25792,2,0,L|156:366,1,100,2|2,0:3|0:3,0:0:0:0:
204,355,26355,1,2,3:2:0:0:
265,276,26730,5,0,3:2:0:0:
302,308,26917,2,0,L|356:317,1,50,2|2,0:3|3:2,0:0:0:0:
388,350,27292,2,0,L|402:248,1,100,2|2,0:3|1:2,0:0:0:0:
446,227,27855,1,2,3:2:0:0:
462,128,28230,6,0,L|512:119,2,50,2|2|2,1:2|1:2|1:2,0:0:0:0:
419,102,28792,2,0,B|384:106|384:106|361:121|361:121|322:124,1,100,2|2,3:2|0:3,0:0:0:0:
285,157,29355,1,6,3:2:0:0:
359,224,29730,6,0,L|369:335,1,100,2|0,3:2|3:2,0:0:0:0:
329,355,30292,2,0,B|293:352|293:352|278:340|278:340|233:336,1,100,2|2,0:3|0:3,0:0:0:0:
196,370,30855,2,0,L|144:373,1,50,2|0,3:2|1:2,0:0:0:0:
96,377,31230,1,2,3:2:0:0:
49,294,31605,1,2,3:2:0:0:
49,294,31792,2,0,L|67:195,1,100,2|2,0:3|0:3,0:0:0:0:
78,147,32355,1,2,3:2:0:0:
102,50,32730,5,0,3:2:0:0:
139,82,32917,2,0,L|193:91,1,50,2|2,1:2|3:2,0:0:0:0:
227,121,33292,2,0,L|325:104,1,100,2|2,0:3|1:2,0:0:0:0:
368,129,33855,1,2,3:2:0:0:
460,78,34230,6,0,L|448:24,2,52.4999983978272,2|2|2,3:2|1:2|1:2,0:0:0:0:
476,128,34792,1,2,3:1:0:0:
406,206,35167,2,2,B|359:183|359:183|308:195,1,104.999996795654,2|0,3:2|0:0,3:0:0:0:
255,213,35730,6,0,B|202:210|202:210|198:207|198:207|144:204,1,110.000003356934,6|10,3:2|0:2,0:0:0:0:
91,198,36292,1,2,3:2:0:0:
46,102,36667,1,10,0:2:0:0:
46,102,36855,2,0,B|100:99,1,55.0000016784668,2|2,3:2|1:2,0:0:0:0:
149,71,37230,5,2,3:2:0:0:
149,71,37417,2,0,B|152:17,2,55.0000016784668,2|10|2,0:2|0:2|3:2,0:0:0:0:
185,114,37980,1,2,0:2:0:0:
280,59,38355,1,2,3:2:0:0:
340,150,38730,6,0,B|337:203|337:203|334:207|334:207|331:261,1,110.000003356934,6|10,3:2|0:2,0:0:0:0:
329,313,39292,1,2,3:2:0:0:
237,371,39667,1,10,0:2:0:0:
237,371,39855,2,0,L|166:365,1,55.0000016784668,2|2,3:2|1:2,0:0:0:0:
140,330,40230,5,2,3:2:0:0:
47,384,40605,1,10,3:2:0:0:
47,384,40792,2,0,B|44:378|44:378|47:372|47:372|43:366|43:366|44:360|44:360|41:354|41:354|43:348|43:348|40:342|40:342|41:335|41:335|39:329|39:329|40:323|40:323|37:317|37:317|39:311|39:311|36:305|36:305|37:299|37:299|34:293|34:293|36:286|36:286|34:282,1,110.000003356934,2|10,0:3|0:2,0:0:0:0:
49,230,41355,1,2,3:2:0:0:
66,121,41730,6,2,L|54:57,2,55.0000016784668,6|0|10,3:2|0:0|0:2,1:0:0:0:
106,157,42292,1,2,3:2:0:0:
201,99,42667,1,10,0:2:0:0:
201,99,42855,2,0,L|262:111,1,55.0000016784668,2|2,3:2|1:2,0:0:0:0:
283,156,43230,6,2,L|398:133,1,110.000003356934,2|10,3:2|0:2,1:0:0:0:
419,87,43792,1,2,3:2:0:0:
503,165,44167,1,10,0:2:0:0:
503,165,44355,2,0,L|508:232,1,55.0000016784668,2|2,3:2|1:2,0:0:0:0:
511,274,44730,6,0,L|405:316,1,110.000003356934,2|10,3:2|0:2,0:0:0:0:
353,310,45292,1,6,3:2:0:0:
270,381,45667,1,10,0:2:0:0:
270,381,45855,1,2,3:2:0:0:
160,369,46230,6,0,L|147:314,1,55.0000016784668,2|2,3:2|1:2,0:0:0:0:
133,261,46605,2,0,L|189:249,1,55.0000016784668,2|2,3:2|1:2,0:0:0:0:
225,213,46980,1,0,3:0:0:0:
225,213,47167,2,0,B|279:210,2,52.4999983978272,2|2|2,0:2|0:2|0:2,0:0:0:0:
186,172,47730,6,0,B|183:119|183:119|180:115|180:115|177:61,1,110.000003356934,6|10,3:2|0:2,0:0:0:0:
190,10,48292,1,2,3:2:0:0:
86,33,48667,1,10,0:2:0:0:
86,33,48855,2,0,B|89:87,1,55.0000016784668,2|2,3:2|1:2,0:0:0:0:
62,137,49230,5,2,3:2:0:0:
62,137,49417,2,0,B|1:128,2,55.0000016784668,2|10|2,0:2|0:2|3:2,0:0:0:0:
99,177,49980,1,2,0:2:0:0:
33,265,50355,1,2,3:2:0:0:
115,338,50730,6,0,B|168:341|168:341|172:344|172:344|226:347,1,110.000003356934,6|10,3:2|0:2,0:0:0:0:
272,372,51292,1,2,3:2:0:0:
367,314,51667,1,10,0:2:0:0:
367,314,51855,2,0,L|361:243,1,55.0000016784668,2|2,3:2|1:2,0:0:0:0:
357,204,52230,5,2,3:2:0:0:
401,105,52605,1,10,0:2:0:0:
401,105,52792,2,0,B|394:103|394:103|389:107|389:107|382:104|382:104|376:106|376:106|370:104|370:104|364:107|364:107|358:105|358:105|351:107|351:107|345:106|345:106|339:108|339:108|333:106|333:106|327:109|327:109|321:107|321:107|315:109|315:109|309:107|309:107|302:111|302:111|298:109,1,110.000003356934,10|10,0:2|0:2,0:0:0:0:
243,114,53355,1,2,3:2:0:0:
167,193,53730,6,2,L|160:258,2,55.0000016784668,6|0|10,3:2|0:0|0:2,1:0:0:0:
152,139,54292,1,2,3:2:0:0:
71,71,54667,1,10,0:2:0:0:
71,71,54855,2,0,L|59:132,1,55.0000016784668,2|2,3:2|1:2,0:0:0:0:
10,148,55230,6,2,L|33:263,1,110.000003356934,2|10,3:2|0:2,1:0:0:0:
10,306,55792,1,2,3:2:0:0:
103,372,56167,1,10,0:2:0:0:
103,372,56355,2,0,L|170:367,1,55.0000016784668,2|2,3:2|1:2,0:0:0:0:
203,336,56730,6,0,L|312:344,1,110.000003356934,2|10,3:2|0:2,0:0:0:0:
359,373,57292,1,6,3:2:0:0:
418,281,57667,1,10,0:2:0:0:
418,281,57855,1,2,3:2:0:0:
365,190,58230,5,2,3:2:0:0:
365,190,58417,2,0,B|362:136,2,55.0000016784668,2|2|10,1:2|3:2|1:2,0:0:0:0:
319,222,58980,2,0,L|264:210,1,55.0000016784668,0|2,3:2|0:1,0:0:0:0:
220,177,59355,2,0,B|175:192|175:192|155:224|155:224|126:231,1,110.000003356934,10|0,0:2|0:2,0:0:0:0:
497,56,63667,6,0,L|503:12,2,44.999998626709,2|2|2,3:2|3:2|3:2,0:0:0:0:
461,84,64230,2,2,L|318:100,1,134.999995880127,2|2,3:2|3:2,1:0:0:0:
251,41,65167,1,0,1:0:0:0:
251,41,65355,2,2,L|179:32,1,50,10|0,0:2|0:0,3:0:0:0:
161,65,65730,5,6,3:2:0:0:
66,49,66105,1,2,1:2:0:0:
66,49,66292,2,0,L|57:-23,2,50,2|2|2,3:2|0:2|1:2,0:0:0:0:
29,83,66855,2,0,L|51:136,1,50,2|2,3:2|1:2,0:0:0:0:
73,172,67230,1,6,3:2:0:0:
166,132,67605,1,2,1:2:0:0:
166,132,67792,2,0,B|203:134|203:134|226:149|226:149|261:153,1,100,2|2,3:2|1:2,0:0:0:0:
311,158,68355,1,10,1:2:0:0:
367,75,68730,6,0,L|361:21,2,50,2|2|8,3:2|2:0|1:2,0:0:0:0:
408,111,69292,1,2,0:2:0:0:
408,111,69480,1,14,0:2:0:0:
473,35,69855,1,14,0:2:0:0:
511,127,70230,6,0,L|501:238,1,100,2|0,3:2|3:2,0:0:0:0:
469,264,70792,2,0,B|433:261|433:261|418:249|418:249|373:245,1,100,2|2,0:3|0:3,0:0:0:0:
325,260,71355,2,0,L|270:256,1,50,2|0,3:2|1:2,0:0:0:0:
237,223,71730,1,2,3:2:0:0:
183,308,72105,1,2,3:2:0:0:
183,308,72292,2,0,L|77:318,1,100,2|2,0:3|0:3,0:0:0:0:
48,352,72855,1,2,3:2:0:0:
1,263,73230,5,2,3:2:0:0:
1,263,73417,2,0,L|10:209,1,50,2|2,0:3|3:2,0:0:0:0:
47,181,73792,2,0,L|33:79,1,100,2|2,0:3|1:2,0:0:0:0:
64,42,74355,1,2,3:2:0:0:
142,103,74730,6,0,L|133:153,2,50,2|2|2,1:2|1:2|1:2,0:0:0:0:
183,76,75292,2,0,B|218:80|218:80|241:95|241:95|280:98,1,100,2|2,3:2|0:3,0:0:0:0:
328,103,75855,1,4,3:2:0:0:
383,19,76230,6,0,L|494:9,1,100,2|0,3:2|3:2,0:0:0:0:
510,51,76792,2,0,B|507:87|507:87|495:102|495:102|491:147,1,100,2|2,0:3|0:3,0:0:0:0:
450,176,77355,2,0,L|459:228,1,50,2|0,3:2|1:2,0:0:0:0:
467,275,77730,1,0,3:2:0:0:
506,372,78105,1,2,3:2:0:0:
506,372,78292,2,0,L|404:364,1,100,2|2,0:3|0:3,0:0:0:0:
356,360,78855,1,0,3:2:0:0:
296,286,79230,5,2,3:2:0:0:
296,286,79417,2,0,L|240:291,1,50,2|2,0:3|3:2,0:0:0:0:
207,321,79792,2,0,L|193:219,1,100,2|2,0:3|1:2,0:0:0:0:
155,189,80355,2,0,B|158:154|158:154|166:138,1,50,2|0,3:2|0:0,0:0:0:0:
189,94,80730,6,0,L|177:40,2,52.4999983978272,2|2|2,3:2|1:2|1:2,0:0:0:0:
237,114,81292,1,2,3:1:0:0:
335,77,81667,2,0,B|382:100|382:100|433:88,1,104.999996795654,6|0,3:2|0:0,0:0:0:0:
474,50,82230,6,0,B|477:103|477:103|480:107|480:107|483:161,1,110.000003356934,6|10,3:2|0:2,0:0:0:0:
490,213,82792,1,2,3:2:0:0:
404,281,83167,1,10,0:2:0:0:
404,281,83355,2,0,B|350:278,1,55.0000016784668,2|2,3:2|1:2,0:0:0:0:
316,240,83730,5,2,3:2:0:0:
316,240,83917,2,0,B|262:237,2,55.0000016784668,2|10|2,0:2|0:2|3:2,0:0:0:0:
355,200,84480,1,2,0:2:0:0:
289,112,84855,1,2,3:2:0:0:
347,18,85230,6,0,B|294:15|294:15|290:12|290:12|236:9,1,110.000003356934,6|10,3:2|0:2,0:0:0:0:
187,31,85792,1,2,3:2:0:0:
101,99,86167,1,10,0:2:0:0:
101,99,86355,2,0,L|95:28,1,55.0000016784668,2|2,3:2|1:2,0:0:0:0:
59,18,86730,5,2,0:2:0:0:
0,86,87105,2,0,B|-1:110|-1:110|10:132,1,44.999998626709,2|2,0:2|0:2,0:0:0:0:
41,166,87480,2,2,B|34:227,1,50,2|0,2:2|0:0,2:0:0:0:
1,253,87855,1,8,2:0:0:0:
78,331,88230,6,2,L|64:386,2,55.0000016784668,4|0|10,3:2|0:0|2:0,1:0:0:0:
115,291,88792,1,2,3:2:0:0:
200,369,89167,1,10,0:2:0:0:
200,369,89355,2,0,L|259:375,1,55.0000016784668,2|2,3:2|1:2,0:0:0:0:
298,341,89730,6,2,L|407:329,1,110.000003356934,2|10,3:2|0:2,1:0:0:0:
455,356,90292,1,2,3:2:0:0:
497,256,90667,1,10,0:2:0:0:
497,256,90855,2,0,L|502:189,1,55.0000016784668,2|2,3:2|1:2,0:0:0:0:
464,159,91230,6,0,L|435:52,1,110.000003356934,2|10,3:2|0:2,3:2:0:0:
419,0,91792,1,6,3:2:0:0:
346,82,92167,1,10,0:2:0:0:
346,82,92355,1,2,3:2:0:0:
272,0,92730,6,0,L|217:13,1,55.0000016784668,2|2,3:2|0:2,0:0:0:0:
178,50,93105,2,0,L|190:106,1,55.0000016784668,2|10,3:2|0:2,0:0:0:0:
235,139,93480,1,0,3:0:0:0:
235,139,93667,2,0,B|289:142,2,52.4999983978272,10|2|2,0:2|1:2|1:2,0:0:0:0:
200,182,94230,6,0,B|227:227|227:227|226:232|226:232|254:279,1,110.000003356934,6|10,3:2|0:2,0:0:0:0:
280,324,94792,1,2,3:2:0:0:
180,364,95167,1,10,0:2:0:0:
180,364,95355,2,0,B|177:310,1,55.0000016784668,2|2,3:2|1:2,0:0:0:0:
141,273,95730,5,2,3:2:0:0:
141,273,95917,2,0,B|132:212,2,55.0000016784668,2|10|2,0:2|0:2|3:2,0:0:0:0:
104,313,96480,1,2,0:2:0:0:
16,379,96855,1,2,3:2:0:0:
1,270,97230,6,0,B|4:217|4:217|7:213|7:213|10:159,1,110.000003356934,6|10,3:2|0:2,0:0:0:0:
0,107,97792,1,2,3:2:0:0:
71,24,98167,1,10,0:2:0:0:
71,24,98355,2,0,L|142:30,1,55.0000016784668,2|2,3:2|1:2,0:0:0:0:
181,34,98730,5,2,1:2:0:0:
245,129,99105,1,10,0:2:0:0:
245,129,99292,2,0,B|238:127|238:127|233:131|233:131|226:128|226:128|220:130|220:130|214:128|214:128|208:131|208:131|202:129|202:129|195:131|195:131|189:130|189:130|183:132|183:132|177:130|177:130|171:133|171:133|165:131|165:131|159:133|159:133|153:131|153:131|146:135|146:135|142:133,1,110.000003356934,2|0,0:1|0:0,0:0:0:0:
87,139,99855,1,10,3:2:0:0:
53,243,100230,6,2,L|-12:236,2,55.0000016784668,6|0|10,3:2|0:0|0:2,1:0:0:0:
87,285,100792,1,2,3:2:0:0:
171,214,101167,1,10,0:2:0:0:
171,214,101355,2,0,L|236:207,1,55.0000016784668,2|2,3:2|1:2,0:0:0:0:
258,164,101730,6,2,L|376:181,1,110.000003356934,2|10,3:2|0:2,1:0:0:0:
421,190,102292,1,2,3:2:0:0:
480,288,102667,1,10,0:2:0:0:
480,288,102855,2,0,L|413:293,1,55.0000016784668,2|2,3:2|1:2,0:0:0:0:
386,331,103230,6,0,B|344:328|344:328|319:312|319:312|280:307,1,110.000003356934,2|10,3:2|0:2,0:0:0:0:
231,332,103792,1,6,3:2:0:0:
159,256,104167,1,10,0:2:0:0:
159,256,104355,1,2,3:2:0:0:
78,330,104730,5,2,3:2:0:0:
78,330,104917,2,0,B|81:384,2,55.0000016784668,2|2|2,1:2|3:2|1:2,0:0:0:0:
46,284,105480,1,0,3:0:0:0:
70,237,105667,1,2,0:1:0:0:
70,237,105855,2,0,B|66:171,1,55.0000016784668,10|0,0:2|0:0,0:0:0:0:
61,132,106230,5,0,0:0:0:0:
159,150,106605,2,0,L|215:145,1,50,2|2,1:2|0:3,0:0:0:0:
254,166,106980,1,0,0:0:0:0:
311,84,107355,1,2,1:2:0:0:
398,132,107730,6,0,L|404:78,1,50,0|2,0:0|0:3,0:0:0:0:
437,45,108105,2,0,L|491:39,2,50,2|2|0,1:2|0:2|0:0,0:0:0:0:
346,1,108855,1,2,1:2:0:0:
309,93,109230,5,0,0:0:0:0:
220,47,109605,2,0,L|164:42,1,50,2|2,1:2|0:3,0:0:0:0:
133,8,109980,1,0,0:0:0:0:
60,76,110355,1,2,1:2:0:0:
129,149,110730,6,0,L|123:203,1,50
149,241,111105,2,0,L|143:290,2,50,2|2|0,1:2|1:3|1:0,0:0:0:0:
238,195,111855,1,2,1:2:0:0:
201,102,112230,5,2,0:0:0:0:
290,57,112605,2,0,L|346:62,1,50,2|2,1:2|0:3,0:0:0:0:
379,93,112980,1,0,0:0:0:0:
461,36,113355,2,0,L|482:90,1,50,2|2,1:2|0:3,0:0:0:0:
511,120,113730,5,0,0:0:0:0:
481,215,114105,2,0,L|487:269,2,50,2|2|0,1:2|1:2|0:0,0:0:0:0:
397,158,114855,1,2,1:2:0:0:
327,229,115230,5,2,0:2:0:0:
367,320,115605,2,0,L|311:325,1,50,2|2,1:2|0:3,0:0:0:0:
267,329,115980,1,2,1:2:0:0:
182,382,116355,1,2,1:2:0:0:
112,296,116730,6,0,L|118:242,1,55.0000016784668,2|0,3:0|0:0,0:0:0:0:
92,198,117105,1,2,3:0:0:0:
92,198,117292,1,0,0:0:0:0:
127,154,117480,2,2,B|159:109|159:109|139:58,1,110.000003356934,14|2,0:2|2:0,0:0:0:0:
