osu file format v14

[General]
AudioFilename: audio.mp3
AudioLeadIn: 0
PreviewTime: 35730
Countdown: 0
SampleSet: Soft
StackLeniency: 0.6
Mode: 0
LetterboxInBreaks: 0
WidescreenStoryboard: 1

[Editor]
Bookmarks: 13230,23730,35730,46980,47730,49417,59730,65730,70230,82230,93480,94230,106230,117855
DistanceSpacing: 0.8
BeatDivisor: 4
GridSize: 16
TimelineZoom: 3.399999

[Metadata]
Title:A Bella! (feat. Lucy)
TitleUnicode:A Bella! (feat. Lucy)
Artist:M2U
ArtistUnicode:M2U
Creator:MaridiuS
Version:Hard
Source:하이파이브
Tags:HIGH5 DIVERSITY. UICY-15598 Drug Step SQUARE MUSIQ Original Soundtrack OST PNIX Games Pachiru Minorsonek M2Usonek Akareh
BeatmapID:1857444
BeatmapSetID:849369

[Difficulty]
HPDrainRate:5
CircleSize:4
OverallDifficulty:6
ApproachRate:7.2
SliderMultiplier:1.4
SliderTickRate:1

[Events]
//Background and Video events
0,0,"A Bella BG.jpg",0,0
//Break Periods
2,59555,63922
//Storyboard Layer 0 (Background)
//Storyboard Layer 1 (Fail)
//Storyboard Layer 2 (Pass)
//Storyboard Layer 3 (Foreground)
//Storyboard Sound Samples

[TimingPoints]
-270,375,4,2,1,80,1,0
1230,-100,4,2,1,80,0,0
12105,-100,4,2,1,70,0,0
12292,-100,4,2,1,70,0,0
12480,-100,4,2,1,70,0,0
12855,-100,4,2,1,70,0,0
13230,-100,4,2,1,70,0,0
17730,-100,4,2,1,70,0,0
19230,-100,4,2,1,70,0,0
22792,-100,4,2,1,70,0,0
23730,-100,4,2,1,70,0,0
28230,-100,4,2,1,70,0,0
29730,-100,4,2,1,70,0,0
33855,-100,4,2,1,70,0,0
34230,-100,4,2,1,70,0,0
34792,-100,4,2,1,70,0,0
35167,-100,4,2,1,70,0,0
35730,-83.3333333333333,4,2,1,85,0,1
37605,-83.3333333333333,4,2,1,85,0,1
38730,-83.3333333333333,4,2,1,85,0,1
39292,-83.3333333333333,4,2,1,85,0,1
41355,-83.3333333333333,4,2,1,85,0,1
41730,-83.3333333333333,4,2,1,85,0,1
44730,-83.3333333333333,4,2,1,85,0,1
46230,-83.3333333333333,4,2,1,85,0,1
46980,-100,4,2,1,85,0,0
47167,-100,4,2,1,85,0,0
47730,-83.3333333333333,4,2,1,85,0,1
49605,-83.3333333333333,4,2,1,85,0,1
50730,-83.3333333333333,4,2,1,85,0,1
51292,-83.3333333333333,4,2,1,85,0,1
52417,-83.3333333333333,4,2,1,85,0,1
52605,-83.3333333333333,4,2,1,85,0,1
52792,-83.3333333333333,4,2,1,85,0,1
52815,-83.3333333333333,4,2,1,45,0,1
53167,-83.3333333333333,4,2,1,85,0,1
53355,-83.3333333333333,4,2,1,85,0,1
53730,-83.3333333333333,4,2,1,85,0,1
56730,-83.3333333333333,4,2,1,85,0,1
58230,-83.3333333333333,4,2,1,85,0,1
59120,-83.3333333333333,4,2,1,5,0,1
59167,-83.3333333333333,4,2,1,85,0,1
59355,-83.3333333333333,4,2,1,85,0,1
59730,-100,4,2,1,70,0,0
65355,-100,4,2,1,70,0,0
68730,-100,4,2,1,70,0,0
69480,-100,4,2,1,70,0,0
70230,-100,4,2,1,70,0,0
74730,-100,4,2,1,70,0,0
76230,-100,4,2,1,70,0,0
80355,-100,4,2,1,70,0,0
80730,-100,4,2,1,70,0,0
81292,-100,4,2,1,70,0,0
81620,-100,4,2,1,70,0,0
82136,-100,4,2,1,70,0,0
82230,-83.3333333333333,4,2,1,85,0,1
84105,-83.3333333333333,4,2,1,85,0,1
85230,-83.3333333333333,4,2,1,85,0,1
85792,-83.3333333333333,4,2,1,85,0,1
86355,-83.3333333333333,4,2,1,85,0,1
86730,-100,4,2,1,70,0,0
87480,-100,4,2,1,70,0,0
87855,-100,4,2,1,70,0,0
88230,-83.3333333333333,4,2,1,85,0,1
91230,-83.3333333333333,4,2,1,85,0,1
92730,-83.3333333333333,4,2,1,85,0,1
93480,-83.3333333333333,4,2,1,85,0,1
93667,-100,4,2,1,85,0,0
94230,-83.3333333333333,4,2,1,85,0,1
96105,-83.3333333333333,4,2,1,85,0,1
97230,-83.3333333333333,4,2,1,85,0,1
97792,-83.3333333333333,4,2,1,85,0,1
98917,-83.3333333333333,4,2,1,85,0,1
99105,-83.3333333333333,4,2,1,85,0,1
99292,-83.3333333333333,4,2,1,85,0,1
99315,-83.3333333333333,4,2,1,45,0,1
99667,-83.3333333333333,4,2,1,85,0,1
99855,-83.3333333333333,4,2,1,85,0,1
100230,-83.3333333333333,4,2,1,85,0,1
103230,-83.3333333333333,4,2,1,85,0,1
104730,-83.3333333333333,4,2,1,85,0,1
105855,-83.3333333333333,4,2,1,85,0,1
106230,-100,4,2,1,65,0,0
116730,-83.3333333333333,4,2,1,80,0,0
117480,-100,4,2,1,80,0,0
117503,-100,4,2,1,50,0,0
117855,-100,4,2,1,5,0,0

[Colours]
Combo1 : 86,86,171
Combo2 : 250,5,225
Combo3 : 255,17,23
Combo4 : 153,0,255

[HitObjects]
108,96,855,6,0,L|182:93,1,70,2|2,0:0|0:0,0:0:0:0:
254,99,1230,2,0,L|286:161,1,70,4|0,3:0|0:0,0:0:0:0:
284,238,1605,1,8,0:0:0:0:
207,235,1792,2,0,P|173:293|203:366,1,140,2|8,3:0|0:0,0:0:0:0:
268,334,2355,1,0,3:0:0:0:
342,354,2542,1,8,0:0:0:0:
413,324,2730,6,0,L|427:243,1,70,2|0,3:0|0:0,0:0:0:0:
377,194,3105,1,8,0:0:0:0:
410,124,3292,2,0,L|365:-15,1,140,2|8,3:0|0:0,0:0:0:0:
294,16,3855,1,0,3:0:0:0:
217,17,4042,1,8,0:0:0:0:
253,85,4230,6,0,L|253:164,2,70,2|0|8,3:0|0:0|0:0,0:0:0:0:
172,103,4792,2,0,P|112:75|42:111,1,140,2|8,3:0|0:0,0:0:0:0:
9,170,5355,1,0,3:0:0:0:
31,250,5542,1,0,3:0:0:0:
31,250,5636,1,0,3:0:0:0:
31,250,5730,1,0,3:0:0:0:
95,286,5917,6,0,P|107:251|118:197,1,70,2|0,0:0|3:0,0:0:0:0:
204,226,6292,2,0,P|191:191|181:137,1,70,2|0,0:0|3:0,0:0:0:0:
256,108,6667,1,2,0:0:0:0:
256,108,6761,1,0,0:0:0:0:
256,108,6855,1,0,3:0:0:0:
332,104,7042,1,0,0:0:0:0:
408,116,7230,5,6,3:0:0:0:
386,189,7417,2,0,P|384:231|392:286,1,70,0|8,0:0|0:0,0:0:0:0:
485,281,7792,2,0,P|447:309|423:335,1,70,2|0,3:0|0:0,0:0:0:0:
353,325,8167,1,8,0:0:0:0:
283,358,8355,2,0,P|275:324|262:276,1,70,0|8,3:0|0:0,0:0:0:0:
189,290,8730,5,2,3:0:0:0:
153,221,8917,2,0,P|131:181|41:137,1,140,0|2,0:0|3:0,0:0:0:0:
188,69,9667,1,0,0:0:0:0:
232,131,9855,2,0,P|265:137|333:136,1,70,0|8,0:0|0:0,0:0:0:0:
372,108,10230,5,2,3:0:0:0:
374,184,10417,1,0,3:0:0:0:
406,254,10605,1,8,0:0:0:0:
408,330,10792,2,0,P|365:338|251:288,1,140,2|8,3:0|0:0,0:0:0:0:
199,293,11355,1,0,0:0:0:0:
123,306,11542,1,0,3:0:0:0:
123,306,11636,1,0,3:0:0:0:
123,306,11730,6,0,L|110:203,1,70,0|2,3:0|0:0,0:0:0:0:
83,165,12105,2,0,L|106:87,2,70,10|10|10,0:0|0:0|0:0,0:0:0:0:
83,165,12855,1,12,0:0:0:0:
229,117,13230,6,0,P|294:96|376:128,1,140,6|8,3:0|0:0,0:0:0:0:
359,192,13792,2,0,P|293:212|212:181,1,140,2|0,3:0|0:0,0:0:0:0:
158,157,14355,2,0,L|74:158,1,70,0|10,3:0|0:0,0:0:0:0:
112,231,14730,5,2,3:0:0:0:
71,300,14917,2,0,L|125:353,1,70,2|8,0:0|0:0,0:0:0:0:
171,291,15292,2,0,L|328:300,1,140,2|2,3:0|0:0,0:0:0:0:
371,250,15855,2,0,L|424:324,1,70,0|8,3:0|0:0,0:0:0:0:
472,258,16230,5,2,3:0:0:0:
468,181,16417,1,2,0:0:0:0:
463,103,16605,1,8,0:0:0:0:
387,116,16792,2,0,B|326:128|326:128|222:111,1,140,2|0,3:0|0:0,0:0:0:0:
186,66,17355,2,0,L|162:161,1,70,2|10,3:0|0:0,0:0:0:0:
90,167,17730,5,2,3:0:0:0:
15,146,17917,1,0,0:0:0:0:
15,146,18011,1,0,0:0:0:0:
15,146,18105,1,2,3:0:0:0:
30,221,18292,2,0,L|40:268,4,35,2|2|2|2|2,0:0|0:0|3:0|0:0|0:0,0:0:0:0:
107,228,18855,2,0,P|143:231|200:225,1,70,0|8,3:0|0:0,0:0:0:0:
239,162,19230,6,0,P|306:142|379:165,1,140,2|8,3:0|0:0,0:0:0:0:
447,145,19792,2,0,P|448:200|497:273,1,140,2|0,3:0|0:0,0:0:0:0:
426,307,20355,2,0,L|345:303,1,70,0|8,3:0|0:0,0:0:0:0:
296,254,20730,1,2,3:0:0:0:
222,277,20917,2,0,L|138:283,1,70,0|8,0:0|0:0,0:0:0:0:
179,195,21292,2,0,P|183:134|170:42,1,140,2|0,3:0|0:0,0:0:0:0:
100,87,21855,2,0,P|78:92|16:86,1,70,0|10,3:0|0:0,0:0:0:0:
68,169,22230,5,2,3:0:0:0:
16,235,22417,2,0,L|99:251,1,70,2|8,3:0|0:0,0:0:0:0:
196,208,22792,6,0,L|229:305,1,70,2|0,3:0|0:0,0:0:0:0:
297,345,23167,1,10,0:0:0:0:
366,261,23355,2,0,L|399:164,1,70,2|0,3:0|0:0,0:0:0:0:
385,117,23730,5,6,3:0:0:0:
385,117,24105,1,0,3:0:0:0:
308,114,24292,1,2,0:0:0:0:
162,64,24667,1,2,0:0:0:0:
179,142,24855,1,2,3:0:0:0:
179,142,25230,5,2,3:0:0:0:
112,281,25605,1,0,3:0:0:0:
122,352,25792,1,2,0:0:0:0:
275,336,26167,1,2,0:0:0:0:
291,260,26355,2,0,L|276:107,1,140,2|2,3:0|3:0,0:0:0:0:
255,47,26917,1,2,0:0:0:0:
329,67,27105,1,0,3:0:0:0:
394,26,27292,1,2,0:0:0:0:
394,26,27667,1,8,0:0:0:0:
402,102,27855,1,2,3:0:0:0:
314,228,28230,6,0,L|302:138,2,70,2|10|10,3:0|0:0|0:0,0:0:0:0:
291,301,28792,1,0,3:0:0:0:
291,301,29167,1,2,0:3:0:0:
214,294,29355,1,2,3:0:0:0:
196,140,29730,5,6,3:0:0:0:
196,140,30105,1,0,3:0:0:0:
162,70,30292,1,2,0:0:0:0:
311,106,30667,1,2,0:0:0:0:
292,180,30855,1,2,3:0:0:0:
325,330,31230,5,2,3:0:0:0:
325,330,31605,1,0,3:0:0:0:
401,326,31792,1,2,0:0:0:0:
242,250,32167,1,2,0:0:0:0:
319,249,32355,2,0,P|325:216|316:99,1,140,2|2,3:0|3:0,0:0:0:0:
244,129,32917,1,2,0:0:0:0:
171,154,33105,1,0,3:0:0:0:
98,129,33292,1,2,0:0:0:0:
98,129,33667,1,10,0:0:0:0:
46,186,33855,1,2,3:0:0:0:
147,343,34230,6,0,L|136:255,1,70,2|10,3:0|0:0,0:0:0:0:
238,278,34605,1,10,0:0:0:0:
316,329,34792,1,0,3:0:0:0:
316,329,35167,2,0,L|343:177,1,140,6|0,3:0|0:0,0:0:0:0:
360,111,35730,6,0,P|316:101|256:117,1,83.9999974365235,2|0,3:0|0:0,0:0:0:0:
190,77,36105,1,8,0:0:0:0:
108,119,36292,2,0,P|64:129|4:113,1,83.9999974365235,2|0,3:0|0:0,0:0:0:0:
60,209,36667,1,8,0:0:0:0:
147,239,36855,2,0,P|121:270|100:324,1,83.9999974365235,2|10,3:0|0:0,0:0:0:0:
193,331,37230,5,2,3:0:0:0:
193,331,37417,1,2,0:0:0:0:
264,308,37605,2,0,L|280:353,2,41.9999987182618,10|2|2,0:0|0:0|3:0,0:0:0:0:
278,216,37980,1,2,0:0:0:0:
280,207,38073,2,0,L|268:114,1,83.9999974365235,2|2,0:0|0:0,0:0:0:0:
271,76,38355,1,2,3:0:0:0:
361,93,38542,1,8,0:0:0:0:
452,76,38730,6,0,P|455:120|470:185,1,83.9999974365235,2|0,3:0|0:0,0:0:0:0:
374,186,39105,1,10,0:0:0:0:
288,221,39292,2,0,P|284:265|270:330,1,83.9999974365235,2|0,3:0|0:0,0:0:0:0:
185,315,39667,1,8,0:0:0:0:
113,255,39855,2,0,L|21:262,1,83.9999974365235,2|10,3:0|0:0,0:0:0:0:
53,171,40230,5,2,3:0:0:0:
112,100,40417,2,0,L|78:10,1,83.9999974365235,2|8,0:0|0:0,0:0:0:0:
174,23,40792,2,0,L|238:32,4,41.9999987182618,2|2|0|0|8,0:0|0:0|3:0|0:0|0:0,0:0:0:0:
297,17,41355,1,6,3:0:0:0:
220,185,41730,5,2,3:0:0:0:
288,123,41917,1,2,3:0:0:0:
351,190,42105,1,8,0:0:0:0:
433,148,42292,2,0,P|443:186|361:283,1,167.999994873047,2|8,3:0|0:0,0:0:0:0:
287,242,42855,1,2,3:0:0:0:
206,286,43042,1,10,3:2:0:0:
117,257,43230,2,0,L|106:63,1,167.999994873047,2|10,3:0|0:0,0:0:0:0:
202,133,43792,2,0,P|279:149|385:119,1,167.999994873047,2|10,3:0|0:0,0:0:0:0:
304,59,44355,1,2,3:0:0:0:
387,20,44542,1,10,3:2:0:0:
438,96,44730,6,0,L|434:208,2,83.9999974365235,2|0|10,3:0|3:0|0:0,0:0:0:0:
351,127,45292,2,0,L|180:152,1,167.999994873047,2|10,3:0|0:0,0:0:0:0:
96,123,45855,2,0,L|11:179,1,83.9999974365235,2|0,3:0|0:0,0:0:0:0:
79,244,46230,5,2,3:0:0:0:
170,237,46417,1,2,3:0:0:0:
261,253,46605,1,2,3:0:0:0:
351,234,46792,2,0,L|441:245,1,83.9999974365235,10|2,0:0|3:0,0:0:0:0:
468,157,47167,5,2,0:0:0:0:
475,108,47355,1,2,0:0:0:0:
481,59,47542,1,2,0:0:0:0:
401,65,47730,6,0,P|360:69|282:66,1,83.9999974365235,2|0,3:0|0:0,0:0:0:0:
237,116,48105,1,8,0:0:0:0:
189,194,48292,2,0,P|229:198|308:195,1,83.9999974365235,2|0,3:0|0:0,0:0:0:0:
365,205,48667,1,8,0:0:0:0:
323,288,48855,2,0,P|329:343|337:384,1,83.9999974365235,2|10,3:0|0:0,0:0:0:0:
245,344,49230,5,2,3:0:0:0:
245,344,49417,1,2,0:0:0:0:
168,349,49605,2,0,L|126:333,2,41.9999987182618,10|2|2,0:0|0:0|3:0,0:0:0:0:
179,251,49980,1,2,0:0:0:0:
182,237,50073,2,0,L|176:146,1,70,2|0,0:0|0:0,0:0:0:0:
174,128,50355,1,2,3:0:0:0:
172,35,50542,1,8,0:0:0:0:
249,67,50730,6,0,L|364:49,1,83.9999974365235,2|0,3:0|0:0,0:0:0:0:
384,130,51105,1,8,0:0:0:0:
384,222,51292,2,0,L|499:240,1,83.9999974365235,2|0,3:0|0:0,0:0:0:0:
366,306,51667,1,8,0:0:0:0:
273,300,51855,2,0,L|242:217,1,83.9999974365235,2|10,3:0|0:0,0:0:0:0:
150,221,52230,6,0,P|128:183|86:140,1,83.9999974365235,2|2,3:0|3:0,0:0:0:0:
53,73,52605,1,10,0:0:0:0:
144,87,52792,1,10,0:0:0:0:
144,87,53167,1,8,0:0:0:0:
231,55,53355,1,6,3:0:0:0:
394,141,53730,5,6,3:0:0:0:
332,209,53917,1,2,3:0:0:0:
399,272,54105,1,10,0:0:0:0:
357,354,54292,2,0,B|313:366|313:366|188:333,1,167.999994873047,2|8,3:0|0:0,0:0:0:0:
211,243,54855,1,2,3:0:0:0:
150,173,55042,1,10,3:2:0:0:
161,81,55230,2,0,L|120:-7,1,83.9999974365235,2|0,3:0|3:0,0:0:0:0:
67,76,55605,1,10,0:0:0:0:
56,167,55792,2,0,P|67:204|36:341,1,167.999994873047,2|8,3:0|0:0,0:0:0:0:
135,309,56355,1,2,3:0:0:0:
222,336,56542,1,10,3:2:0:0:
302,289,56730,6,0,L|402:316,1,83.9999974365235,2|0,3:0|3:0,0:0:0:0:
369,219,57105,1,10,0:0:0:0:
448,172,57292,2,0,L|504:94,1,83.9999974365235,2|0,3:0|0:0,0:0:0:0:
405,90,57667,1,10,0:0:0:0:
324,44,57855,2,0,L|207:55,1,83.9999974365235,2|0,3:0|0:0,0:0:0:0:
148,40,58230,5,2,3:0:0:0:
99,118,58417,1,2,3:0:0:0:
118,208,58605,1,10,0:0:0:0:
97,297,58792,1,2,3:0:0:0:
141,378,58980,1,2,3:0:0:0:
267,243,59355,1,12,0:0:0:0:
316,110,64792,6,0,L|321:187,2,70,0|2|8,3:0|0:0|0:0,0:0:0:0:
309,32,65355,1,12,0:0:0:0:
180,117,65730,6,0,L|103:112,1,70,6|2,3:0|0:0,0:0:0:0:
35,130,66105,1,8,0:0:0:0:
65,200,66292,2,0,L|66:295,1,70,2|0,3:0|0:0,0:0:0:0:
53,346,66667,1,2,0:0:0:0:
130,341,66855,2,0,L|227:339,1,70,2|8,3:0|0:0,0:0:0:0:
272,365,67230,1,2,3:0:0:0:
382,257,67605,5,8,0:0:0:0:
369,181,67792,1,2,3:0:0:0:
258,73,68167,1,2,0:0:0:0:
252,149,68355,1,2,3:0:0:0:
106,199,68730,5,6,3:0:0:0:
174,251,68917,1,2,0:0:0:0:
174,251,69011,1,0,0:0:0:0:
174,251,69105,1,10,0:0:0:0:
123,308,69292,1,2,0:0:0:0:
184,354,69480,5,12,0:0:0:0:
337,356,69855,1,12,0:0:0:0:
371,205,70230,5,6,3:0:0:0:
371,205,70605,1,0,3:0:0:0:
346,132,70792,1,2,0:0:0:0:
201,185,71167,1,2,0:0:0:0:
124,175,71355,1,2,3:0:0:0:
53,37,71730,5,2,3:0:0:0:
53,37,72105,1,0,3:0:0:0:
129,36,72292,1,2,0:0:0:0:
277,76,72667,1,2,0:0:0:0:
354,76,72855,2,0,L|389:219,1,140,2|2,3:0|3:0,0:0:0:0:
429,275,73417,1,2,0:0:0:0:
356,301,73605,1,0,3:0:0:0:
285,271,73792,1,2,0:0:0:0:
285,271,74167,1,8,0:0:0:0:
208,277,74355,1,2,3:0:0:0:
300,167,74730,6,0,L|297:68,2,70,2|10|10,3:0|0:0|0:0,0:0:0:0:
303,243,75292,1,2,3:0:0:0:
303,243,75667,1,2,0:0:0:0:
229,219,75855,1,12,0:0:0:0:
76,238,76230,5,6,3:0:0:0:
76,238,76605,1,0,3:0:0:0:
58,163,76792,1,2,0:0:0:0:
188,244,77167,1,2,0:0:0:0:
264,253,77355,1,2,3:0:0:0:
407,196,77730,5,2,3:0:0:0:
407,196,78105,1,0,3:0:0:0:
405,272,78292,1,2,0:0:0:0:
322,141,78667,1,2,0:0:0:0:
320,217,78855,2,0,L|165:237,1,140,2|2,3:0|3:0,0:0:0:0:
112,200,79417,1,2,0:0:0:0:
170,149,79605,1,0,3:0:0:0:
121,89,79792,1,2,0:0:0:0:
121,89,80167,1,8,0:0:0:0:
184,44,80355,1,2,3:0:0:0:
334,78,80730,6,0,L|331:164,1,70,2|10,3:0|0:0,0:0:0:0:
321,245,81105,1,10,0:0:0:0:
412,197,81292,1,2,3:0:0:0:
412,197,81667,2,0,L|392:345,1,140,6|0,3:0|0:0,0:0:0:0:
301,325,82230,6,0,P|247:319|192:293,1,83.9999974365235,2|0,3:0|0:0,0:0:0:0:
178,225,82605,1,8,0:0:0:0:
87,209,82792,2,0,P|70:167|69:107,1,83.9999974365235,2|0,3:0|0:0,0:0:0:0:
131,62,83167,1,8,0:0:0:0:
221,82,83355,2,0,P|255:103|316:111,1,83.9999974365235,2|10,3:0|0:0,0:0:0:0:
390,108,83730,5,2,3:0:0:0:
390,108,83917,1,2,0:0:0:0:
409,198,84105,2,0,L|427:254,2,41.9999987182618,10|2|2,0:0|0:0|3:0,0:0:0:0:
316,191,84480,1,2,0:0:0:0:
301,196,84573,2,0,L|208:192,1,83.9999974365235,2|2,0:0|0:0,0:0:0:0:
170,199,84855,1,2,3:0:0:0:
83,232,85042,1,8,0:0:0:0:
30,155,85230,6,0,L|34:47,1,83.9999974365235,2|0,3:0|0:0,0:0:0:0:
122,95,85605,1,8,0:0:0:0:
213,86,85792,2,0,L|300:43,1,83.9999974365235,2|0,3:0|0:0,0:0:0:0:
349,117,86167,6,0,P|339:157|336:218,2,83.9999974365235,8|2|2,0:0|0:0|0:0,0:0:0:0:
406,60,86730,1,2,0:0:0:0:
424,212,87105,2,0,P|426:255|433:289,1,70,2|2,0:0|0:0,0:0:0:0:
385,343,87480,1,0,3:0:0:0:
385,343,87855,1,8,0:0:0:0:
250,267,88230,5,2,3:0:0:0:
186,200,88417,1,2,3:0:0:0:
106,247,88605,1,10,0:0:0:0:
49,174,88792,2,0,B|39:125|39:125|74:2,1,167.999994873047,2|8,3:0|0:0,0:0:0:0:
138,76,89355,1,2,3:0:0:0:
225,47,89542,1,10,3:2:0:0:
316,64,89730,2,0,B|309:115|309:115|340:252,1,167.999994873047,2|10,3:0|0:0,0:0:0:0:
436,205,90292,2,0,L|418:382,1,167.999994873047,2|10,3:0|0:0,0:0:0:0:
336,329,90855,1,2,3:0:0:0:
245,347,91042,1,10,3:2:0:0:
176,284,91230,6,0,L|163:189,2,83.9999974365235,2|0|10,3:0|3:0|0:0,0:0:0:0:
99,335,91792,1,2,3:0:0:0:
99,335,92167,1,10,0:0:0:0:
87,243,92355,1,2,3:0:0:0:
127,62,92730,5,2,3:0:0:0:
219,59,92917,1,2,3:0:0:0:
266,138,93105,1,10,0:0:0:0:
358,136,93292,1,2,3:0:0:0:
428,195,93480,1,2,3:0:0:0:
431,278,93667,2,0,L|431:330,4,35,10|0|2|2|2,0:0|0:0|0:0|0:0|0:0,0:0:0:0:
338,271,94230,6,0,P|295:272|239:259,1,83.9999974365235,2|0,3:0|0:0,0:0:0:0:
265,172,94605,1,8,0:0:0:0:
173,182,94792,2,0,P|139:155|104:109,1,83.9999974365235,2|0,3:0|0:0,0:0:0:0:
189,70,95167,1,8,0:0:0:0:
279,89,95355,1,2,3:0:0:0:
367,64,95542,1,10,0:0:0:0:
457,85,95730,1,2,3:0:0:0:
457,85,95917,1,2,0:0:0:0:
430,173,96105,6,0,L|430:228,2,41.9999987182618,10|2|2,0:0|0:0|3:0,0:0:0:0:
348,216,96480,1,2,0:0:0:0:
337,226,96573,2,0,L|235:236,1,83.9999974365235,2|2,0:0|0:0,0:0:0:0:
209,216,96855,1,2,3:0:0:0:
122,246,97042,1,8,0:0:0:0:
33,220,97230,6,0,L|26:319,1,83.9999974365235,2|0,3:0|0:0,0:0:0:0:
102,358,97605,1,8,0:0:0:0:
191,336,97792,2,0,L|292:326,1,83.9999974365235,2|0,3:0|0:0,0:0:0:0:
354,281,98167,1,8,0:0:0:0:
319,195,98355,2,0,L|331:104,1,83.9999974365235,2|10,3:0|0:0,0:0:0:0:
397,48,98730,5,2,3:0:0:0:
310,15,98917,1,2,3:0:0:0:
231,64,99105,1,10,0:0:0:0:
142,38,99292,1,2,0:0:0:0:
142,38,99667,1,8,3:0:0:0:
224,80,99855,1,6,3:0:0:0:
163,254,100230,5,2,3:0:0:0:
220,181,100417,1,2,3:0:0:0:
260,264,100605,1,10,0:0:0:0:
318,192,100792,2,0,L|494:153,1,167.999994873047,2|8,3:0|0:0,0:0:0:0:
433,76,101355,1,2,3:0:0:0:
347,42,101542,1,10,3:2:0:0:
282,108,101730,2,0,L|184:103,1,83.9999974365235,2|0,3:0|3:0,0:0:0:0:
113,66,102105,1,10,0:0:0:0:
39,121,102292,2,0,L|58:311,1,167.999994873047,2|8,3:0|0:0,0:0:0:0:
129,232,102855,1,2,3:0:0:0:
209,276,103042,1,10,3:2:0:0:
296,206,103230,5,2,3:0:0:0:
352,278,103417,1,0,3:0:0:0:
388,192,103605,1,10,0:0:0:0:
331,118,103792,1,2,3:0:0:0:
331,118,104167,1,8,0:0:0:0:
318,29,104355,1,2,3:0:0:0:
121,36,104730,5,2,3:0:0:0:
165,116,104917,1,2,3:0:0:0:
142,205,105105,1,10,0:0:0:0:
172,291,105292,1,2,3:0:0:0:
169,383,105480,1,2,3:0:0:0:
263,224,105855,1,12,0:0:0:0:
414,250,106230,6,0,P|430:180|403:98,1,140,0|8,0:0|0:0,0:0:0:0:
337,66,106792,1,0,0:0:0:0:
337,66,106980,2,0,P|264:51|189:69,1,140,2|10,0:0|0:0,0:0:0:0:
93,174,107730,2,0,P|122:184|173:165,1,70,2|0,0:0|0:0,0:0:0:0:
232,151,108105,1,10,0:0:0:0:
307,163,108292,1,10,0:0:0:0:
379,137,108480,2,0,P|395:207|365:294,1,140,2|8,0:0|0:0,0:0:0:0:
231,318,109230,6,0,P|159:312|83:266,1,140,2|10,0:0|0:0,0:0:0:0:
129,209,109792,1,0,0:0:0:0:
129,209,109980,2,0,P|106:147|101:45,1,140,2|2,0:0|0:0,0:0:0:0:
245,28,110730,1,2,0:0:0:0:
320,245,111292,5,0,0:0:0:0:
336,169,111480,1,10,0:0:0:0:
299,318,111855,1,6,0:0:0:0:
148,284,112230,6,0,L|119:120,1,140,0|10,0:0|0:0,0:0:0:0:
267,199,112980,2,0,L|300:36,1,140,2|10,0:0|0:0,0:0:0:0:
397,176,113730,2,0,L|442:335,1,140,2|10,0:0|0:0,0:0:0:0:
358,306,114292,1,10,0:0:0:0:
288,340,114480,2,0,L|134:318,1,140,2|8,0:0|0:0,0:0:0:0:
31,221,115230,1,2,0:0:0:0:
147,120,115605,6,0,L|139:26,1,70,10|8,0:0|0:0,0:0:0:0:
218,55,115980,2,0,L|288:25,1,70,10|8,0:0|0:0,0:0:0:0:
334,84,116355,2,0,L|318:177,1,70,10|8,0:0|0:0,0:0:0:0:
368,229,116730,6,0,B|300:224|300:224|225:237,1,125.999996154785,2|0,3:0|0:0,0:0:0:0:
202,255,117105,2,0,B|134:260|134:260|59:247,1,125.999996154785,2|0,3:0|0:0,0:0:0:0:
45,217,117480,2,0,B|24:122|24:122|33:104,1,105,14|0,0:0|3:0,0:0:0:0:
