osu file format v14

[General]
AudioFilename: audio.mp3
AudioLeadIn: 0
PreviewTime: 37506
Countdown: 1
SampleSet: None
StackLeniency: 0.7
Mode: 1
LetterboxInBreaks: 0
WidescreenStoryboard: 1

[Editor]
DistanceSpacing: 1.9
BeatDivisor: 4
GridSize: 16
TimelineZoom: 1.4

[Metadata]
Title:A Bella! (feat. Lucy)
TitleUnicode:A Bella! (feat. Lucy)
Artist:M2U
ArtistUnicode:M2U
Creator:Jorkseljund
Version:Oni
Source:
Tags:
BeatmapID:1853302
BeatmapSetID:886031

[Difficulty]
HPDrainRate:6
CircleSize:5
OverallDifficulty:6
ApproachRate:5
SliderMultiplier:1.4
SliderTickRate:1

[Events]
//Background and Video events
0,0,"DSC100082879.jpg",0,0
//Break Periods
//Storyboard Layer 0 (Background)
//Storyboard Layer 1 (Fail)
//Storyboard Layer 2 (Pass)
//Storyboard Layer 3 (Foreground)
//Storyboard Sound Samples

[TimingPoints]
3006,375,4,1,0,100,1,0
30943,-58.8235294117647,4,1,0,100,0,0
31506,-100,4,1,0,100,0,0
37506,-83.3333333333333,4,1,0,100,0,1
48756,-100,4,1,0,100,0,0
49506,-83.3333333333333,4,1,0,100,0,1
61506,-100,4,1,0,100,0,0
67693,-90.9090909090909,4,1,0,100,0,0
72193,-90.9090909090909,4,1,0,100,0,0
77443,-58.8235294117647,4,1,0,100,0,0
78006,-90.9090909090909,4,1,0,100,0,0
84006,-83.3333333333333,4,1,0,100,0,1
88506,-83.3333333333333,4,1,0,100,0,0
88787,-100,4,1,0,100,0,0
90006,-83.3333333333333,4,1,0,100,0,1
95256,-100,4,1,0,100,0,0
96006,-83.3333333333333,4,1,0,100,0,1
100506,-100,4,1,0,100,0,0
102006,-83.3333333333333,4,1,0,100,0,1
108006,-83.3333333333333,4,1,0,100,0,0
108099,-100,4,1,0,100,0,0

[HitObjects]
201,135,3006,5,12,0:0:0:0:
332,151,3193,1,0,0:0:0:0:
464,167,3381,1,0,0:0:0:0:
332,151,3568,1,8,0:0:0:0:
93,32,3943,1,0,0:0:0:0:
212,91,4131,1,8,0:0:0:0:
212,91,4318,1,0,0:0:0:0:
345,97,4506,1,8,0:0:0:0:
345,97,4693,1,0,0:0:0:0:
345,97,4881,1,0,0:0:0:0:
345,97,5068,1,8,0:0:0:0:
83,148,5443,1,0,0:0:0:0:
213,122,5631,1,8,0:0:0:0:
83,151,5818,1,0,0:0:0:0:
213,122,6006,1,8,0:0:0:0:
316,204,6193,1,8,0:0:0:0:
316,204,6381,1,0,0:0:0:0:
316,204,6568,1,8,0:0:0:0:
77,87,6943,1,0,0:0:0:0:
196,145,7131,1,8,0:0:0:0:
196,145,7318,1,0,0:0:0:0:
328,130,7506,1,8,0:0:0:0:
393,125,7599,1,0,0:0:0:0:
326,130,7693,1,0,0:0:0:0:
392,125,7787,1,0,0:0:0:0:
325,130,7881,1,8,0:0:0:0:
193,113,8068,1,8,0:0:0:0:
280,213,8256,1,0,0:0:0:0:
324,261,8349,1,0,0:0:0:0:
278,212,8443,1,8,0:0:0:0:
168,135,8631,1,8,0:0:0:0:
57,61,8818,1,0,0:0:0:0:
189,79,9006,1,8,0:0:0:0:
320,96,9193,1,0,0:0:0:0:
320,96,9381,1,0,0:0:0:0:
320,96,9568,1,8,0:0:0:0:
60,156,9943,1,8,0:0:0:0:
113,115,10037,1,0,0:0:0:0:
189,126,10131,1,8,0:0:0:0:
318,98,10318,1,0,0:0:0:0:
282,226,10506,1,8,0:0:0:0:
282,226,10693,1,8,0:0:0:0:
282,226,10881,1,0,0:0:0:0:
282,226,11068,1,8,0:0:0:0:
252,78,11443,1,8,0:0:0:0:
252,78,11631,1,0,0:0:0:0:
252,78,11818,1,0,0:0:0:0:
156,171,12006,1,8,0:0:0:0:
156,171,12193,1,0,0:0:0:0:
156,171,12381,1,0,0:0:0:0:
156,171,12568,1,8,0:0:0:0:
389,44,12943,1,0,0:0:0:0:
272,108,13131,1,8,0:0:0:0:
388,45,13318,1,0,0:0:0:0:
256,67,13506,1,0,0:0:0:0:
125,89,13693,1,8,0:0:0:0:
256,67,13881,1,4,0:0:0:0:
125,89,14068,1,4,0:0:0:0:
256,67,14256,1,12,0:0:0:0:
453,245,14631,1,0,0:0:0:0:
255,66,15006,1,4,0:0:0:0:
165,316,15381,1,8,0:0:0:0:
217,194,15568,1,0,0:0:0:0:
25,9,15943,1,0,0:0:0:0:
73,55,16037,1,0,0:0:0:0:
120,101,16131,1,8,0:0:0:0:
251,120,16318,1,8,0:0:0:0:
382,141,16506,1,0,0:0:0:0:
128,59,16881,1,8,0:0:0:0:
253,100,17068,1,0,0:0:0:0:
185,78,17443,1,8,0:0:0:0:
400,210,18006,1,0,0:0:0:0:
334,205,18099,1,0,0:0:0:0:
400,210,18193,1,0,0:0:0:0:
400,210,18381,1,8,0:0:0:0:
400,210,18568,1,0,0:0:0:0:
203,31,18943,1,0,0:0:0:0:
252,75,19037,1,0,0:0:0:0:
301,120,19131,1,8,0:0:0:0:
398,209,19318,1,8,0:0:0:0:
267,180,19506,1,8,0:0:0:0:
202,165,19599,1,8,0:0:0:0:
136,151,19693,1,0,0:0:0:0:
136,151,19787,1,0,0:0:0:0:
136,151,19881,1,8,0:0:0:0:
262,110,20068,1,8,0:0:0:0:
325,90,20162,1,0,0:0:0:0:
325,90,20256,1,0,0:0:0:0:
367,39,20349,1,0,0:0:0:0:
325,90,20443,1,8,0:0:0:0:
273,212,20631,1,8,0:0:0:0:
248,273,20724,1,0,0:0:0:0:
273,211,20818,1,0,0:0:0:0:
156,145,21006,1,8,0:0:0:0:
387,13,21381,1,0,0:0:0:0:
271,78,21568,1,8,0:0:0:0:
13,146,21943,1,8,0:0:0:0:
77,129,22037,1,0,0:0:0:0:
141,112,22131,1,0,0:0:0:0:
254,181,22318,1,0,0:0:0:0:
254,181,22506,1,8,0:0:0:0:
254,181,22599,1,8,0:0:0:0:
254,181,22693,1,0,0:0:0:0:
207,56,22881,1,0,0:0:0:0:
254,179,23068,1,8,0:0:0:0:
0,98,23443,1,0,0:0:0:0:
63,118,23537,1,0,0:0:0:0:
126,138,23631,1,8,0:0:0:0:
258,138,23818,1,0,0:0:0:0:
384,96,24006,1,8,0:0:0:0:
384,96,24099,1,0,0:0:0:0:
384,96,24193,1,0,0:0:0:0:
319,80,24287,1,0,0:0:0:0:
254,64,24381,1,8,0:0:0:0:
135,124,24568,1,8,0:0:0:0:
194,94,24662,1,8,0:0:0:0:
254,65,24756,1,0,0:0:0:0:
194,93,24849,1,0,0:0:0:0:
255,66,24943,1,8,0:0:0:0:
343,165,25131,1,8,0:0:0:0:
299,115,25224,1,8,0:0:0:0:
343,165,25318,1,0,0:0:0:0:
211,186,25506,1,8,0:0:0:0:
201,53,25693,1,0,0:0:0:0:
201,53,25881,1,0,0:0:0:0:
201,53,26068,1,8,0:0:0:0:
305,136,26443,1,0,0:0:0:0:
305,136,26536,1,0,0:0:0:0:
244,108,26630,1,8,0:0:0:0:
126,170,26818,1,0,0:0:0:0:
76,46,27006,1,8,0:0:0:0:
100,107,27099,1,0,0:0:0:0:
100,107,27193,1,0,0:0:0:0:
166,113,27287,1,0,0:0:0:0:
229,77,27381,1,8,0:0:0:0:
228,77,27568,1,8,0:0:0:0:
227,77,27756,1,0,0:0:0:0:
145,181,27943,1,0,0:0:0:0:
200,144,28037,1,0,0:0:0:0:
65,288,28131,1,8,0:0:0:0:
113,26,28506,1,0,0:0:0:0:
436,142,28693,1,8,0:0:0:0:
374,166,28787,1,0,0:0:0:0:
374,166,28881,1,8,0:0:0:0:
258,101,29068,1,8,0:0:0:0:
141,36,29256,1,8,0:0:0:0:
141,36,29349,1,8,0:0:0:0:
141,36,29443,1,0,0:0:0:0:
141,36,29537,1,0,0:0:0:0:
141,36,29631,1,8,0:0:0:0:
238,125,29818,1,0,0:0:0:0:
336,215,30006,1,8,0:0:0:0:
237,125,30193,1,0,0:0:0:0:
335,214,30381,1,0,0:0:0:0:
236,124,30568,1,8,0:0:0:0:
255,71,30943,1,12,0:0:0:0:
255,71,31131,1,12,0:0:0:0:
155,317,31506,1,8,0:0:0:0:
180,256,31599,1,0,0:0:0:0:
180,256,31693,1,0,0:0:0:0:
180,256,31787,1,0,0:0:0:0:
180,256,31881,1,8,0:0:0:0:
172,123,32068,1,8,0:0:0:0:
172,123,32162,1,8,0:0:0:0:
172,123,32256,1,0,0:0:0:0:
172,123,32349,1,0,0:0:0:0:
172,123,32443,1,8,0:0:0:0:
304,105,32631,1,8,0:0:0:0:
238,114,32724,1,0,0:0:0:0:
304,105,32818,1,0,0:0:0:0:
191,33,33006,1,8,0:0:0:0:
246,68,33099,1,0,0:0:0:0:
190,31,33193,1,8,0:0:0:0:
275,133,33381,1,0,0:0:0:0:
359,234,33568,1,8,0:0:0:0:
401,284,33662,1,8,0:0:0:0:
358,232,33756,1,0,0:0:0:0:
227,254,33943,1,0,0:0:0:0:
96,279,34131,1,8,0:0:0:0:
178,175,34318,1,0,0:0:0:0:
261,70,34506,1,0,0:0:0:0:
181,176,34693,1,0,0:0:0:0:
221,122,34787,1,0,0:0:0:0:
262,69,34881,1,8,0:0:0:0:
338,177,35068,1,0,0:0:0:0:
377,231,35162,1,0,0:0:0:0:
377,231,35256,1,0,0:0:0:0:
377,231,35443,1,0,0:0:0:0:
259,168,35631,1,8,0:0:0:0:
285,107,35724,1,8,0:0:0:0:
141,106,35818,1,0,0:0:0:0:
61,212,36006,1,8,0:0:0:0:
192,225,36193,1,8,0:0:0:0:
324,242,36381,1,0,0:0:0:0:
192,225,36568,1,12,0:0:0:0:
324,242,36943,1,12,0:0:0:0:
163,106,37506,1,4,0:0:0:0:
312,161,37693,1,8,0:0:0:0:
236,133,37787,1,0,0:0:0:0:
236,133,37881,1,0,0:0:0:0:
291,77,37974,1,0,0:0:0:0:
348,21,38068,1,8,0:0:0:0:
305,90,38256,1,0,0:0:0:0:
273,163,38443,1,8,0:0:0:0:
119,135,38537,1,8,0:0:0:0:
242,237,38631,1,0,0:0:0:0:
172,38,38818,1,0,0:0:0:0:
332,35,39006,1,8,0:0:0:0:
252,36,39099,1,0,0:0:0:0:
252,36,39193,1,8,0:0:0:0:
174,176,39381,1,8,0:0:0:0:
174,177,39568,1,8,0:0:0:0:
213,107,39662,1,8,0:0:0:0:
133,95,39756,1,0,0:0:0:0:
213,108,39849,1,0,0:0:0:0:
173,177,39943,1,8,0:0:0:0:
330,148,40131,1,8,0:0:0:0:
288,80,40318,1,0,0:0:0:0:
128,67,40506,1,8,0:0:0:0:
206,73,40599,1,0,0:0:0:0:
206,73,40693,1,0,0:0:0:0:
206,73,40881,1,0,0:0:0:0:
206,73,41068,1,8,0:0:0:0:
206,73,41162,1,0,0:0:0:0:
206,73,41256,1,0,0:0:0:0:
364,60,41443,1,8,0:0:0:0:
284,66,41537,1,8,0:0:0:0:
284,66,41631,1,0,0:0:0:0:
284,66,41724,1,0,0:0:0:0:
275,145,41818,1,8,0:0:0:0:
119,183,42006,1,8,0:0:0:0:
119,183,42099,1,0,0:0:0:0:
119,183,42193,1,8,0:0:0:0:
165,29,42381,1,0,0:0:0:0:
119,181,42568,1,8,0:0:0:0:
142,104,42662,1,8,0:0:0:0:
142,104,42756,1,0,0:0:0:0:
291,158,42943,1,8,0:0:0:0:
140,102,43131,1,0,0:0:0:0:
435,223,43506,1,8,0:0:0:0:
287,162,43693,1,8,0:0:0:0:
138,101,43881,1,0,0:0:0:0:
284,162,44068,1,8,0:0:0:0:
148,77,44256,1,0,0:0:0:0:
215,119,44349,1,0,0:0:0:0:
147,76,44443,1,8,0:0:0:0:
306,89,44631,1,8,0:0:0:0:
147,76,44724,1,8,0:0:0:0:
147,76,44818,1,0,0:0:0:0:
147,76,45006,1,8,0:0:0:0:
222,53,45099,1,0,0:0:0:0:
298,30,45193,1,8,0:0:0:0:
373,171,45381,1,0,0:0:0:0:
234,176,45568,1,8,0:0:0:0:
392,151,45756,1,0,0:0:0:0:
392,151,45849,1,0,0:0:0:0:
392,151,45943,1,8,0:0:0:0:
238,104,46131,1,8,0:0:0:0:
238,104,46318,1,0,0:0:0:0:
158,95,46412,1,0,0:0:0:0:
238,104,46506,1,8,0:0:0:0:
192,256,46693,1,0,0:0:0:0:
192,256,46787,1,0,0:0:0:0:
192,256,46881,1,0,0:0:0:0:
164,99,47068,1,8,0:0:0:0:
308,167,47256,1,0,0:0:0:0:
236,133,47349,1,0,0:0:0:0:
236,133,47443,1,8,0:0:0:0:
236,133,47631,1,8,0:0:0:0:
77,117,47818,1,0,0:0:0:0:
236,132,48006,1,8,0:0:0:0:
77,117,48193,1,8,0:0:0:0:
236,132,48381,1,0,0:0:0:0:
77,117,48568,1,0,0:0:0:0:
207,87,48756,1,8,0:0:0:0:
338,70,48943,1,0,0:0:0:0:
338,70,49131,1,0,0:0:0:0:
338,70,49318,1,0,0:0:0:0:
231,189,49506,1,6,0:0:0:0:
