osu file format v14

[General]
AudioFilename: audio.mp3
AudioLeadIn: 0
PreviewTime: 35730
Countdown: 0
SampleSet: Soft
StackLeniency: 0.4
Mode: 0
LetterboxInBreaks: 0
WidescreenStoryboard: 0

[Editor]
Bookmarks: 13230,23730,35730,46980,47730,59730,65730,70230,82230,93480,94230,106230,117855
DistanceSpacing: 0.2
BeatDivisor: 16
GridSize: 16
TimelineZoom: 4.399998

[Metadata]
Title:A Bella! (feat. Lucy)
TitleUnicode:A Bella! (feat. Lucy)
Artist:M2U
ArtistUnicode:M2U
Creator:IceKalt
Version:Doorbell
Source:하이파이브
Tags:HIGH5 DIVERSITY. UICY-15598 Drug Step SQUARE MUSIQ Original Soundtrack OST PNIX Games cococolaco fizz -_frontier_- celektus
BeatmapID:1677854
BeatmapSetID:799084

[Difficulty]
HPDrainRate:6
CircleSize:4.2
OverallDifficulty:8.5
ApproachRate:9.3
SliderMultiplier:1.9
SliderTickRate:1

[Events]
//Background and Video events
0,0,"bella.jpg",0,0
//Break Periods
2,59929,63114
//Storyboard Layer 0 (Background)
//Storyboard Layer 1 (Fail)
//Storyboard Layer 2 (Pass)
//Storyboard Layer 3 (Foreground)
//Storyboard Sound Samples

[TimingPoints]
-270,375,4,2,1,10,1,0
855,-666.666666666667,4,2,1,40,0,0
1230,-100,4,2,1,85,0,0
2355,-50,4,2,1,85,0,0
2730,-100,4,2,1,85,0,0
3855,-50,4,2,1,85,0,0
4230,-100,4,2,1,85,0,0
5355,-50,4,2,1,85,0,0
6292,-66.6666666666667,4,2,1,85,0,0
6855,-50,4,2,1,85,0,0
7230,-100,4,2,1,85,0,0
8355,-50,4,2,1,85,0,0
9292,-54.054054054054,4,2,1,85,0,0
10230,-50,4,2,1,85,0,0
12855,-666.666666666667,4,2,1,85,0,0
13230,-100,4,2,1,60,0,0
17730,-74.0740740740741,4,2,1,60,0,0
18855,-133.333333333333,4,2,1,60,0,0
19230,-100,4,2,1,60,0,0
22792,-66.6666666666667,4,2,1,70,0,0
23355,-666.666666666667,4,2,1,70,0,0
23730,-83.3333333333333,4,2,1,70,0,0
29355,-133.333333333333,4,2,1,70,0,0
29730,-83.3333333333333,4,2,1,70,0,0
33667,-62.5,4,2,1,70,0,0
34136,-62.5,4,2,1,5,0,0
34230,-50,4,2,1,70,0,0
34792,-666.666666666667,4,2,1,70,0,0
35167,-50,4,2,1,70,0,0
35730,-58.8235294117647,4,2,1,85,0,1
37605,-50,4,2,1,85,0,1
38730,-58.8235294117647,4,2,1,85,0,1
39292,-50,4,2,1,85,0,1
41355,-62.5,4,2,1,85,0,1
41730,-58.8235294117647,4,2,1,85,0,1
44730,-50,4,2,1,85,0,1
46230,-43.4782608695652,4,2,1,85,0,1
46980,-37.037037037037,4,2,1,85,0,0
47167,-100,4,2,1,85,0,0
47730,-58.8235294117647,4,2,1,85,0,1
49980,-50,4,2,1,85,0,1
50730,-58.8235294117647,4,2,1,85,0,1
51292,-50,4,2,1,85,0,1
52417,-45.4545454545455,4,2,1,85,0,1
52605,-41.6666666666667,4,2,1,85,0,1
52792,-38.4615384615385,4,2,1,85,0,1
53355,-200,4,2,1,85,0,1
53730,-58.8235294117647,4,2,1,85,0,1
56730,-50,4,2,1,85,0,1
58230,-43.4782608695652,4,2,1,85,0,1
59120,-43.4782608695652,4,2,1,5,0,1
59167,-43.4782608695652,4,2,1,85,0,1
59355,-666.666666666667,4,2,1,85,0,1
59730,-666.666666666667,4,2,1,60,0,0
63667,-66.6666666666667,4,2,1,60,0,0
64792,-55.5555555555556,4,2,1,60,0,0
65355,-666.666666666667,4,2,1,60,0,0
65730,-66.6666666666667,4,2,1,60,0,0
68917,-52.6315789473684,4,2,1,60,0,0
69855,-666.666666666667,4,2,1,60,0,0
70230,-83.3333333333333,4,2,1,70,0,0
75855,-133.333333333333,4,2,1,70,0,0
76230,-83.3333333333333,4,2,1,70,0,0
80167,-58.8235294117647,4,2,1,70,0,0
80355,-55.5555555555556,4,2,1,70,0,0
80730,-50,4,2,1,70,0,0
81292,-666.666666666667,4,2,1,70,0,0
81667,-45.4545454545455,4,2,1,70,0,0
82136,-45.4545454545455,4,2,1,70,0,0
82230,-58.8235294117647,4,2,1,85,0,1
84105,-50,4,2,1,85,0,1
85230,-58.8235294117647,4,2,1,85,0,1
85792,-50,4,2,1,85,0,1
86355,-58.8235294117647,4,2,1,85,0,1
86730,-76.9230769230769,4,2,1,70,0,1
87480,-58.8235294117647,4,2,1,70,0,1
88230,-58.8235294117647,4,2,1,85,0,1
91230,-50,4,2,1,85,0,1
92730,-43.4782608695652,4,2,1,85,0,1
93480,-37.037037037037,4,2,1,85,0,1
93667,-100,4,2,1,85,0,0
94230,-58.8235294117647,4,2,1,85,0,1
96105,-50,4,2,1,85,0,1
97230,-58.8235294117647,4,2,1,85,0,1
97792,-50,4,2,1,85,0,1
98917,-45.4545454545455,4,2,1,85,0,1
99105,-41.6666666666667,4,2,1,85,0,1
99292,-38.4615384615385,4,2,1,85,0,1
99855,-200,4,2,1,85,0,1
100230,-58.8235294117647,4,2,1,85,0,1
103230,-50,4,2,1,85,0,1
104730,-43.4782608695652,4,2,1,85,0,1
105855,-50,4,2,1,85,0,1
106230,-71.4285714285714,4,2,1,55,0,0
116730,-52.6315789473684,4,2,1,80,0,0
117480,-45.4545454545455,4,2,1,80,0,0
117855,-45.4545454545455,4,2,1,5,0,0

[Colours]
Combo1 : 225,73,0
Combo2 : 255,98,255
Combo3 : 147,18,255
Combo4 : 255,143,89

[HitObjects]
400,218,855,6,0,L|405:198,1,21.3749993476868,2|0,0:2|0:0,0:0:0:0:
400,187,1230,5,6,3:2:0:0:
238,197,1417,1,2,0:2:0:0:
227,189,1605,1,2,1:2:0:0:
223,87,1792,2,0,P|225:135|217:182,1,95,6|0,3:2|0:0,0:0:0:0:
104,339,2167,1,2,1:2:0:0:
108,235,2355,6,0,B|103:284|103:284|113:329,1,95,2|0,3:2|0:0,0:0:0:0:
123,322,2542,1,2,1:2:0:0:
296,245,2730,5,6,3:2:0:0:
403,347,2917,1,2,1:2:0:0:
390,351,3105,1,2,1:2:0:0:
376,263,3292,2,0,P|368:309|378:356,1,95,6|0,3:2|0:0,0:0:0:0:
488,135,3667,1,2,1:2:0:0:
500,221,3855,6,0,B|511:176|511:176|498:128,1,95,2|0,3:2|0:0,0:0:0:0:
508,122,4042,1,2,1:2:0:0:
322,24,4230,5,6,3:2:0:0:
223,179,4417,1,2,1:2:0:0:
232,186,4605,1,2,1:2:0:0:
107,191,4792,2,0,B|145:193|173:213|173:213|200:197|242:192,1,142.5,6|0,3:2|0:0,0:0:0:0:
298,262,5167,1,2,1:2:0:0:
415,105,5355,6,0,B|392:115|392:115|366:100|325:96,1,95,2|0,3:2|0:0,0:0:0:0:
224,100,5542,2,0,B|246:110|246:110|272:95|313:91,1,95,2|0,1:2|1:2,0:0:0:0:
450,185,5730,5,6,3:2:0:0:
427,375,5917,1,2,0:2:0:0:
423,348,6011,1,2,0:2:0:0:
430,323,6105,1,2,3:2:0:0:
374,271,6198,1,2,0:2:0:0:
298,262,6292,2,0,P|227:277|149:246,1,142.500005435944,2|0,0:2|3:2,0:0:0:0:
55,45,6667,1,2,1:2:0:0:
36,91,6761,1,2,1:2:0:0:
40,140,6855,6,0,P|85:149|132:138,1,95,2|0,3:2|0:0,0:0:0:0:
248,9,7042,2,0,P|234:54|203:89,1,95,2|0,1:3|0:0,0:0:0:0:
206,173,7230,5,6,3:2:0:0:
407,244,7417,1,2,0:2:0:0:
397,232,7605,1,2,1:2:0:0:
482,204,7792,2,0,P|436:217|389:220,1,95,6|0,3:2|0:0,0:0:0:0:
258,106,8167,1,2,1:2:0:0:
337,137,8355,6,0,B|293:123|293:123|257:90,1,95,2|0,3:2|0:0,0:0:0:0:
258,78,8542,1,2,1:2:0:0:
138,304,8730,5,6,3:2:0:0:
257,64,8917,1,2,1:2:0:0:
330,320,9105,1,2,1:2:0:0:
172,180,9292,6,0,B|281:266|305:160|423:251,1,263.62499899435,6|0,3:2|0:0,0:0:0:0:
423,261,9667,1,2,1:2:0:0:
262,109,9855,1,2,3:2:0:0:
258,125,10042,1,2,1:2:0:0:
52,235,10230,6,0,B|96:254|96:254|155:244,1,95,6|0,3:2|0:0,0:0:0:0:
254,140,10417,1,2,3:2:0:0:
274,369,10605,1,2,1:2:0:0:
319,188,10792,2,0,P|268:267|262:361,1,190,6|0,3:2|0:0,0:0:0:0:
512,292,11167,1,2,1:2:0:0:
375,285,11355,1,2,3:2:0:0:
343,183,11542,2,0,B|346:235|346:235|362:276,1,95,2|0,1:2|0:0,0:0:0:0:
493,96,11730,5,2,3:2:0:0:
469,198,11917,2,0,B|496:158|496:158|501:110,1,95,2|0,0:2|0:0,0:0:0:0:
323,52,12105,1,2,3:2:0:0:
483,82,12292,1,2,0:2:0:0:
387,141,12480,1,2,3:2:0:0:
467,198,12667,1,0,0:0:0:0:
464,206,12761,1,0,0:0:0:0:
461,214,12855,6,0,L|438:218,1,21.3749993476868,4|0,1:2|0:0,0:0:0:0:
429,232,13230,6,0,L|232:225,1,190,6|10,3:2|0:2,0:0:0:0:
81,288,13792,2,0,L|191:285,1,95,2|0,3:2|0:0,0:0:0:0:
386,231,14167,1,10,0:2:0:0:
343,153,14355,2,0,L|233:150,1,95,2|10,3:2|0:2,0:0:0:0:
62,169,14730,5,0,3:2:0:0:
147,167,14917,1,2,0:2:0:0:
232,166,15105,1,10,0:2:0:0:
324,46,15292,2,0,P|318:92|331:138,1,95,2|0,3:2|0:0,0:0:0:0:
226,355,15667,1,10,0:2:0:0:
290,304,15855,2,0,P|302:258|297:211,1,95,2|8,3:2|0:2,0:0:0:0:
135,51,16230,5,6,3:2:0:0:
213,146,16417,1,2,0:2:0:0:
257,30,16605,1,10,0:2:0:0:
144,194,16792,2,0,L|288:199,1,142.5,2|0,3:2|0:0,0:0:0:0:
297,211,17167,1,10,0:2:0:0:
378,63,17355,1,2,3:2:0:0:
220,119,17542,1,10,0:2:0:0:
420,286,17730,6,0,P|414:238|404:292,1,128.250000489235,2|2,3:2|0:2,0:0:0:0:
389,361,18011,1,2,0:2:0:0:
389,361,18105,1,10,3:2:0:0:
199,298,18292,2,0,L|141:314,3,32.0625001223087,2|2|2|2,0:2|0:2|0:2|0:2,0:0:0:0:
215,287,18480,2,0,P|208:234|208:210,1,64.1250002446175,2|2,3:2|0:2,0:0:0:0:
287,130,18667,2,0,P|285:161|279:193,1,64.1250002446175,2|0,0:2|0:0,0:0:0:0:
288,214,18855,6,0,P|300:158|292:88,1,106.875004076958,10|0,3:2|0:0,0:0:0:0:
308,90,19230,6,0,L|118:83,1,190,6|10,3:2|0:2,0:0:0:0:
0,201,19792,2,0,L|94:195,1,95,2|0,3:2|0:0,0:0:0:0:
315,184,20167,1,10,0:2:0:0:
257,252,20355,2,0,L|162:246,1,95,2|10,3:2|0:2,0:0:0:0:
13,357,20730,5,2,3:2:0:0:
183,354,20917,1,2,0:2:0:0:
98,355,21105,1,10,0:2:0:0:
268,352,21292,2,0,B|315:357|343:328|343:328|395:348|436:301|393:271,1,190,2|8,3:2|0:2,0:0:0:0:
200,221,21855,1,2,3:2:0:0:
280,271,22042,1,10,0:2:0:0:
365,55,22230,5,6,3:2:0:0:
284,175,22417,2,0,P|215:174|253:113,1,142.5,2|0,3:2|0:0,0:0:0:0:
408,153,22792,2,0,P|301:90|207:142,1,213.750008153916,6|0,3:2|0:0,0:0:0:0:
145,224,23167,1,0,1:0:0:0:
390,307,23355,6,0,L|392:286,1,21.3749993476868,6|0,3:2|0:0,0:0:0:0:
379,276,23730,5,6,3:2:0:0:
293,289,23917,1,2,0:3:0:0:
153,211,24105,1,0,3:2:0:0:
239,224,24292,2,0,B|258:185|301:171|301:171|234:124|248:46,1,227.999993041992,2|2,0:3|0:3,0:0:0:0:
451,48,24855,2,0,P|403:75|332:74,1,113.999996520996,2|0,3:2|1:2,0:0:0:0:
154,23,25230,6,0,P|160:82|80:59,1,170.999994781494,2|0,3:2|0:0,0:0:0:0:
81,47,25605,1,2,3:2:0:0:
232,126,25792,2,0,P|239:174|209:231,1,113.999996520996,2|0,0:3|3:2,0:0:0:0:
59,360,26167,1,2,0:3:0:0:
7,278,26355,2,0,P|52:245|108:245,1,113.999996520996,2|0,3:2|1:2,0:0:0:0:
297,384,26730,5,4,3:2:0:0:
380,218,26917,1,2,0:3:0:0:
415,345,27105,1,2,3:2:0:0:
266,200,27292,2,0,P|310:120|290:22,1,170.999994781494,2|0,0:3|0:0,0:0:0:0:
288,29,27667,1,2,1:2:0:0:
142,118,27855,2,0,P|206:128|170:51,1,170.999994781494,2|0,3:2|0:0,0:0:0:0:
107,41,28230,5,2,1:2:0:0:
26,158,28417,1,2,1:2:0:0:
53,260,28605,1,2,1:2:0:0:
272,343,28792,2,0,B|203:298|203:298|117:319,1,170.999994781494,2|0,3:2|0:0,0:0:0:0:
105,334,29167,1,2,0:3:0:0:
246,233,29355,2,0,P|235:205|176:239,1,106.875004076958,4|0,3:2|0:0,0:0:0:0:
202,298,29730,5,6,3:2:0:0:
310,320,29917,1,2,0:3:0:0:
464,228,30105,1,0,3:2:0:0:
356,250,30292,2,0,B|347:203|371:168|371:168|373:86|283:51,1,227.999993041992,2|2,0:3|0:3,0:0:0:0:
143,183,30855,2,0,P|150:118|186:71,1,113.999996520996,2|0,3:2|1:2,0:0:0:0:
80,325,31230,6,0,P|80:251|32:159,1,170.999994781494,2|0,3:2|0:0,0:0:0:0:
23,166,31605,1,2,3:2:0:0:
171,265,31792,2,0,P|225:269|291:247,1,113.999996520996,2|0,0:3|3:2,0:0:0:0:
492,295,32167,1,2,0:3:0:0:
415,356,32355,2,0,P|361:360|295:338,1,113.999996520996,2|0,3:2|1:2,0:0:0:0:
337,147,32730,5,4,3:2:0:0:
216,316,32917,1,2,1:2:0:0:
356,270,33105,1,2,3:2:0:0:
144,191,33292,2,0,P|195:170|232:114,1,113.999996520996,2|0,0:3|3:2,0:0:0:0:
378,245,33667,6,0,P|372:207|382:171,1,76,2|0,1:2|0:0,0:0:0:0:
403,156,33855,2,0,B|352:267|454:271|404:374,1,228,2|0,3:2|0:0,0:0:0:0:
246,358,34230,2,0,B|199:329|199:329|352:317,1,190,2|2,3:2|1:2,0:0:0:0:
14,208,34605,2,0,L|106:183,1,95,2|0,1:2|0:0,0:0:0:0:
378,245,34792,6,0,L|355:240,1,21.3749993476868,2|0,3:1|3:0,0:0:0:0:
341,244,35167,6,0,B|402:117|308:26|308:26|185:78|214:221,1,475,6|0,3:2|0:0,0:0:0:0:
213,219,35730,6,0,P|157:175|54:171,1,161.500003080368,6|0,3:2|0:0,0:0:0:0:
236,319,36105,1,10,0:2:0:0:
305,167,36292,2,0,P|302:95|239:13,1,161.500003080368,6|0,3:2|0:0,0:0:0:0:
213,219,36667,1,10,0:2:0:0:
387,230,36855,2,0,P|430:199|448:163,1,80.750001540184,6|0,3:2|0:0,0:0:0:0:
444,19,37042,2,0,P|454:57|449:97,1,80.750001540184,2|0,1:2|0:0,0:0:0:0:
325,179,37230,5,6,3:2:0:0:
499,337,37417,1,2,0:2:0:0:
198,351,37605,1,10,0:2:0:0:
211,280,37698,1,2,0:2:0:0:
265,327,37792,1,6,3:2:0:0:
18,214,37980,5,2,0:2:0:0:
99,197,38073,2,0,P|54:192|-11:204,1,95,2|8,0:2|0:2,0:0:0:0:
84,96,38261,1,2,0:2:0:0:
156,135,38354,2,0,P|123:100|82:75,1,95,6|0,3:2|0:0,0:0:0:0:
165,15,38542,1,0,1:2:0:0:
373,99,38730,6,0,P|292:78|208:93,1,161.500003080368,6|0,3:2|0:0,0:0:0:0:
176,292,39105,1,10,0:2:0:0:
259,235,39292,2,0,P|336:214|473:347,1,285,6|0,3:2|0:0,0:0:0:0:
467,360,39667,1,10,0:2:0:0:
413,203,39855,2,0,P|406:143|417:92,1,95,6|0,3:2|0:0,0:0:0:0:
434,6,40042,2,0,P|441:66|430:117,1,95,2|0,1:2|0:0,0:0:0:0:
324,197,40230,6,0,L|203:186,1,95,6|0,3:2|0:0,0:0:0:0:
49,112,40417,2,0,L|170:101,1,95,2|0,0:2|0:0,0:0:0:0:
302,48,40605,1,10,3:2:0:0:
101,239,40792,1,2,0:3:0:0:
105,247,40839,1,2,0:2:0:0:
109,255,40886,1,2,0:3:0:0:
113,263,40933,1,2,0:2:0:0:
117,271,40980,2,0,L|232:281,1,95,0|0,3:0|0:0,0:0:0:0:
429,303,41167,2,0,L|334:294,1,95,10|0,0:2|0:0,0:0:0:0:
334,294,41355,6,0,P|379:247|276:234,1,228,6|0,3:2|1:2,0:0:0:0:
223,356,41730,6,0,P|221:298|198:262,1,80.750001540184,6|0,3:2|0:0,0:0:0:0:
159,152,41917,2,0,P|147:187|150:232,1,80.750001540184,2|0,0:2|0:0,0:0:0:0:
232,124,42105,2,0,P|230:66|207:30,1,80.750001540184,10|0,0:2|0:0,0:0:0:0:
98,13,42292,2,0,P|178:36|262:16,1,161.500003080368,6|0,3:2|0:0,0:0:0:0:
439,211,42667,1,10,0:2:0:0:
159,152,42855,1,6,3:2:0:0:
318,87,43042,1,2,1:2:0:0:
286,314,43230,6,0,P|357:272|251:242,1,242.250004620552,6|0,3:2|0:0,0:0:0:0:
253,243,43605,1,10,0:2:0:0:
115,384,43792,2,0,B|145:236|145:236|102:146,1,242.250004620552,6|0,3:2|0:0,0:0:0:0:
92,149,44167,1,10,0:2:0:0:
344,35,44355,1,6,3:2:0:0:
148,11,44542,1,2,1:2:0:0:
322,323,44730,6,0,P|348:282|352:231,1,95,6|0,3:2|0:0,0:0:0:0:
187,141,44917,2,0,P|209:184|251:212,1,95,0|0,3:2|0:0,0:0:0:0:
414,116,45105,2,0,P|365:113|319:136,1,95,10|0,0:2|0:0,0:0:0:0:
373,389,45292,2,0,B|448:304|424:192|424:192|343:143,1,285,6|0,3:2|0:0,0:0:0:0:
324,131,45667,1,10,0:2:0:0:
133,325,45855,2,0,B|129:240|197:182|197:182|141:215|75:190,1,285,6|0,3:2|1:2,0:0:0:0:
37,61,46230,6,0,L|168:79,1,109.250002083778,6|0,3:2|0:0,0:0:0:0:
147,55,46417,2,0,L|38:40,1,109.250002083778,2|0,0:2|0:0,0:0:0:0:
197,182,46605,2,0,L|305:167,1,109.250002083778,2|0,3:2|0:0,0:0:0:0:
303,146,46792,2,0,L|194:160,1,109.250002083778,10|0,0:2|0:0,0:0:0:0:
111,362,46980,6,0,P|93:300|95:236,1,128.250000489235,0|0,0:0|0:0,0:0:0:0:
107,231,47167,6,0,L|102:287,1,47.5,2|0,0:2|0:0,0:0:0:0:
114,273,47355,2,0,L|120:225,1,47.5,2|0,0:2|0:0,0:0:0:0:
133,223,47542,2,0,L|126:270,1,47.5,2|0,0:2|0:0,0:0:0:0:
111,362,47730,6,0,P|202:330|269:343,1,161.500003080368,6|0,3:2|0:0,0:0:0:0:
375,384,48105,1,10,0:2:0:0:
164,173,48292,2,0,P|243:177|311:219,1,161.500003080368,6|0,3:2|0:0,0:0:0:0:
387,310,48667,1,10,0:2:0:0:
327,22,48855,6,0,P|363:44|391:89,1,80.750001540184,6|0,3:2|0:0,0:0:0:0:
461,210,49042,2,0,P|425:188|397:143,1,80.750001540184,2|0,1:2|0:0,0:0:0:0:
487,27,49230,5,6,3:2:0:0:
243,112,49417,1,2,0:2:0:0:
387,310,49605,1,10,0:2:0:0:
376,238,49698,1,2,0:2:0:0:
310,205,49792,1,6,3:2:0:0:
124,294,49980,5,2,0:2:0:0:
140,212,50073,2,0,P|117:251|103:315,1,95,2|8,0:2|0:2,0:0:0:0:
236,307,50261,1,2,0:2:0:0:
235,223,50354,2,0,P|249:265|251:332,1,95,6|0,3:2|0:0,0:0:0:0:
168,384,50542,1,0,1:2:0:0:
95,0,50730,6,0,P|72:80|86:164,1,161.500003080368,6|0,3:2|0:0,0:0:0:0:
313,256,51105,1,10,0:2:0:0:
406,150,51292,2,0,B|326:128|263:159|263:159|238:102|162:68,1,285,6|0,3:2|0:0,0:0:0:0:
145,72,51667,1,10,0:2:0:0:
103,228,51855,2,0,P|87:183|93:136,1,95,6|0,3:2|0:0,0:0:0:0:
236,286,52042,2,0,P|189:280|144:295,1,95,2|0,1:2|0:0,0:0:0:0:
378,353,52230,6,0,L|391:252,1,95,2|0,3:2|0:0,0:0:0:0:
307,119,52417,2,0,L|322:233,1,104.500003189087,2|0,0:2|0:0,0:0:0:0:
509,191,52605,2,0,L|384:164,1,113.999996520996,10|0,0:2|0:0,0:0:0:0:
181,94,52792,2,0,B|271:63|339:93|339:93|360:73|406:72|406:72|361:0|259:8,1,370.499983039857,10|0,0:2|0:0,0:0:0:0:
273,7,53167,1,10,0:2:0:0:
102,109,53355,6,0,P|145:111|181:104,1,71.25,14|0,3:2|0:0,0:0:0:0:
260,230,53730,6,0,L|268:133,1,80.750001540184,6|0,3:2|0:0,0:0:0:0:
182,258,53917,2,0,P|166:291|166:336,1,80.750001540184,2|0,0:2|0:0,0:0:0:0:
336,351,54105,2,0,P|339:293|319:255,1,80.750001540184,10|0,0:2|0:0,0:0:0:0:
266,149,54292,2,0,P|338:185|418:184,1,161.500003080368,6|0,3:2|0:0,0:0:0:0:
247,357,54667,1,10,0:2:0:0:
53,147,54855,1,6,3:2:0:0:
85,293,55042,1,2,1:2:0:0:
98,22,55230,6,0,B|128:69|125:138|125:138|141:71|181:26,1,242.250004620552,6|0,3:2|0:0,0:0:0:0:
194,20,55605,1,10,0:2:0:0:
357,184,55792,2,0,B|218:131|218:131|314:85,1,242.250004620552,6|0,3:2|0:0,0:0:0:0:
324,88,56167,1,10,0:2:0:0:
418,270,56355,1,6,3:2:0:0:
456,38,56542,1,2,1:2:0:0:
189,232,56730,6,0,P|197:184|229:144,1,95,6|0,3:2|0:0,0:0:0:0:
73,324,56917,2,0,P|64:276|32:236,1,95,0|0,3:2|0:0,0:0:0:0:
274,384,57105,2,0,P|282:336|314:296,1,95,10|0,0:2|0:0,0:0:0:0:
140,104,57292,2,0,B|224:130|328:76|328:76|298:36|246:28,1,285,6|0,3:2|0:0,0:0:0:0:
214,28,57667,1,10,0:2:0:0:
177,318,57855,2,0,B|107:261|113:175|113:175|176:193|235:183,1,285,6|0,3:2|1:2,0:0:0:0:
413,133,58230,6,0,L|431:2,1,109.250002083778,6|0,3:2|0:0,0:0:0:0:
407,23,58417,2,0,L|392:132,1,109.250002083778,2|0,0:2|0:0,0:0:0:0:
349,337,58605,2,0,L|331:206,1,109.250002083778,2|0,3:2|0:0,0:0:0:0:
355,227,58792,2,0,L|370:336,1,109.250002083778,10|0,0:2|0:0,0:0:0:0:
222,361,58980,6,0,P|177:312|262:307,1,163.875003125668
263,274,59167,2,0,P|207:260|162:301,1,109.250002083778,2|0,0:1|0:0,0:0:0:0:
52,363,59355,6,0,L|56:334,1,28.4999991302491,10|2,0:2|0:2,0:0:0:0:
223,153,63668,6,0,P|230:110|221:69,1,71.2500027179719,2|0,0:2|0:0,0:0:0:0:
219,231,63855,2,0,P|233:189|231:147,1,71.2500027179719,2|0,0:2|0:0,0:0:0:0:
200,307,64042,2,0,P|221:268|226:227,1,71.2500027179719,2|0,0:2|0:0,0:0:0:0:
219,231,64230,6,0,B|159:288|206:319|198:383|198:383|246:357|246:357|251:369|251:369|330:329|299:243,1,356.25001358986,2|0,0:2|0:0,0:0:0:0:
305,266,64792,6,0,P|404:269|480:241,1,170.999994781494,2|2,3:2|0:3,0:0:0:0:
309,65,65167,1,0,1:0:0:0:
327,162,65355,6,0,L|330:140,1,21.3749993476868,14|0,0:2|0:0,0:0:0:0:
348,136,65730,5,6,3:2:0:0:
435,312,65917,1,2,0:2:0:0:
458,235,66105,1,2,1:2:0:0:
277,377,66292,1,6,3:2:0:0:
265,328,66386,1,2,0:2:0:0:
275,278,66480,2,0,P|285:238|281:207,1,71.2500027179719,2|0,0:2|0:0,0:0:0:0:
241,58,66667,2,0,P|231:98|235:129,1,71.2500027179719,2|0,1:2|0:0,0:0:0:0:
361,211,66855,1,2,3:2:0:0:
311,215,66948,1,2,0:2:0:0:
261,219,67042,1,2,1:2:0:0:
211,223,67136,1,2,0:2:0:0:
166,286,67230,6,0,P|173:231|161:198,1,71.2500027179719,6|0,3:2|0:0,0:0:0:0:
86,98,67417,1,2,0:2:0:0:
105,104,67511,1,2,0:2:0:0:
125,103,67605,1,2,1:2:0:0:
179,51,67698,1,2,0:2:0:0:
254,64,67792,2,0,P|327:57|396:8,1,142.500005435944,6|0,3:2|0:0,0:0:0:0:
485,181,68167,1,2,1:2:0:0:
362,286,68355,2,0,B|291:207|291:207|398:212,1,213.750008153916,2|0,3:2|0:0,0:0:0:0:
406,197,68730,6,0,P|412:154|393:104,1,71.2500027179719,2|0,3:2|0:0,0:0:0:0:
278,4,68917,2,0,P|314:29|340:68,1,90.2499975900651,2|2,0:2|0:2,0:0:0:0:
330,159,69105,6,0,P|327:188|315:216,3,60.1666650600434,0|0|0|0,1:2|0:2|0:2|1:2,1:2:0:0:
192,203,69386,1,2,0:2:0:0:
140,137,69480,6,0,B|131:220|208:265|208:265|187:276|187:276|229:323|182:380,1,270.749992770195,14|0,0:2|0:0,0:0:0:0:
30,195,69855,6,0,L|54:192,1,21.3749993476868,14|0,0:2|0:0,0:0:0:0:
69,200,70230,5,6,3:2:0:0:
39,283,70417,1,2,0:3:0:0:
165,368,70605,1,0,3:2:0:0:
135,285,70792,2,0,B|170:238|156:155|156:155|200:191|252:193,1,227.999993041992,2|2,0:3|0:3,0:0:0:0:
411,199,71355,2,0,P|359:232|286:234,1,113.999996520996,2|0,3:2|1:2,0:0:0:0:
167,41,71730,6,0,B|233:95|233:95|335:51,1,170.999994781494,2|0,3:2|0:0,0:0:0:0:
318,47,72105,1,2,3:2:0:0:
489,162,72292,2,0,P|496:210|466:267,1,113.999996520996,2|0,0:3|3:2,0:0:0:0:
218,373,72667,1,2,0:3:0:0:
277,278,72855,2,0,P|325:271|382:301,1,113.999996520996,2|0,3:2|1:2,0:0:0:0:
281,94,73230,5,4,3:2:0:0:
342,223,73417,1,2,0:3:0:0:
139,233,73605,1,2,3:2:0:0:
277,278,73792,2,0,P|308:195|296:99,1,170.999994781494,2|0,0:3|0:0,0:0:0:0:
290,103,74167,1,2,1:2:0:0:
116,152,74355,2,0,P|137:218|216:171,1,170.999994781494,2|0,3:2|0:0,0:0:0:0:
189,105,74730,5,2,1:2:0:0:
305,17,74917,1,2,1:2:0:0:
403,54,75105,1,2,1:2:0:0:
479,272,75292,2,0,P|448:194|476:115,1,170.999994781494,2|0,3:2|0:0,0:0:0:0:
492,109,75667,1,2,0:3:0:0:
372,239,75855,2,0,B|343:190|343:190|379:139,1,106.875004076958,4|0,3:2|0:0,0:0:0:0:
409,304,76230,5,6,3:2:0:0:
308,330,76417,1,2,0:3:0:0:
163,220,76605,1,0,3:2:0:0:
264,246,76792,2,0,B|235:168|275:111|275:111|231:81|253:26,1,227.999993041992,2|2,0:3|0:3,0:0:0:0:
71,86,77355,2,0,P|120:112|177:120,1,113.999996520996,2|0,3:2|1:2,0:0:0:0:
51,308,77730,6,0,P|61:224|21:150,1,170.999994781494,2|0,3:2|0:0,0:0:0:0:
7,152,78105,1,2,3:2:0:0:
135,289,78292,2,0,P|189:293|251:270,1,113.999996520996,2|0,0:3|3:2,0:0:0:0:
397,127,78667,1,2,0:3:0:0:
285,84,78855,2,0,P|254:128|243:193,1,113.999996520996,2|0,3:2|1:2,0:0:0:0:
457,338,79230,5,4,3:2:0:0:
436,198,79417,1,2,1:2:0:0:
341,363,79605,1,2,3:2:0:0:
350,199,79792,2,0,P|395:169|432:114,1,113.999996520996,2|0,0:3|3:2,0:0:0:0:
177,25,80167,6,0,P|214:40|241:71,1,80.750001540184,2|0,1:2|0:0,0:0:0:0:
160,41,80355,2,0,B|247:50|223:121|258:106|259:87|259:87|284:120|316:118|316:118|348:100|335:79|349:68,1,256.499992172241,2|0,3:2|0:0,0:0:0:0:
208,211,80730,2,0,B|213:179|213:179|205:165|229:164|232:120,1,95,2|0,3:2|0:0,0:0:0:0:
335,311,80917,2,0,B|330:279|330:279|338:265|314:264|311:220,1,95,2|0,1:2|0:0,0:0:0:0:
99,370,81105,2,0,B|104:338|104:338|96:324|120:323|123:279,1,95,2|0,1:2|0:0,0:0:0:0:
470,350,81292,6,0,L|447:345,1,21.3749993476868,2|0,3:1|3:0,0:0:0:0:
433,365,81667,6,0,B|419:308|462:304|439:248|439:248|474:268|474:268|459:218|478:191|478:191|497:168|491:137|491:137|484:103|512:76|512:76|436:87|427:34|369:66|369:66|372:80,1,522.500015945435,6|0,3:2|0:0,0:0:0:0:
371,75,82230,6,0,P|328:40|213:24,1,161.500003080368,6|0,3:2|0:0,0:0:0:0:
393,200,82605,1,10,0:2:0:0:
144,192,82792,2,0,P|217:159|297:167,1,161.500003080368,6|0,3:2|0:0,0:0:0:0:
384,277,83167,1,10,0:2:0:0:
158,381,83355,2,0,P|177:334|213:305,1,80.750001540184,6|0,3:2|0:0,0:0:0:0:
312,243,83542,2,0,P|292:289|256:318,1,80.750001540184,2|0,1:2|0:0,0:0:0:0:
97,251,83730,5,6,3:2:0:0:
208,65,83917,1,2,0:2:0:0:
386,260,84105,1,10,0:2:0:0:
380,188,84198,1,2,0:2:0:0:
322,230,84292,1,6,3:2:0:0:
72,108,84480,5,2,0:2:0:0:
152,142,84573,2,0,P|107:137|42:149,1,95,2|8,0:2|0:2,0:0:0:0:
288,31,84761,1,2,0:2:0:0:
208,65,84854,2,0,P|253:60|318:72,1,95,6|0,3:2|0:0,0:0:0:0:
208,216,85042,1,0,1:2:0:0:
432,171,85230,6,0,P|355:144|274:167,1,161.500003080368,6|0,3:2|0:0,0:0:0:0:
103,350,85605,1,10,0:2:0:0:
218,322,85792,2,0,B|267:213|215:136|215:136|237:89|216:39,1,285,6|0,3:2|0:0,0:0:0:0:
208,41,86167,1,10,0:2:0:0:
77,219,86355,1,6,3:2:0:0:
209,192,86542,1,2,1:2:0:0:
6,269,86730,6,0,P|30:215|31:150,1,123.499994346619,2|0,0:2|0:0,0:0:0:0:
115,370,87105,2,0,P|105:334|108:299,1,61.7499971733095,2|0,0:2|0:0,0:0:0:0:
192,371,87292,2,0,P|202:335|199:300,1,61.7499971733095,2|0,0:2|0:0,0:0:0:0:
357,222,87480,6,0,B|400:205|400:205|291:233|206:190,1,242.250004620552,2|0,0:2|0:0,0:0:0:0:
123,19,87855,2,0,B|134:60|176:64|172:122|172:122|189:66|178:32|234:8,1,242.250004620552,10|0,0:2|0:0,0:0:0:0:
425,70,88230,6,0,P|381:72|346:64,1,80.750001540184,6|0,3:2|0:0,0:0:0:0:
418,240,88417,2,0,P|383:213|361:184,1,80.750001540184,2|0,0:2|2:0,2:0:0:0:
327,376,88605,2,0,P|317:333|319:297,1,80.750001540184,10|0,0:2|2:0,2:0:0:0:
246,122,88792,2,0,P|254:202|207:275,1,161.500003080368,6|0,3:2|0:0,0:0:0:0:
65,68,89167,1,10,0:2:0:0:
347,29,89355,1,6,3:2:0:0:
161,87,89542,1,2,1:2:0:0:
454,146,89730,6,0,B|382:179|298:142|298:142|326:180|316:224,1,242.250004620552,6|0,3:2|0:0,0:0:0:0:
309,233,90105,1,10,0:2:0:0:
97,344,90292,2,0,B|124:202|124:202|183:288,1,242.250004620552,6|0,3:2|0:0,0:0:0:0:
191,296,90667,1,10,0:2:0:0:
306,118,90855,1,6,3:2:0:0:
396,354,91042,1,2,1:2:0:0:
211,122,91230,6,0,P|155:128|104:116,1,95,6|0,3:2|0:0,0:0:0:0:
309,233,91417,2,0,P|365:239|416:227,1,95,0|0,3:2|0:0,0:0:0:0:
477,67,91605,2,0,P|421:73|370:61,1,95,10|0,0:2|0:0,0:0:0:0:
244,304,91792,2,0,B|189:232|211:121|211:121|241:161|232:218,1,285,6|0,3:2|0:0,0:0:0:0:
231,224,92167,1,10,0:2:0:0:
65,100,92355,2,0,B|185:142|182:56|275:100|275:100|204:123,1,285,6|0,3:2|1:2,0:0:0:0:
9,252,92730,6,0,L|140:234,1,109.250002083778,6|0,3:2|0:0,0:0:0:0:
119,258,92917,2,0,L|10:273,1,109.250002083778,2|0,0:2|0:0,0:0:0:0:
177,331,93105,2,0,L|286:346,1,109.250002083778,2|0,3:2|0:0,0:0:0:0:
285,367,93292,2,0,L|176:352,1,109.250002083778,10|0,0:2|0:0,0:0:0:0:
376,322,93480,6,0,B|393:259|353:264|374:196,1,128.250000489235
386,191,93667,2,0,L|381:247,1,47.5,10|0,0:2|0:0,0:0:0:0:
393,233,93855,2,0,L|399:185,1,47.5,2|0,1:2|0:0,0:0:0:0:
412,183,94042,2,0,L|405:230,1,47.5,2|0,1:2|0:0,0:0:0:0:
296,118,94230,6,0,P|253:83|138:67,1,161.500003080368,6|0,3:2|0:0,0:0:0:0:
250,200,94605,1,10,0:2:0:0:
0,203,94792,2,0,P|43:168|158:152,1,161.500003080368,6|0,3:2|0:0,0:0:0:0:
45,287,95167,1,10,0:2:0:0:
297,284,95355,2,0,P|265:254|216:237,1,80.750001540184,6|0,3:2|0:0,0:0:0:0:
115,338,95542,2,0,P|155:320|207:321,1,80.750001540184,2|0,1:2|0:0,0:0:0:0:
370,366,95730,5,6,3:2:0:0:
272,112,95917,1,2,0:2:0:0:
477,282,96105,1,10,0:2:0:0:
449,211,96198,1,2,0:2:0:0:
422,139,96292,1,6,3:2:0:0:
155,179,96480,5,2,0:2:0:0:
255,205,96573,2,0,P|210:210|145:198,1,95,2|8,0:2|0:2,0:0:0:0:
8,308,96762,1,2,0:2:0:0:
108,282,96855,2,0,P|71:308|8:329,1,95,6|0,3:2|0:0,0:0:0:0:
59,188,97042,1,0,1:2:0:0:
273,371,97230,6,0,P|246:294|269:213,1,161.500003080368,6|0,3:2|0:0,0:0:0:0:
454,44,97605,1,10,0:2:0:0:
466,157,97792,2,0,B|435:222|360:232|360:232|331:171|382:147|343:81,1,285,6|0,3:2|0:0,0:0:0:0:
109,0,98167,1,10,0:2:0:0:
266,132,98355,1,6,3:2:0:0:
111,128,98542,1,2,1:2:0:0:
308,321,98730,6,0,B|266:292|266:292|229:215,1,95,2|0,3:2|0:0,0:0:0:0:
447,378,98917,2,0,B|489:349|489:349|526:272,1,104.500003189087,2|0,0:2|0:0,0:0:0:0:
241,382,99105,2,0,B|199:353|199:353|162:276,1,113.999996520996,10|0,0:2|0:0,0:0:0:0:
426,170,99292,6,0,B|446:239|386:262|386:262|338:231|359:200|359:200|341:181|341:181|374:134|349:84|349:84|354:69|354:69|350:53|335:36,1,370.499983039857,2|0,0:1|0:0,0:0:0:0:
286,126,99667,2,0,L|238:135,6,30.8749985866547
278,106,99855,6,0,P|270:72|246:34,1,71.25,14|0,3:2|0:0,0:0:0:0:
77,59,100230,6,0,P|120:65|156:60,1,80.750001540184,6|0,3:2|0:0,0:0:0:0:
245,204,100417,2,0,P|202:210|166:205,1,80.750001540184,2|0,0:2|0:0,0:0:0:0:
58,339,100605,2,0,P|101:345|137:340,1,80.750001540184,10|0,0:2|0:0,0:0:0:0:
350,331,100792,2,0,P|270:287|188:301,1,161.500003080368,6|0,3:2|0:0,0:0:0:0:
118,83,101167,1,10,0:2:0:0:
343,222,101355,1,6,3:2:0:0:
117,265,101542,1,2,1:2:0:0:
400,144,101730,6,0,B|320:106|246:148|246:148|294:118|318:72,1,242.250004620552,6|0,3:2|0:0,0:0:0:0:
313,77,102105,1,10,0:2:0:0:
416,296,102292,2,0,P|386:228|244:262,1,242.250004620552,6|0,3:2|0:0,0:0:0:0:
247,276,102667,1,10,0:2:0:0:
416,102,102855,1,6,3:2:0:0:
326,296,103042,1,2,1:2:0:0:
174,91,103230,6,0,P|223:111|255:170,1,95,6|0,3:2|0:0,0:0:0:0:
6,134,103417,2,0,P|-1:83|20:36,1,95,0|0,3:2|0:0,0:0:0:0:
128,261,103605,2,0,P|87:292|36:297,1,95,10|0,0:2|0:0,0:0:0:0:
216,84,103792,2,0,B|310:51|400:116|400:116|379:71|333:52,1,285,6|0,3:2|0:0,0:0:0:0:
322,53,104167,1,10,0:2:0:0:
177,318,104355,2,0,B|107:261|113:175|113:175|176:193|235:183,1,285,6|0,3:2|1:2,0:0:0:0:
413,133,104730,6,0,L|431:2,1,109.250002083778,6|0,3:2|0:0,0:0:0:0:
407,23,104917,2,0,L|392:132,1,109.250002083778,2|0,0:2|0:0,0:0:0:0:
357,335,105105,2,0,L|339:204,1,109.250002083778,2|0,3:2|0:0,0:0:0:0:
363,225,105292,2,0,L|378:334,1,109.250002083778,10|0,0:2|0:0,0:0:0:0:
222,361,105480,6,0,P|177:312|262:307,1,163.875003125668,0|0,0:0|0:0,0:0:0:0:
258,293,105667,1,2,0:1:0:0:
258,126,105855,6,0,B|222:166|237:205|263:210|263:210|285:241|268:273|253:300,1,190,10|0,0:2|0:0,0:0:0:0:
302,359,106136,1,0,0:0:0:0:
377,333,106230,6,0,P|269:329|170:381,1,199.499993911743,0|0,0:0|0:0,0:0:0:0:
127,317,106605,1,2,1:2:0:0:
259,168,106792,1,2,0:3:0:0:
246,205,106886,1,0,0:0:0:0:
212,227,106980,2,0,P|164:220|71:241,1,132.999995941162,0|2,0:0|0:3,0:0:0:0:
221,66,107355,2,0,P|184:98|141:183,1,132.999995941162,2|2,1:2|0:3,0:0:0:0:
312,244,107730,6,0,P|360:247|446:289,1,132.999995941162,0|2,0:0|0:3,0:0:0:0:
339,85,108105,2,0,P|361:113|371:142,1,66.4999979705811,2|0,1:2|0:0,0:0:0:0:
449,217,108292,2,0,P|447:250|435:281,1,66.4999979705811,2|0,0:2|0:0,0:0:0:0:
243,347,108480,2,0,B|275:298|377:299|346:409|483:373,1,265.999991882324,0|2,0:0|1:2,0:0:0:0:
308,200,109042,1,2,0:3:0:0:
269,210,109136,1,0,0:0:0:0:
230,202,109230,6,0,P|127:190|39:253,1,199.499993911743,0|0,0:0|0:0,0:0:0:0:
56,258,109605,2,0,P|78:189|68:122,1,132.999995941162,2|2,1:2|0:3,0:0:0:0:
229,201,109980,2,0,P|191:256|135:290,1,132.999995941162,0|2,0:0|1:3,0:0:0:0:
173,364,110355,2,0,P|239:375|302:358,1,132.999995941162,2|2,1:2|1:3,0:0:0:0:
327,153,110730,6,0,B|374:259|374:259|422:176,1,199.499993911743,0|0,0:0|0:0,0:0:0:0:
424,174,111105,1,2,1:2:0:0:
254,54,111292,1,2,1:3:0:0:
456,61,111480,2,0,B|357:102|336:16|245:76,1,199.499993911743,0|0,1:0|0:0,0:0:0:0:
277,199,111855,2,0,P|294:154|260:62,1,132.999995941162,6|0,1:2|0:0,0:0:0:0:
23,140,112230,6,0,P|115:107|208:140,1,199.499993911743,0|0,0:0|0:0,0:0:0:0:
271,74,112605,1,2,1:2:0:0:
470,176,112792,1,2,0:3:0:0:
432,165,112886,1,0,0:0:0:0:
394,180,112980,2,0,P|345:204|253:194,1,132.999995941162,0|2,0:0|0:3,0:0:0:0:
205,279,113261,1,0,0:0:0:0:
179,247,113355,2,0,P|130:223|38:233,1,132.999995941162,2|2,1:2|0:3,0:0:0:0:
0,312,113636,1,0,0:0:0:0:
26,344,113730,6,0,P|75:368|167:358,1,132.999995941162,0|2,0:0|0:3,0:0:0:0:
287,154,114105,2,0,P|265:182|255:211,1,66.4999979705811,2|0,1:2|0:0,0:0:0:0:
307,295,114292,2,0,P|308:328|320:359,1,66.4999979705811,2|0,1:2|0:0,0:0:0:0:
445,256,114480,2,0,B|460:220|428:179|428:179|393:235|390:306|452:370,1,265.999991882324,0|2,0:0|1:2,0:0:0:0:
465,75,115042,5,2,0:3:0:0:
392,88,115136,1,0,0:0:0:0:
320,102,115230,1,2,0:2:0:0:
312,116,115605,6,0,L|294:277,1,132.999995941162,2|2,1:2|0:3,0:0:0:0:
163,46,115980,2,0,L|181:207,1,132.999995941162,2|2,1:2|0:3,0:0:0:0:
202,323,116261,1,0,0:0:0:0:
231,287,116355,2,0,P|174:259|85:291,1,132.999995941162,2|2,1:2|0:3,0:0:0:0:
0,356,116636,1,0,0:0:0:0:
29,285,116730,6,0,B|73:196|13:80|57:84|57:84|52:124|87:154,1,270.749992770195,2|0,3:0|0:0,0:0:0:0:
196,149,117105,2,0,B|165:167|136:170|136:170|155:141|155:141|131:118|129:77|172:23|291:52,1,270.749992770195,2|0,3:0|0:0,0:0:0:0:
334,200,117480,6,0,B|305:163|305:163|371:170|371:170|324:129|324:129|354:118|354:118|309:78|309:78|420:110|474:38,1,418.000012756348,14|0,0:2|0:0,0:0:0:0:
