osu file format v14

[General]
AudioFilename: audio.mp3
AudioLeadIn: 0
PreviewTime: 35730
Countdown: 0
SampleSet: Soft
StackLeniency: 0.5
Mode: 0
LetterboxInBreaks: 0
WidescreenStoryboard: 1

[Editor]
Bookmarks: 13230,23730,35730,59730,70230,82230
DistanceSpacing: 1.4
BeatDivisor: 4
GridSize: 32
TimelineZoom: 3.799998

[Metadata]
Title:A Bella! (feat. Lucy)
TitleUnicode:A Bella! (feat. Lucy)
Artist:M2U
ArtistUnicode:M2U
Creator:IceKalt
Version:Advanced
Source:하이파이브
Tags:HIGH5 DIVERSITY. UICY-15598 Drug Step SQUARE MUSIQ Original Soundtrack OST PNIX Games cococolaco fizz -_frontier_- celektus
BeatmapID:1690861
BeatmapSetID:799084

[Difficulty]
HPDrainRate:5
CircleSize:3.6
OverallDifficulty:5
ApproachRate:6
SliderMultiplier:1.2
SliderTickRate:1

[Events]
//Background and Video events
0,0,"bella.jpg",0,0
//Break Periods
2,59730,64680
2,106230,115680
//Storyboard Layer 0 (Background)
//Storyboard Layer 1 (Fail)
//Storyboard Layer 2 (Pass)
//Storyboard Layer 3 (Foreground)
//Storyboard Sound Samples

[TimingPoints]
-270,375,4,2,1,10,1,0
855,-100,4,2,1,40,0,0
1230,-100,4,2,1,85,0,0
13230,-125,4,2,1,60,0,0
22792,-125,4,2,1,70,0,0
23730,-111.111111111111,4,2,1,70,0,0
35730,-83.3333333333333,4,2,1,85,0,1
59730,-83.3333333333333,4,2,1,60,0,0
65730,-90.9090909090909,4,2,1,60,0,0
70230,-111.111111111111,4,2,1,70,0,0
82230,-83.3333333333333,4,2,1,85,0,1
86730,-83.3333333333333,4,2,1,70,0,1
88230,-83.3333333333333,4,2,1,85,0,1
106230,-83.3333333333333,4,2,1,55,0,0
116730,-83.3333333333333,4,2,1,80,0,0
117855,-83.3333333333333,4,2,1,5,0,0

[Colours]
Combo1 : 225,73,0
Combo2 : 255,98,255
Combo3 : 147,18,255
Combo4 : 255,143,89

[HitObjects]
68,82,855,5,2,0:2:0:0:
68,82,1230,2,0,L|200:96,1,120,6|2,3:2|1:2,0:0:0:0:
244,155,1792,2,0,P|292:147|348:92,1,120,6|2,3:2|1:2,0:0:0:0:
344,16,2355,1,2,3:2:0:0:
344,16,2542,1,2,1:2:0:0:
427,27,2730,2,0,P|463:60|481:143,1,120,6|2,3:2|1:2,0:0:0:0:
446,202,3292,2,0,L|441:326,1,120,6|2,3:2|1:2,0:0:0:0:
366,361,3855,2,0,L|283:365,1,60,2|2,3:2|1:2,0:0:0:0:
242,308,4230,6,0,P|249:277|246:240,2,60,6|2|2,3:2|1:2|1:2,0:0:0:0:
164,338,4792,2,0,L|35:345,1,120,6|2,3:2|1:2,0:0:0:0:
8,267,5355,1,2,3:2:0:0:
47,193,5542,1,2,1:2:0:0:
11,116,5730,2,0,B|81:62|81:62|169:113,1,180,6|2,3:2|0:2,0:0:0:0:
293,210,6667,1,2,1:2:0:0:
293,210,6855,2,0,P|296:175|312:141,1,60,2|2,3:2|1:3,0:0:0:0:
327,71,7230,6,0,P|392:83|461:70,1,120,6|2,3:2|1:2,0:0:0:0:
500,138,7792,2,0,P|507:197|495:255,1,120,6|2,3:2|1:2,0:0:0:0:
422,297,8355,1,2,3:2:0:0:
422,297,8542,1,2,1:2:0:0:
347,257,8730,2,0,L|345:176,2,60,6|2|2,3:2|1:2|1:2,0:0:0:0:
297,324,9292,2,0,B|280:341|252:353|163:311,1,120,6|2,3:2|1:2,0:0:0:0:
100,324,9855,2,0,P|72:319|42:302,1,60,2|2,3:2|1:2,0:0:0:0:
24,222,10230,5,6,3:2:0:0:
42,140,10417,1,2,3:2:0:0:
116,99,10605,1,2,1:2:0:0:
199,99,10792,2,0,P|242:117|319:107,1,120,6|2,3:2|1:2,0:0:0:0:
373,49,11355,2,0,L|438:55,1,60,2|2,3:2|1:2,0:0:0:0:
454,135,11730,2,0,L|372:128,2,60,2|2|2,3:2|0:2|3:2,0:0:0:0:
511,196,12292,1,0,0:0:0:0:
472,271,12480,1,2,3:2:0:0:
472,271,12855,2,0,L|380:285,1,90,4|0,1:2|0:0,0:0:0:0:
369,301,13230,6,0,L|253:294,1,96,6|10,3:2|0:2,0:0:0:0:
224,326,13792,2,0,L|128:331,1,96,2|10,3:2|0:2,0:0:0:0:
78,301,14355,1,2,3:2:0:0:
110,190,14730,2,0,L|108:129,2,48,0|2|10,3:2|0:2|0:2,0:0:0:0:
157,222,15292,2,0,B|236:244|223:196|319:226,1,144,2|2,3:2|3:2,0:0:0:0:
375,142,16230,6,0,L|434:146,2,48,6|2|10,3:2|0:2|0:2,0:0:0:0:
322,119,16792,2,0,P|253:118|184:89,1,144,2|2,3:2|3:2,0:0:0:0:
153,48,17542,1,10,0:2:0:0:
153,48,17730,1,2,3:2:0:0:
153,48,18855,2,0,L|59:39,1,72,10|0,3:2|0:0,0:0:0:0:
64,54,19230,6,0,L|54:151,1,96,6|10,3:2|0:2,0:0:0:0:
26,199,19792,2,0,L|36:296,1,96,2|10,3:2|0:2,0:0:0:0:
80,331,20355,1,2,3:2:0:0:
190,298,20730,2,0,P|241:280|282:277,1,96,2|10,3:2|0:2,0:0:0:0:
325,315,21292,2,0,P|361:351|401:283,1,144,2|2,3:2|3:2,0:0:0:0:
384,239,22042,1,10,0:2:0:0:
398,183,22230,6,0,P|408:153|406:121,1,48,6|2,3:2|3:2,0:0:0:0:
351,36,22792,2,0,L|249:35,1,96,6|0,3:2|1:0,0:0:0:0:
207,68,23355,2,0,L|115:79,1,72,6|0,3:2|0:0,0:0:0:0:
116,95,23730,6,0,P|128:148|116:213,1,107.999996704102,6|0,3:2|3:2,0:0:0:0:
69,255,24292,2,0,B|195:229|224:309,1,161.999995056153,2|2,0:3|3:2,0:0:0:0:
349,363,25230,2,0,P|337:310|349:245,1,107.999996704102,2|2,3:2|3:2,0:0:0:0:
396,203,25792,2,0,B|270:229|241:149,1,161.999995056153,2|2,0:3|3:2,0:0:0:0:
171,35,26730,6,0,L|106:44,2,53.9999983520508,4|2|2,3:2|0:3|3:2,0:0:0:0:
238,68,27292,2,0,B|323:114|412:60,1,161.999995056153,2|2,0:3|3:2,0:0:0:0:
489,187,28230,2,0,L|500:252,2,53.9999983520508,2|2|2,1:2|1:2|1:2,0:0:0:0:
414,172,28792,2,0,L|317:179,1,80.9999975280763,2|0,3:2|0:0,0:0:0:0:
312,197,29168,1,2,0:3:0:0:
312,197,29355,1,4,3:2:0:0:
208,87,29730,6,0,P|155:75|90:87,1,107.999996704102,6|0,3:2|3:2,0:0:0:0:
69,150,30292,2,0,B|43:276|123:305,1,161.999995056153,2|2,0:3|3:2,0:0:0:0:
244,357,31230,2,0,P|297:369|362:357,1,107.999996704102,2|2,3:2|3:2,0:0:0:0:
383,294,31792,2,0,B|409:168|329:139,1,161.999995056153,2|2,0:3|3:2,0:0:0:0:
196,121,32730,6,0,P|190:153|194:192,2,53.9999983520508,4|2|2,3:2|1:2|3:2,0:0:0:0:
257,77,33292,2,0,B|342:123|411:80,1,161.999995056153,2|2,0:3|3:2,0:0:0:0:
410,80,34230,2,0,L|418:154,1,53.9999983520508,2|2,3:2|1:2,0:0:0:0:
459,202,34605,1,2,1:2:0:0:
459,202,34792,1,2,3:1:0:0:
372,339,35167,2,0,P|260:329|223:331,1,134.999995880127,6|0,3:2|0:0,0:0:0:0:
217,344,35730,6,0,L|192:195,1,143.999995605469,6|10,3:2|0:2,0:0:0:0:
120,155,36292,2,0,P|107:113|119:58,1,71.9999978027344,6|0,3:2|0:0,0:0:0:0:
170,22,36667,1,10,0:2:0:0:
241,70,36855,2,0,P|253:111|241:166,1,71.9999978027344,6|2,3:2|1:2,0:0:0:0:
193,201,37230,6,0,L|206:281,1,71.9999978027344,6|2,3:2|0:2,0:0:0:0:
277,319,37605,2,0,B|356:278|374:383|490:325,1,215.999993408203,10|8,0:2|0:2,0:0:0:0:
505,242,38355,1,6,3:2:0:0:
419,91,38730,6,0,P|344:117|259:112,1,143.999995605469,6|10,3:2|0:2,0:0:0:0:
216,58,39292,2,0,P|151:25|106:73,1,143.999995605469,6|10,3:2|0:2,0:0:0:0:
138,150,39855,2,0,L|143:249,1,71.9999978027344,6|2,3:2|1:2,0:0:0:0:
186,296,40230,5,6,3:2:0:0:
259,250,40417,1,2,0:2:0:0:
332,295,40605,1,10,3:2:0:0:
405,249,40792,2,0,B|420:189|420:189|409:192|409:192|412:115,1,143.999995605469,2|10,0:3|0:2,0:0:0:0:
327,103,41355,2,0,P|282:119|217:121,1,107.999996704102,6|0,3:2|1:2,0:0:0:0:
207,104,41730,6,0,P|161:102|116:117,1,71.9999978027344,6|2,3:2|0:2,0:0:0:0:
83,177,42105,1,10,0:2:0:0:
86,263,42292,2,0,P|122:294|170:305,1,71.9999978027344,6|0,3:2|0:0,0:0:0:0:
203,365,42667,1,10,0:2:0:0:
263,302,42855,2,0,P|295:287|321:262,1,71.9999978027344,6|2,3:2|1:2,0:0:0:0:
348,180,43230,6,0,L|500:192,1,143.999995605469,6|10,3:2|0:2,0:0:0:0:
508,106,43792,2,0,P|452:66|372:40,1,143.999995605469,6|10,3:2|0:2,0:0:0:0:
301,75,44355,1,6,3:2:0:0:
228,29,44542,1,2,1:2:0:0:
169,92,44730,6,0,L|180:168,2,71.9999978027344,6|0|10,3:2|3:2|0:2,0:0:0:0:
101,38,45292,2,0,P|41:63|33:154,1,143.999995605469,6|10,3:2|0:2,0:0:0:0:
91,189,45855,2,0,P|105:232|93:283,1,71.9999978027344,6|0,3:2|0:0,0:0:0:0:
82,342,46230,6,0,L|153:335,1,71.9999978027344,6|2,3:2|0:2,0:0:0:0:
239,323,46605,2,0,L|310:316,1,71.9999978027344,2|10,3:2|0:2,0:0:0:0:
367,249,46980,1,0,0:0:0:0:
420,316,47167,2,0,L|491:323,2,71.9999978027344,2|2|2,0:2|0:2|0:2,0:0:0:0:
367,249,47730,6,0,P|365:179|342:100,1,143.999995605469,6|10,3:2|0:2,0:0:0:0:
265,74,48292,2,0,P|223:87|168:75,1,71.9999978027344,6|0,3:2|0:0,0:0:0:0:
131,26,48667,1,10,0:2:0:0:
65,82,48855,2,0,P|53:123|65:178,1,71.9999978027344,6|2,3:2|1:2,0:0:0:0:
129,196,49230,6,0,L|129:292,1,71.9999978027344,6|2,3:2|0:2,0:0:0:0:
74,335,49605,2,0,B|167:284|167:284|254:351,1,215.999993408203,10|8,0:2|0:2,0:0:0:0:
339,363,50355,1,6,3:2:0:0:
457,237,50730,6,0,P|456:165|431:98,1,143.999995605469,6|10,3:2|0:2,0:0:0:0:
376,32,51292,2,0,P|297:17|281:86,1,143.999995605469,6|10,3:2|0:2,0:0:0:0:
324,135,51855,2,0,L|318:224,1,71.9999978027344,6|2,3:2|1:2,0:0:0:0:
363,281,52230,6,0,P|423:286|453:283,2,71.9999978027344,2|2|10,3:2|0:2|0:2,0:0:0:0:
296,336,52792,2,0,B|234:337|234:337|200:311|145:338,1,143.999995605469,10|10,0:2|0:2,0:0:0:0:
74,362,53355,2,0,P|76:290|71:246,1,107.999996704102,14|0,3:2|0:0,0:0:0:0:
87,229,53730,6,0,P|133:231|178:216,1,71.9999978027344,6|2,3:2|0:2,0:0:0:0:
227,173,54105,1,10,0:2:0:0:
154,125,54292,2,0,P|147:89|151:53,1,71.9999978027344,6|0,3:2|0:0,0:0:0:0:
223,6,54667,1,10,0:2:0:0:
295,53,54855,2,0,P|301:88|297:124,1,71.9999978027344,6|2,3:2|1:2,0:0:0:0:
227,173,55230,6,0,L|379:185,1,143.999995605469,6|10,3:2|0:2,0:0:0:0:
436,239,55792,2,0,P|446:309|397:378,1,143.999995605469,6|10,3:2|0:2,0:0:0:0:
332,329,56355,1,6,3:2:0:0:
254,367,56542,1,2,1:2:0:0:
175,329,56730,6,0,L|164:257,2,71.9999978027344,6|0|10,3:2|3:2|0:2,0:0:0:0:
100,372,57292,2,0,P|40:347|32:256,1,143.999995605469,6|10,3:2|0:2,0:0:0:0:
88,217,57855,2,0,P|89:181|76:147,1,71.9999978027344,6|0,3:2|0:0,0:0:0:0:
67,61,58230,6,0,L|153:52,1,71.9999978027344,6|2,3:2|0:2,0:0:0:0:
224,42,58605,2,0,L|310:33,1,71.9999978027344,2|10,3:2|0:2,0:0:0:0:
381,21,58980,2,0,B|382:97|421:134|421:134|448:132|464:112,1,143.999995605469,0|10,0:0|0:2,0:0:0:0:
117,97,65730,6,0,P|85:103|53:100,2,66.0000020141602,6|2|2,3:2|0:2|1:2,0:0:0:0:
180,48,66292,2,0,B|249:23|250:64|310:47,1,132.00000402832,6|2,3:2|1:2,0:0:0:0:
373,94,66855,2,0,P|366:142|369:170,1,66.0000020141602,2|2,3:2|1:2,0:0:0:0:
420,218,67230,1,6,3:2:0:0:
394,292,67417,2,0,P|343:312|245:292,1,132.00000402832,2|6,0:2|3:2,0:0:0:0:
113,341,68167,2,0,P|117:301|113:255,1,66.0000020141602,2|2,1:2|3:2,0:0:0:0:
38,136,68730,6,0,B|111:133|143:86|143:86|183:109|192:149,1,198.000006042481,2|2,3:2|0:2,0:0:0:0:
206,221,69480,1,14,0:2:0:0:
360,185,69855,1,14,0:2:0:0:
474,246,70230,6,0,P|486:299|474:364,1,107.999996704102,6|0,3:2|3:2,0:0:0:0:
404,363,70792,2,0,B|370:306|249:340,1,161.999995056153,2|2,0:3|3:2,0:0:0:0:
103,330,71730,2,0,P|91:277|103:212,1,107.999996704102,2|2,3:2|3:2,0:0:0:0:
173,213,72292,2,0,B|207:270|328:236,1,161.999995056153,2|2,0:3|3:2,0:0:0:0:
410,114,73230,6,0,L|468:125,2,53.9999983520508,4|2|2,3:2|0:3|3:2,0:0:0:0:
352,64,73792,2,0,B|288:5|199:39,1,161.999995056153,2|2,0:3|3:2,0:0:0:0:
92,143,74730,2,0,L|34:154,2,53.9999983520508,2|2|2,1:2|1:2|1:2,0:0:0:0:
162,169,75292,2,0,P|168:212|170:259,1,80.9999975280763,2|0,3:2|0:0,0:0:0:0:
162,272,75668,1,2,0:3:0:0:
162,272,75855,1,4,3:2:0:0:
277,369,76230,6,0,P|330:376|382:364,1,107.999996704102,6|0,3:2|3:2,0:0:0:0:
401,291,76792,2,0,B|345:240|407:133,1,161.999995056153,2|2,0:3|3:2,0:0:0:0:
313,18,77730,2,0,P|259:10|207:22,1,107.999996704102,2|2,3:2|3:2,0:0:0:0:
189,96,78292,2,0,B|244:146|182:253,1,161.999995056153,2|2,0:3|3:2,0:0:0:0:
74,346,79230,6,0,P|47:349|19:340,2,53.9999983520508,4|2|2,3:2|1:2|3:2,0:0:0:0:
147,329,79792,2,0,B|230:381|289:336|289:336|279:313,1,161.999995056153,2|2,0:3|3:2,0:0:0:0:
351,190,80730,2,0,B|383:198|383:198|408:191,1,53.9999983520508,2|2,3:2|1:2,0:0:0:0:
467,152,81105,1,2,1:2:0:0:
467,152,81292,1,2,3:1:0:0:
375,34,81667,2,0,B|343:38|333:43|333:43|322:40|299:44|286:34|286:34|273:44|222:40,1,134.999995880127,6|0,3:2|0:0,0:0:0:0:
223,55,82230,6,0,L|198:204,1,143.999995605469,6|10,3:2|0:2,0:0:0:0:
126,244,82792,2,0,P|113:286|125:341,1,71.9999978027344,6|0,3:2|0:0,0:0:0:0:
176,377,83167,1,10,0:2:0:0:
247,329,83355,2,0,P|259:288|247:233,1,71.9999978027344,6|2,3:2|1:2,0:0:0:0:
330,213,83730,6,0,P|363:229|418:231,1,71.9999978027344,6|2,3:2|0:2,0:0:0:0:
467,182,84105,2,0,B|464:129|502:83|502:83|456:120|389:115,1,215.999993408203,10|8,0:2|0:2,0:0:0:0:
332,63,84855,1,6,3:2:0:0:
162,98,85230,6,0,P|171:169|158:246,1,143.999995605469,6|10,3:2|0:2,0:0:0:0:
79,271,85792,2,0,P|45:335|94:381,1,143.999995605469,6|10,3:2|0:2,0:0:0:0:
170,347,86355,2,0,L|247:351,1,71.9999978027344,6|2,3:2|1:2,0:0:0:0:
323,320,86730,5,2,0:2:0:0:
323,320,87480,2,0,B|344:271|312:257|325:238|325:238|313:205,1,107.999996704102,2|0,0:2|0:0,0:0:0:0:
299,203,87855,2,0,B|278:154|310:140|297:121|297:121|299:89,1,107.999996704102,10|0,0:2|0:0,0:0:0:0:
317,87,88230,6,0,P|363:89|408:74,1,71.9999978027344,6|2,3:2|0:2,0:0:0:0:
456,30,88605,1,10,0:2:0:0:
490,109,88792,2,0,P|492:155|477:200,1,71.9999978027344,6|0,3:2|0:0,0:0:0:0:
437,251,89167,1,10,0:2:0:0:
350,240,89355,2,0,L|264:239,1,71.9999978027344,6|2,3:2|1:2,0:0:0:0:
226,309,89730,6,0,L|212:132,1,143.999995605469,6|10,3:2|0:2,0:0:0:0:
250,87,90292,2,0,P|194:47|111:54,1,143.999995605469,6|10,3:2|0:2,0:0:0:0:
69,119,90855,1,6,3:2:0:0:
122,186,91042,1,2,1:2:0:0:
70,255,91230,6,0,L|-16:268,2,71.9999978027344,6|0|10,3:2|3:2|0:2,0:0:0:0:
145,297,91792,2,0,P|170:357|261:365,1,143.999995605469,6|10,3:2|0:2,0:0:0:0:
296,307,92355,2,0,P|339:293|390:305,1,71.9999978027344,6|0,3:2|0:0,0:0:0:0:
445,328,92730,6,0,L|443:238,1,71.9999978027344,6|2,3:2|0:2,0:0:0:0:
441,169,93105,2,0,L|439:79,1,71.9999978027344,2|10,3:2|0:2,0:0:0:0:
437,10,93480,1,0,0:0:0:0:
351,19,93667,2,0,L|256:11,2,71.9999978027344,10|2|2,0:2|1:2|1:2,0:0:0:0:
358,105,94230,6,0,P|318:163|232:195,1,143.999995605469,6|10,3:2|0:2,0:0:0:0:
181,146,94792,2,0,P|139:133|84:145,1,71.9999978027344,6|0,3:2|0:0,0:0:0:0:
34,175,95167,1,10,0:2:0:0:
57,258,95355,2,0,P|80:285|111:302,1,71.9999978027344,6|2,3:2|1:2,0:0:0:0:
191,268,95730,6,0,L|272:275,1,71.9999978027344,6|2,3:2|0:2,0:0:0:0:
341,310,96105,2,0,B|381:250|336:229|376:166|376:166|359:128|366:98,1,215.999993408203,10|8,0:2|0:2,0:0:0:0:
411,30,96855,1,6,3:2:0:0:
251,96,97230,6,0,P|180:82|118:46,1,143.999995605469,6|10,3:2|0:2,0:0:0:0:
35,68,97792,2,0,P|29:148|100:155,1,143.999995605469,6|10,3:2|0:2,0:0:0:0:
154,207,98355,2,0,L|148:296,1,71.9999978027344,6|2,3:2|1:2,0:0:0:0:
202,347,98730,5,2,3:2:0:0:
277,304,98917,1,2,0:2:0:0:
351,347,99105,1,10,0:2:0:0:
426,306,99292,2,0,B|438:272|429:245|429:245|445:227|445:227|425:194|419:149,1,143.999995605469,2|2,0:1|0:1,0:0:0:0:
440,88,99855,2,0,P|380:73|313:72,1,107.999996704102,14|0,3:2|0:0,0:0:0:0:
315,82,100230,6,0,P|269:84|224:69,1,71.9999978027344,6|2,3:2|0:2,0:0:0:0:
168,36,100605,1,10,0:2:0:0:
143,118,100792,2,0,P|117:143|86:161,1,71.9999978027344,6|0,3:2|0:0,0:0:0:0:
13,208,101167,1,10,0:2:0:0:
50,285,101355,2,0,L|56:365,1,71.9999978027344,6|2,3:2|1:2,0:0:0:0:
139,376,101730,6,0,L|283:362,1,143.999995605469,6|10,3:2|0:2,0:0:0:0:
366,381,102292,2,0,P|402:320|392:250,1,143.999995605469,6|10,3:2|0:2,0:0:0:0:
327,193,102855,1,6,3:2:0:0:
394,139,103042,1,2,1:2:0:0:
326,84,103230,6,0,L|332:10,2,71.9999978027344,6|0|10,3:2|3:2|0:2,0:0:0:0:
253,131,103792,2,0,P|177:130|118:96,1,143.999995605469,6|10,3:2|0:2,0:0:0:0:
72,24,104355,2,0,P|26:35|0:59,1,71.9999978027344,6|0,3:2|0:0,0:0:0:0:
0,136,104730,6,0,L|7:211,1,71.9999978027344,6|2,3:2|0:2,0:0:0:0:
16,293,105105,2,0,L|23:368,1,71.9999978027344,2|10,3:2|0:2,0:0:0:0:
107,382,105480,2,0,B|159:378|190:333|190:333|166:308|139:310,1,143.999995605469,0|10,0:0|0:2,0:0:0:0:
111,245,116730,6,0,B|165:245|165:245|186:229|229:229,1,107.999996704102,2|0,3:0|0:0,0:0:0:0:
234,232,117105,2,0,B|263:231|284:247|284:247|338:247,1,107.999996704102,2|0,3:0|0:0,0:0:0:0:
352,235,117480,2,0,B|372:199|372:199|348:187|348:187|365:156|348:95,1,143.999995605469,14|0,0:2|0:0,0:0:0:0:
