osu file format v14

[General]
AudioFilename: A Bella!.mp3
AudioLeadIn: 0
PreviewTime: 35730
Countdown: 0
SampleSet: Soft
StackLeniency: 0.7
Mode: 0
LetterboxInBreaks: 0
WidescreenStoryboard: 0

[Editor]
DistanceSpacing: 0.9
BeatDivisor: 4
GridSize: 8
TimelineZoom: 1

[Metadata]
Title:A Bella! (feat. Lucy)
TitleUnicode:A Bella! (feat. Lucy)
Artist:M2U
ArtistUnicode:M2U
Creator:Crimmi
Version:Normal
Source:HIGH5
Tags:Side NazuSan Elcheer CrimmiSkye Kakao Android iOS 하이파이브 Rex Shin SQUARE MUSIQ PNIX GAMES
BeatmapID:937427
BeatmapSetID:431534

[Difficulty]
HPDrainRate:5
CircleSize:3
OverallDifficulty:4
ApproachRate:5
SliderMultiplier:1.1
SliderTickRate:2

[Events]
//Background and Video events
0,0,"anime_girl_tenderness_wind_ring_sadness_15014_1366x768.jpg",0,0
//Break Periods
2,59930,64530
//Storyboard Layer 0 (Background)
//Storyboard Layer 1 (Fail)
//Storyboard Layer 2 (Pass)
//Storyboard Layer 3 (Foreground)
//Storyboard Sound Samples

[TimingPoints]
1230,375,4,2,0,50,1,0
35730,-100,4,1,0,75,0,1
47355,-100,4,2,0,5,0,0
47730,-100,4,1,0,75,0,1
52792,-100,4,2,0,5,0,1
53730,-100,4,1,0,50,0,1
59730,-100,4,2,0,5,0,0
65730,-100,4,2,0,50,0,0
74730,-100,4,1,0,5,0,0
76230,-100,4,2,0,50,0,0
82230,-100,4,1,0,75,0,1
86730,-100,4,2,0,5,0,1
88230,-100,4,1,0,75,0,1
93480,-100,4,2,0,5,0,0
94230,-100,4,1,0,75,0,1
99292,-100,4,2,0,5,0,1
100230,-100,4,1,0,75,0,1
106230,-100,4,2,0,50,0,0
116730,-100,4,1,0,75,0,0

[Colours]
Combo1 : 221,187,255
Combo2 : 128,255,255
Combo3 : 255,183,219
Combo4 : 255,255,255

[HitObjects]
480,352,1230,6,0,L|360:352,1,110,4|8,0:0|0:0,0:0:0:0:
312,352,1792,1,2,0:0:0:0:
144,352,2355,1,2,0:0:0:0:
88,352,2542,1,0,0:0:0:0:
32,352,2730,2,0,P|16:296|104:240,1,165,0|8,0:0|0:0,0:0:0:0:
192,280,3667,2,0,L|264:312,2,55,0|2|0,0:0|0:0|0:0,0:0:0:0:
144,264,4230,6,0,L|208:144,1,110,0|8,0:0|0:0,0:0:0:0:
224,120,4792,1,0,0:0:0:0:
376,192,5355,1,2,0:0:0:0:
424,216,5542,1,0,0:0:0:0:
472,240,5730,2,0,P|464:288|344:312,1,165
244,276,6855,1,2,0:0:0:0:
196,276,7042,1,0,0:0:0:0:
148,276,7230,6,0,P|135:191|196:124,1,165,4|8,0:0|0:0,0:0:0:0:
280,104,8167,1,0,0:0:0:0:
296,160,8355,1,2,0:0:0:0:
312,216,8542,1,0,0:0:0:0:
328,272,8730,2,0,P|384:296|464:224,1,165,0|8,0:0|0:0,0:0:0:0:
416,136,9667,2,0,L|384:64,2,55,0|2|0,0:0|0:0|0:0,0:0:0:0:
440,184,10230,6,0,L|320:232,1,110
288,248,10792,1,8,0:0:0:0:
184,288,11167,1,0,0:0:0:0:
144,248,11355,1,2,0:0:0:0:
104,208,11542,1,0,0:0:0:0:
64,168,11730,2,0,P|96:112|200:136,1,165,0|8,0:0|0:0,0:0:0:0:
216,168,12480,1,0,0:0:0:0:
280,256,12855,1,2,0:0:0:0:
352,336,13230,6,0,P|376:304|360:184,1,165,4|2,0:0|0:0,0:0:0:0:
296,96,14167,2,0,L|368:72,2,55
240,112,14730,2,0,P|256:176|360:184,1,165,0|2,0:0|0:0,0:0:0:0:
440,144,15667,1,0,0:0:0:0:
440,256,16230,6,0,L|272:296,1,165,2|2,0:0|0:0,0:0:0:0:
176,320,17167,1,0,0:0:0:0:
160,264,17355,1,2,0:0:0:0:
144,208,17542,1,0,0:0:0:0:
128,152,17730,2,0,P|160:120|240:112,1,110,0|2,0:0|0:0,0:0:0:0:
216,216,18480,1,0,0:0:0:0:
112,256,18855,1,2,0:0:0:0:
112,256,19230,6,0,P|136:296|264:320,1,165,0|2,0:0|0:0,0:0:0:0:
344,264,20167,2,0,L|408:224,2,55,0|2|0,0:0|0:0|0:0,0:0:0:0:
296,288,20730,2,0,L|240:176,1,110
224,144,21292,1,2,0:0:0:0:
176,40,21667,1,0,0:0:0:0:
176,40,21855,1,2,0:0:0:0:
104,128,22230,2,0,L|88:200,1,55
64,288,22792,2,0,P|128:280|200:192,1,165,2|0,0:0|0:0,0:0:0:0:
232,104,23730,6,0,P|272:136|296:208,1,110,4|8,0:0|0:0,0:0:0:0:
256,224,24292,2,0,L|424:216,1,165,0|8,0:0|0:0,0:0:0:0:
472,312,25230,2,0,L|288:320,1,165,2|2,0:0|0:0,0:0:0:0:
200,320,26167,1,0,0:0:0:0:
200,320,26355,1,10,0:0:0:0:
32,320,26917,1,0,0:0:0:0:
40,264,27105,1,2,0:0:0:0:
48,208,27292,2,0,P|80:176|176:224,1,165,2|8,0:0|0:0,0:0:0:0:
280,256,28230,2,0,L|328:80,2,165,0|2|0,0:0|0:0|0:0,0:0:0:0:
208,344,29730,6,0,L|384:336,1,165,4|2,0:0|0:0,0:0:0:0:
504,328,30855,1,8,0:0:0:0:
504,328,31230,2,0,P|480:256|392:224,1,165,0|2,0:0|0:0,0:0:0:0:
296,240,32167,2,0,L|240:248,1,55,0|8,0:0|0:0,0:0:0:0:
136,264,32730,2,0,P|144:200|232:144,1,165,0|2,0:0|0:0,0:0:0:0:
328,168,33667,1,0,0:0:0:0:
376,184,33855,1,2,0:0:0:0:
480,216,34230,6,4,L|448:288,1,55
432,320,34605,1,2,0:0:0:0:
408,368,34792,2,0,P|360:360|320:296,1,110,4|4,0:0|0:0,0:0:0:0:
304,152,35730,6,0,L|208:216,1,110,4|0,0:0|0:0,0:0:0:0:
168,240,36292,2,0,P|120:200|152:112,1,165,8|2,0:0|0:0,0:0:0:0:
200,96,37042,2,0,L|232:152,1,55,0|8,0:0|0:0,0:0:0:0:
252,184,37417,1,0,0:0:0:0:
336,256,37792,2,0,L|448:192,1,110,2|0,0:0|0:0,0:0:0:0:
480,168,38355,1,8,0:0:0:0:
424,72,38730,6,0,L|320:112,1,110
272,128,39292,2,0,P|256:176|288:240,1,110,8|0,0:0|0:0,0:0:0:0:
328,256,39855,1,2,0:0:0:0:
424,304,40230,1,0,0:0:0:0:
432,248,40417,1,8,0:0:0:0:
432,136,40792,1,2,0:0:0:0:
328,184,41167,1,0,0:0:0:0:
328,184,41355,1,2,0:0:0:0:
224,152,41730,6,0,P|216:200|304:288,1,165,4|8,0:0|0:0,0:0:0:0:
384,328,42667,2,0,L|440:352,2,55,0|2|0,0:0|0:0|0:0,0:0:0:0:
336,304,43230,2,0,P|344:256|448:224,2,165,0|8|2,0:0|0:0|0:0,0:0:0:0:
232,272,44730,2,0,L|112:232,1,110,0|8,0:0|0:0,0:0:0:0:
72,216,45292,2,0,P|80:160|184:144,1,165,0|2,0:0|0:0,0:0:0:0:
240,224,46230,2,0,L|288:168,2,55,2|0|2,0:0|0:0|0:0,0:0:0:0:
200,264,46792,1,2,0:0:0:0:
160,296,46980,2,0,P|192:336|304:304,1,165
336,280,47730,5,4,0:0:0:0:
416,208,48105,1,8,0:0:0:0:
416,208,48292,2,0,P|368:176|256:208,1,165,0|2,0:0|0:0,0:0:0:0:
184,264,49230,2,0,P|168:224|216:112,2,165,0|8|2,0:0|0:0|0:0,0:0:0:0:
272,200,50730,2,0,L|448:200,2,165,0|8|2,0:0|0:0|0:0,0:0:0:0:
160,200,52230,2,0,P|176:128|264:88,1,165
352,136,53167,2,0,L|408:168,1,55
488,232,53730,6,0,P|432:272|336:248,1,165,4|8,0:0|0:0,0:0:0:0:
264,176,54667,1,0,0:0:0:0:
224,136,54855,1,2,0:0:0:0:
184,96,55042,1,0,0:0:0:0:
144,56,55230,2,0,P|91:86|56:198,2,165,0|8|2,0:0|0:0|0:0,0:0:0:0:
168,168,56730,6,0,L|200:280,1,110,0|8,0:0|0:0,0:0:0:0:
216,328,57292,2,0,P|288:328|352:264,1,165,0|2,0:0|0:0,0:0:0:0:
376,160,58230,2,0,L|432:176,2,55,0|0|8,0:0|0:0|0:0,0:0:0:0:
320,144,58792,1,0,0:0:0:0:
262,128,58980,2,0,P|241:181|355:264,1,220,2|4,0:0|0:0,0:0:0:0:
464,336,65730,6,0,L|352:336,1,110,4|8,0:0|0:0,0:0:0:0:
296,336,66292,1,0,0:0:0:0:
184,336,66667,1,0,0:0:0:0:
168,280,66855,1,2,0:0:0:0:
176,224,67042,1,0,0:0:0:0:
200,176,67230,2,0,L|376:168,1,165,0|2,0:0|0:0,0:0:0:0:
472,160,68167,2,0,L|464:224,1,55,0|2,0:0|0:0,0:0:0:0:
448,320,68730,6,0,P|416:312|368:232,1,110,4|2,0:0|0:0,0:0:0:0:
352,144,69480,1,4,0:0:0:0:
352,32,69855,1,4,0:0:0:0:
256,88,70230,6,0,P|184:112|160:160,1,110,4|0,0:0|0:0,0:0:0:0:
152,192,70792,1,2,0:0:0:0:
264,192,71167,1,0,0:0:0:0:
320,192,71355,1,2,0:0:0:0:
416,248,71730,2,0,P|424:192|416:136,1,110
400,88,72292,1,2,0:0:0:0:
296,120,72667,2,0,L|224:152,1,55,0|2,0:0|0:0,0:0:0:0:
144,184,73230,6,0,L|112:112,2,55
168,232,73792,2,0,P|232:256|328:224,1,165,2|2,0:0|0:0,0:0:0:0:
408,160,74730,1,0,0:0:0:0:
424,216,74917,1,0,0:0:0:0:
424,272,75105,1,2,0:0:0:0:
416,328,75292,2,0,L|240:352,1,165,0|2,0:0|0:0,0:0:0:0:
144,360,76230,6,0,P|112:280|128:192,1,165,4|2,0:0|0:0,0:0:0:0:
176,104,77167,1,0,0:0:0:0:
232,112,77355,1,2,0:0:0:0:
344,128,77730,2,0,P|344:184|312:248,1,110
280,264,78292,2,0,L|464:272,1,165,0|2,0:0|0:0,0:0:0:0:
368,352,79230,6,0,L|232:344,1,110
200,344,79792,1,2,0:0:0:0:
88,336,80167,1,0,0:0:0:0:
96,280,80355,1,2,0:0:0:0:
112,168,80730,2,4,B|120:144|120:144|112:104,2,55
104,224,81292,2,0,L|232:216,1,110,0|2,0:0|0:0,0:0:0:0:
320,208,82042,1,0,0:0:0:0:
320,208,82230,6,0,P|304:272|208:320,1,165,4|8,0:0|0:0,0:0:0:0:
112,320,83167,2,0,L|80:248,1,55,0|2,0:0|0:0,0:0:0:0:
40,176,83730,2,0,P|80:152|200:184,1,165,0|8,0:0|0:0,0:0:0:0:
256,264,84667,2,0,L|296:328,1,55,0|2,0:0|0:0,0:0:0:0:
392,304,85230,2,0,L|328:200,1,110
304,168,85792,1,8,0:0:0:0:
248,72,86167,1,0,0:0:0:0:
200,104,86355,1,2,0:0:0:0:
96,64,86730,2,0,P|88:136|208:224,1,220
296,184,87855,1,0,0:0:0:0:
392,136,88230,6,0,L|456:96,2,55,4|0|0,0:0|0:0|0:0,0:0:0:0:
344,160,88792,1,8,0:0:0:0:
248,208,89167,1,0,0:0:0:0:
200,224,89355,1,2,0:0:0:0:
144,224,89542,1,0,0:0:0:0:
88,208,89730,2,0,P|64:152|80:48,2,165,0|8|2,0:0|0:0|0:0,0:0:0:0:
40,312,91230,6,0,L|160:304,1,110
204,300,91792,1,8,0:0:0:0:
312,292,92167,1,0,0:0:0:0:
368,288,92355,1,2,0:0:0:0:
456,352,92730,2,0,P|480:288|424:200,1,165,0|8,0:0|0:0,0:0:0:0:
376,112,93667,2,0,L|344:64,2,55,0|2|0,0:0|0:0|0:0,0:0:0:0:
328,144,94230,6,0,L|176:240,1,165,4|8,0:0|0:0,0:0:0:0:
96,288,95167,1,0,0:0:0:0:
96,288,95355,1,2,0:0:0:0:
32,192,95730,2,0,L|176:104,1,165,0|8,0:0|0:0,0:0:0:0:
264,48,96667,1,0,0:0:0:0:
264,48,96855,1,2,0:0:0:0:
264,160,97230,6,0,P|320:136|376:32,2,165,0|8|2,0:0|0:0|0:0,0:0:0:0:
160,184,98730,1,0,0:0:0:0:
176,240,98917,1,0,0:0:0:0:
192,296,99105,1,0,0:0:0:0:
208,352,99292,2,0,P|256:352|336:264,1,165
376,168,100230,6,0,L|448:160,2,55,4|0|0,0:0|0:0|0:0,0:0:0:0:
320,176,100792,2,0,L|152:200,1,165,8|2,0:0|0:0,0:0:0:0:
64,144,101730,2,0,P|56:216|80:272,1,110
88,304,102292,1,8,0:0:0:0:
200,288,102667,1,0,0:0:0:0:
256,280,102855,1,2,0:0:0:0:
312,272,103042,1,0,0:0:0:0:
368,264,103230,6,0,P|368:192|344:144,1,110
328,112,103792,1,8,0:0:0:0:
256,32,104167,1,0,0:0:0:0:
256,32,104355,1,2,0:0:0:0:
176,112,104730,2,0,P|176:144|184:184,1,55
184,224,105105,2,0,P|184:264|176:288,1,55,8|0,0:0|0:0,0:0:0:0:
152,328,105480,2,0,L|280:328,1,110,2|0,0:0|0:0,0:0:0:0:
368,328,106230,6,0,P|352:280|304:240,1,110,4|2,0:0|0:0,0:0:0:0:
216,184,106980,2,0,L|248:128,1,55
272,88,107355,1,2,0:0:0:0:
384,96,107730,2,0,L|312:200,1,110,0|2,0:0|0:0,0:0:0:0:
288,224,108292,1,0,0:0:0:0:
256,272,108480,2,0,P|296:312|368:312,1,110,0|2,0:0|0:0,0:0:0:0:
448,288,109230,6,0,L|408:184,1,110,0|2,0:0|0:0,0:0:0:0:
368,80,109980,1,0,0:0:0:0:
312,96,110167,1,0,0:0:0:0:
256,112,110355,1,2,0:0:0:0:
144,144,110730,2,0,P|152:200|184:256,2,110,0|2|0,0:0|0:0|0:0,0:0:0:0:
176,40,111855,1,2,0:0:0:0:
280,80,112230,6,0,P|328:96|400:72,1,110,0|2,0:0|0:0,0:0:0:0:
488,112,112980,2,0,L|456:176,1,55
432,208,113355,1,2,0:0:0:0:
368,296,113730,2,0,P|280:304|248:288,1,110,0|2,0:0|0:0,0:0:0:0:
176,368,114480,2,0,P|136:280|184:208,1,165
208,192,115230,5,2,0:0:0:0:
292,124,115605,2,0,L|340:84,2,55,0|0|2,0:0|0:0|0:0,0:0:0:0:
248,160,116167,1,0,0:0:0:0:
208,192,116355,1,2,0:0:0:0:
108,248,116730,2,4,P|148:296|292:272,1,220,0|4,0:0|0:0,0:0:0:0:
