osu file format v14

[General]
AudioFilename: A Bella!.mp3
AudioLeadIn: 0
PreviewTime: 35730
Countdown: 0
SampleSet: Soft
StackLeniency: 0.7
Mode: 0
LetterboxInBreaks: 0
WidescreenStoryboard: 0

[Editor]
DistanceSpacing: 1.2
BeatDivisor: 4
GridSize: 4
TimelineZoom: 1.9

[Metadata]
Title:A Bella! (feat. Lucy)
TitleUnicode:A Bella! (feat. Lucy)
Artist:M2U
ArtistUnicode:M2U
Creator:Crimmi
Version:Insane
Source:HIGH5
Tags:Side NazuSan Elcheer CrimmiSkye Kakao Android iOS 하이파이브 Rex Shin SQUARE MUSIQ PNIX GAMES
BeatmapID:989615
BeatmapSetID:431534

[Difficulty]
HPDrainRate:8
CircleSize:4
OverallDifficulty:8
ApproachRate:9
SliderMultiplier:1.7
SliderTickRate:2

[Events]
//Background and Video events
0,0,"anime_girl_tenderness_wind_ring_sadness_15014_1366x768.jpg",0,0
//Break Periods
2,59930,65130
//Storyboard Layer 0 (Background)
//Storyboard Layer 1 (Fail)
//Storyboard Layer 2 (Pass)
//Storyboard Layer 3 (Foreground)
//Storyboard Sound Samples

[TimingPoints]
1230,375,4,1,0,75,1,0
13230,-100,4,2,0,50,0,0
28792,-200,4,2,0,50,0,0
29542,-100,4,2,0,50,0,0
34792,-100,4,2,0,20,0,0
35167,-100,4,2,0,50,0,0
35730,-66.6666666666667,4,1,0,75,0,1
46980,-66.6666666666667,4,2,0,20,0,1
47355,-66.6666666666667,4,2,0,5,0,0
47730,-66.6666666666667,4,1,0,75,0,1
52792,-50,4,2,0,20,0,1
53167,-66.6666666666667,4,1,0,5,0,1
53730,-66.6666666666667,4,1,0,50,0,1
59730,-200,4,2,0,20,0,0
65730,-100,4,1,0,50,0,0
70230,-100,4,2,0,50,0,0
74730,-100,4,1,0,20,0,0
75292,-200,4,2,0,20,0,0
76230,-100,4,2,0,50,0,0
81292,-100,4,2,0,20,0,0
81667,-100,4,2,0,50,0,0
82230,-83.3333333333333,4,1,0,75,0,1
86730,-200,4,2,0,20,0,1
88230,-83.3333333333333,4,1,0,75,0,1
93480,-100,4,2,0,20,0,0
94230,-83.3333333333333,4,1,0,75,0,1
99292,-50,4,2,0,20,0,1
99855,-100,4,2,0,20,0,1
100230,-83.3333333333333,4,1,0,75,0,1
106230,-100,4,2,0,50,0,0
116730,-100,4,1,0,75,0,0

[Colours]
Combo1 : 221,187,255
Combo2 : 128,255,255
Combo3 : 255,183,219
Combo4 : 255,255,255

[HitObjects]
432,352,855,5,0,0:0:0:0:
368,280,1042,1,0,0:0:0:0:
432,352,1230,2,0,P|464:280|408:192,1,170,4|0,0:0|0:0,0:0:0:0:
456,112,1792,2,0,P|384:120|336:232,1,170,8|0,0:0|0:0,0:0:0:0:
320,288,2355,1,2,0:0:0:0:
256,224,2542,1,0,0:0:0:0:
320,288,2730,6,0,P|248:320|176:256,1,170,0|8,0:0|0:0,0:0:0:0:
256,224,3292,2,0,P|320:200|408:256,1,170
448,328,3855,2,0,P|488:288|496:232,1,85,2|0,0:0|0:0,0:0:0:0:
464,176,4230,6,0,L|368:160,1,85
288,144,4605,1,8,0:0:0:0:
200,120,4792,2,0,P|200:176|304:240,1,170
288,144,5355,1,2,0:0:0:0:
200,120,5542,1,0,0:0:0:0:
112,88,5730,5,0,0:0:0:0:
256,328,5917,1,0,0:0:0:0:
256,328,6105,1,2,0:0:0:0:
368,72,6292,1,0,0:0:0:0:
368,72,6480,1,0,0:0:0:0:
344,184,6667,1,0,0:0:0:0:
296,204,6761,1,0,0:0:0:0:
256,224,6855,1,2,0:0:0:0:
432,152,7042,1,0,0:0:0:0:
432,152,7230,6,0,P|464:104|432:0,1,170,4|0,0:0|0:0,0:0:0:0:
376,80,7792,2,0,P|344:128|400:248,1,170,8|0,0:0|0:0,0:0:0:0:
440,296,8355,1,2,0:0:0:0:
344,296,8542,1,0,0:0:0:0:
248,296,8730,2,0,L|168:352,2,85,0|0|8,0:0|0:0|0:0,0:0:0:0:
141,211,9292,2,0,P|84:270|96:352,1,170
176,296,9855,1,2,0:0:0:0:
256,240,10042,1,0,0:0:0:0:
332,180,10230,6,0,L|420:108,2,85,0|0|8,0:0|0:0|0:0,0:0:0:0:
319,74,10792,2,0,P|392:38|465:77,1,170
392,136,11355,1,2,0:0:0:0:
320,192,11542,1,0,0:0:0:0:
256,256,11730,5,8,0:0:0:0:
128,120,11917,1,0,0:0:0:0:
96,292,12105,1,8,0:0:0:0:
216,164,12292,1,0,0:0:0:0:
248,348,12480,1,8,0:0:0:0:
128,120,12855,1,2,0:0:0:0:
200,176,13042,1,0,0:0:0:0:
256,256,13230,6,0,P|328:296|416:232,1,170,4|0,0:0|0:0,0:0:0:0:
200,176,13792,2,0,P|168:224|208:344,1,170,2|0,0:0|0:0,0:0:0:0:
256,256,14355,1,0,0:0:0:0:
304,328,14542,1,0,0:0:0:0:
352,248,14730,2,0,P|392:288|400:320,2,85
304,328,15292,2,0,L|488:316,2,170,2|0|0,0:0|0:0|0:0,0:0:0:0:
288,232,16230,5,0,0:0:0:0:
216,296,16417,1,0,0:0:0:0:
200,200,16605,1,0,0:0:0:0:
304,328,16792,2,0,P|360:304|360:176,1,170,2|0,0:0|0:0,0:0:0:0:
288,232,17355,1,0,0:0:0:0:
376,200,17542,1,0,0:0:0:0:
464,168,17730,6,0,P|436:128|376:104,1,85,2|0,0:0|0:0,0:0:0:0:
360,128,18011,1,0,0:0:0:0:
312,144,18105,1,2,0:0:0:0:
224,176,18292,2,2,L|176:192,3,28.3333333333333
280,256,18667,1,2,0:0:0:0:
184,96,18855,2,0,P|236:84|280:104,1,85
136,168,19230,6,0,P|104:72|144:20,1,170,4|0,0:0|0:0,0:0:0:0:
184,96,19792,2,0,P|224:152|192:240,1,170,2|0,0:0|0:0,0:0:0:0:
128,288,20355,1,0,0:0:0:0:
208,328,20542,1,0,0:0:0:0:
128,288,20730,2,0,P|112:240|136:184,2,85
192,240,21292,2,0,P|180:160|68:140,1,170,2|0,0:0|0:0,0:0:0:0:
16,168,21855,1,0,0:0:0:0:
28,76,22042,5,0,0:0:0:0:
104,127,22230,2,0,L|200:95,1,85,0|2,0:0|0:0,0:0:0:0:
320,56,22792,2,2,P|328:120|256:208,1,170
269,202,23355,1,2,0:0:0:0:
128,264,23730,5,4,0:0:0:0:
384,192,24105,1,8,0:0:0:0:
120,176,24480,1,0,0:0:0:0:
384,280,24855,1,2,0:0:0:0:
152,88,25230,6,0,P|208:152|184:256,1,170
136,280,25792,2,0,L|304:176,1,170,8|0,0:0|0:0,0:0:0:0:
352,144,26355,2,0,P|368:192|344:248,1,85,2|0,0:0|0:0,0:0:0:0:
440,256,26730,6,0,L|240:280,1,170
224,344,27292,2,0,P|192:296|256:192,1,170,8|0,0:0|0:0,0:0:0:0:
272,272,27855,2,0,L|376:288,1,85,2|0,0:0|0:0,0:0:0:0:
440,296,28230,5,0,0:0:0:0:
312,184,28417,1,0,0:0:0:0:
472,120,28605,1,0,0:0:0:0:
312,184,28792,2,2,B|264:160|240:208|184:176,1,127.5
104,176,29542,1,0,0:0:0:0:
104,176,29636,1,0,0:0:0:0:
104,176,29730,6,0,P|120:128|240:112,1,170,4|8,0:0|0:0,0:0:0:0:
188,180,30292,2,0,P|248:188|312:96,1,170
184,96,30855,2,0,P|140:108|104:172,1,85,2|0,0:0|0:0,0:0:0:0:
44,88,31230,6,0,L|208:192,1,170,0|8,0:0|0:0,0:0:0:0:
152,256,31792,2,0,P|216:264|272:176,1,170
252,104,32355,2,0,L|356:260,1,170,2|0,0:0|0:0,0:0:0:0:
400,312,32917,1,0,0:0:0:0:
432,232,33105,1,8,0:0:0:0:
400,312,33292,2,0,P|336:336|264:264,1,170
232,196,33855,2,0,P|292:192|336:228,1,85,2|0,0:0|0:0,0:0:0:0:
392,232,34230,6,6,L|412:148,2,85
480,112,34792,2,0,P|440:72|336:136,2,170,0|2|0,0:0|0:0|0:0,0:0:0:0:
404,216,35730,6,0,B|328:188|328:188|248:224|248:224|164:176,1,255.000009727478,4|8,0:0|0:0,0:0:0:0:
136,60,36292,2,0,P|56:144|104:280,1,255.000009727478
192,356,36855,1,2,0:0:0:0:
212,232,37042,1,0,0:0:0:0:
304,324,37230,6,0,P|328:252|312:184,1,127.500004863739,0|8,0:0|0:0,0:0:0:0:
264,88,37605,1,0,0:0:0:0:
384,124,37792,2,0,L|104:140,1,255.000009727478,2|0,0:0|0:0,0:0:0:0:
129,138,38261,1,0,0:0:0:0:
129,138,38355,1,2,0:0:0:0:
4,148,38542,1,0,0:0:0:0:
72,256,38730,6,0,P|148:284|252:144,1,255.000009727478,0|8,0:0|0:0,0:0:0:0:
164,83,39292,2,0,L|352:256,1,255.000009727478
448,340,39855,1,2,0:0:0:0:
464,212,40042,1,0,0:0:0:0:
476,84,40230,6,0,L|340:120,1,127.500004863739
228,152,40605,1,8,0:0:0:0:
348,116,40792,2,2,L|356:148,4,31.8750012159348,2|0|0|0|2,0:0|0:0|0:0|0:0|0:0,0:0:0:0:
384,240,41167,1,0,0:0:0:0:
321,28,41355,2,0,P|383:31|432:72,1,127.500004863739,2|0,0:0|0:0,0:0:0:0:
472,192,41730,6,0,P|436:272|276:272,1,255.000009727478,4|0,0:0|0:0,0:0:0:0:
184,356,42292,2,0,L|340:132,1,255.000009727478,8|0,0:0|0:0,0:0:0:0:
400,40,42855,1,2,0:0:0:0:
452,156,43042,1,0,0:0:0:0:
400,40,43230,6,0,P|316:24|216:160,1,255.000009727478
88,136,43792,2,0,L|392:152,1,255.000009727478,8|0,0:0|0:0,0:0:0:0:
472,160,44355,1,2,0:0:0:0:
372,240,44542,1,0,0:0:0:0:
492,288,44730,6,0,P|432:348|268:296,1,255.000009727478,0|8,0:0|0:0,0:0:0:0:
200,212,45292,2,0,P|276:192|348:208,1,127.500004863739,2|0,0:0|0:0,0:0:0:0:
160,300,45667,2,0,P|112:252|136:152,1,127.500004863739,0|2,0:0|0:0,0:0:0:0:
236,212,46042,1,0,0:0:0:0:
364,232,46230,5,0,0:0:0:0:
144,104,46417,1,0,0:0:0:0:
244,336,46605,1,8,0:0:0:0:
284,104,46792,1,0,0:0:0:0:
136,252,46980,1,4,0:0:0:0:
212,188,47167,5,0,0:0:0:0:
112,108,47355,1,0,0:0:0:0:
92,232,47542,1,0,0:0:0:0:
212,188,47730,6,0,P|248:104|324:200,1,255.000009727478,4|8,0:0|0:0,0:0:0:0:
292,312,48292,2,0,P|384:300|436:144,1,255.000009727478
316,184,48855,1,2,0:0:0:0:
372,72,49042,1,0,0:0:0:0:
316,184,49230,6,0,L|176:276,1,127.500004863739
96,316,49605,1,8,0:0:0:0:
72,192,49792,1,2,0:0:0:0:
72,192,49980,2,0,L|132:168,1,63.7500024318696
252,120,50261,1,0,0:0:0:0:
252,120,50355,2,0,P|260:192|232:248,1,127.500004863739,2|0,0:0|0:0,0:0:0:0:
152,336,50730,6,0,P|248:360|360:248,1,255.000009727478,0|8,0:0|0:0,0:0:0:0:
320,140,51292,2,0,P|198:124|116:216,1,255.000009727478
244,240,51855,1,2,0:0:0:0:
120,216,52042,1,0,0:0:0:0:
168,332,52230,1,0,0:0:0:0:
120,216,52417,1,0,0:0:0:0:
68,100,52605,1,0,0:0:0:0:
228,160,52792,2,0,B|268:144|268:144|308:164|308:164|348:148|348:148|392:164,2,170,0|2|0,0:0|0:0|0:0,0:0:0:0:
152,56,53355,2,0,P|108:128|104:172,1,127.500004863739,8|0,0:0|0:0,0:0:0:0:
56,288,53730,6,0,L|192:296,1,127.500004863739,4|0,0:0|0:0,0:0:0:0:
312,304,54105,1,8,0:0:0:0:
440,312,54292,2,0,P|416:240|248:200,1,255.000009727478
140,252,54855,1,2,0:0:0:0:
168,128,55042,1,0,0:0:0:0:
140,252,55230,2,0,P|72:188|100:36,1,255.000009727478,0|8,0:0|0:0,0:0:0:0:
168,128,55792,2,0,P|240:184|208:352,1,255.000009727478
100,336,56355,2,0,L|384:340,1,255.000009727478,2|0,0:0|0:0,0:0:0:0:
484,340,56917,5,0,0:0:0:0:
420,232,57105,1,8,0:0:0:0:
368,116,57292,2,0,P|328:176|388:344,1,255.000009727478
420,232,57855,2,0,L|136:232,1,255.000009727478,2|0,0:0|0:0,0:0:0:0:
36,232,58417,5,0,0:0:0:0:
104,124,58605,1,8,0:0:0:0:
164,232,58792,1,2,0:0:0:0:
100,308,58980,1,0,0:0:0:0:
184,144,59167,1,0,0:0:0:0:
24,144,59355,2,0,P|115:63|181:158,1,255.000009727478,2|4,0:0|0:0,0:0:0:0:
472,344,65730,6,0,L|363:307,1,85,4|0,0:0|0:0,0:0:0:0:
312,284,66105,1,8,0:0:0:0:
376,228,66292,1,0,0:0:0:0:
376,228,66386,1,0,0:0:0:0:
376,228,66480,2,0,P|316:196|272:212,1,85
208,244,66855,1,0,0:0:0:0:
204,224,66948,1,0,0:0:0:0:
196,200,67042,1,0,0:0:0:0:
192,180,67136,1,0,0:0:0:0:
188,164,67230,6,0,P|132:196|152:312,1,170,2|0,0:0|0:0,0:0:0:0:
240,236,67792,2,0,P|276:184|212:80,1,170,2|0,0:0|0:0,0:0:0:0:
152,92,68355,2,0,L|340:40,1,170,8|0,0:0|0:0,0:0:0:0:
396,20,68917,5,2,0:0:0:0:
376,104,69105,1,8,0:0:0:0:
364,144,69198,1,0,0:0:0:0:
348,184,69292,1,0,0:0:0:0:
332,224,69386,1,0,0:0:0:0:
316,264,69480,2,4,P|252:268|236:172,1,170
332,44,70042,1,0,0:0:0:0:
332,44,70230,6,0,P|236:24|136:60,1,170,4|8,0:0|0:0,0:0:0:0:
84,20,70792,2,0,P|84:72|176:132,1,170,2|0,0:0|0:0,0:0:0:0:
284,108,71355,1,2,0:0:0:0:
174,132,71542,1,0,0:0:0:0:
140,236,71730,2,0,P|192:264|280:208,1,170
96,160,72292,2,0,P|52:220|100:316,1,170,8|0,0:0|0:0,0:0:0:0:
81,303,72855,1,2,0:0:0:0:
252,284,73230,5,0,0:0:0:0:
168,296,73417,1,0,0:0:0:0:
200,216,73605,1,8,0:0:0:0:
252,284,73792,2,0,P|288:224|240:140,1,170,2|0,0:0|0:0,0:0:0:0:
200,216,74355,2,0,L|300:52,1,170,2|0,0:0|0:0,0:0:0:0:
332,0,74917,5,0,0:0:0:0:
400,184,75105,1,0,0:0:0:0:
364,88,75292,2,0,P|320:128|320:248,1,170
368,300,76230,6,0,P|312:320|224:248,1,170,4|8,0:0|0:0,0:0:0:0:
308,236,76792,2,0,L|124:252,1,170
52,260,77355,1,2,0:0:0:0:
92,184,77542,1,0,0:0:0:0:
136,112,77730,2,0,P|80:100|12:204,1,170,0|8,0:0|0:0,0:0:0:0:
96,184,78292,2,0,L|252:76,1,170
304,40,78855,1,2,0:0:0:0:
236,88,79042,1,0,0:0:0:0:
312,128,79230,6,0,P|272:168|156:116,1,170,0|8,0:0|0:0,0:0:0:0:
304,40,79792,2,0,P|368:56|384:176,1,170
352,220,80355,1,2,0:0:0:0:
436,220,80542,1,0,0:0:0:0:
352,220,80730,2,4,L|228:244,1,85
184,252,81105,1,4,0:0:0:0:
212,172,81292,2,0,P|136:180|100:260,2,170,0|2|0,0:0|0:0|0:0,0:0:0:0:
316,248,82230,6,0,P|340:168|240:64,1,203.999993774414,4|8,0:0|0:0,0:0:0:0:
236,184,82792,2,0,P|224:280|336:348,1,203.999993774414
376,236,83355,1,2,0:0:0:0:
472,352,83542,1,0,0:0:0:0:
488,200,83730,2,0,L|424:112,1,101.999996887207
280,72,84105,2,0,L|356:176,2,101.999996887207,8|0|0,0:0|0:0|0:0,0:0:0:0:
108,140,84667,1,0,0:0:0:0:
196,28,84855,1,2,0:0:0:0:
269,150,85042,1,0,0:0:0:0:
108,140,85230,6,0,P|160:192|276:136,1,203.999993774414,0|8,0:0|0:0,0:0:0:0:
191,103,85792,2,0,L|360:244,1,203.999993774414
448,320,86355,1,2,0:0:0:0:
488,192,86542,1,0,0:0:0:0:
388,268,86730,2,0,P|336:304|304:304,1,85,4|0,0:0|0:0,0:0:0:0:
312,216,87292,1,0,0:0:0:0:
312,216,87386,1,0,0:0:0:0:
312,216,87480,2,0,L|220:180,1,85
156,152,88042,1,0,0:0:0:0:
48,84,88230,6,0,P|40:148|68:224,1,101.999996887207,4|0,0:0|0:0,0:0:0:0:
80,312,88605,1,8,0:0:0:0:
176,220,88792,2,0,P|256:244|280:120,1,203.999993774414
212,56,89355,2,0,L|120:132,1,101.999996887207,2|0,0:0|0:0,0:0:0:0:
24,196,89730,2,0,P|96:244|212:164,1,203.999993774414,0|8,0:0|0:0,0:0:0:0:
200,80,90292,2,0,L|264:316,1,203.999993774414
253,276,90855,1,2,0:0:0:0:
376,276,91042,1,0,0:0:0:0:
316,164,91230,6,0,P|240:172|148:304,1,203.999993774414,0|8,0:0|0:0,0:0:0:0:
48,336,91792,2,0,L|284:336,1,203.999993774414,2|0,0:0|0:0,0:0:0:0:
384,332,92355,1,2,0:0:0:0:
260,96,92730,5,8,0:0:0:0:
328,208,92917,1,0,0:0:0:0:
384,332,93105,1,0,0:0:0:0:
464,128,93292,1,0,0:0:0:0:
260,96,93480,2,0,L|204:26,2,85
176,164,94042,1,0,0:0:0:0:
92,228,94230,6,0,P|176:284|296:228,1,203.999993774414,4|8,0:0|0:0,0:0:0:0:
368,332,94792,2,0,L|256:112,1,203.999993774414
136,168,95355,1,2,0:0:0:0:
275,150,95542,1,0,0:0:0:0:
228,236,95730,2,0,P|128:276|28:216,1,203.999993774414,0|8,0:0|0:0,0:0:0:0:
136,168,96292,1,0,0:0:0:0:
232,108,96480,2,0,L|296:88,1,50.9999984436036
264,216,96761,2,0,L|200:236,1,50.9999984436036
360,172,97042,1,0,0:0:0:0:
352,300,97230,6,0,P|428:264|456:112,1,203.999993774414,0|8,0:0|0:0,0:0:0:0:
360,172,97792,2,0,L|244:252,2,101.999996887207
288,68,98355,1,2,0:0:0:0:
416,68,98542,1,0,0:0:0:0:
288,68,98730,1,0,0:0:0:0:
360,172,98917,1,0,0:0:0:0:
232,180,99105,1,8,0:0:0:0:
360,292,99292,2,2,B|328:260|328:260|300:292|300:292|264:260|264:260|232:292|232:292|192:260|192:260|160:292|160:292|104:252,1,340
48,304,99855,2,0,P|32:256|44:212,1,85
72,104,100230,6,0,P|132:132|104:24,1,203.999993774414,4|8,0:0|0:0,0:0:0:0:
72,104,100792,2,0,L|272:180,1,203.999993774414
384,228,101355,1,2,0:0:0:0:
280,308,101542,1,0,0:0:0:0:
392,332,101730,2,0,P|452:296|448:140,1,203.999993774414,0|8,0:0|0:0,0:0:0:0:
468,40,102292,2,0,L|344:240,1,203.999993774414
288,340,102855,1,2,0:0:0:0:
236,224,103042,1,0,0:0:0:0:
168,328,103230,6,0,L|52:320,2,101.999996887207,0|0|8,0:0|0:0|0:0,0:0:0:0:
296,332,103792,2,0,P|256:240|120:224,1,203.999993774414,2|0,0:0|0:0,0:0:0:0:
44,240,104355,1,0,0:0:0:0:
72,132,104542,1,0,0:0:0:0:
188,132,104730,5,8,0:0:0:0:
44,240,104917,1,0,0:0:0:0:
224,232,105105,1,0,0:0:0:0:
136,328,105292,1,0,0:0:0:0:
224,232,105480,2,0,P|280:232|312:196,1,101.999996887207,2|0,0:0|0:0,0:0:0:0:
244,156,105855,2,0,P|180:164|148:216,1,101.999996887207
64,228,106230,6,0,L|232:300,1,170,4|2,0:0|0:0,0:0:0:0:
308,336,106792,1,0,0:0:0:0:
308,336,106886,1,0,0:0:0:0:
308,336,106980,1,0,0:0:0:0:
292,252,107167,1,0,0:0:0:0:
280,168,107355,1,2,0:0:0:0:
256,248,107542,1,0,0:0:0:0:
232,328,107730,6,0,P|184:292|176:248,1,85
256,248,108105,2,0,L|372:236,1,85,2|0,0:0|0:0,0:0:0:0:
388,308,108480,2,0,P|428:252|376:160,1,170,0|2,0:0|0:0,0:0:0:0:
340,104,109042,5,0,0:0:0:0:
340,104,109136,1,0,0:0:0:0:
340,104,109230,2,0,P|316:144|328:208,1,85
348,260,109605,1,2,0:0:0:0:
432,268,109792,1,0,0:0:0:0:
388,336,109980,2,0,L|244:232,1,170,0|2,0:0|0:0,0:0:0:0:
184,180,110542,1,0,0:0:0:0:
124,120,110730,6,0,P|100:168|156:264,1,170,0|2,0:0|0:0,0:0:0:0:
112,344,111292,1,0,0:0:0:0:
112,344,111480,2,0,L|192:172,1,170,0|2,0:0|0:0,0:0:0:0:
224,116,112042,1,0,0:0:0:0:
268,188,112230,6,0,P|300:152|300:96,1,85,4|0,0:0|0:0,0:0:0:0:
268,40,112605,1,2,0:0:0:0:
352,52,112792,1,0,0:0:0:0:
352,52,112886,1,0,0:0:0:0:
352,52,112980,1,0,0:0:0:0:
436,60,113167,2,0,P|412:116|372:136,1,85,0|2,0:0|0:0,0:0:0:0:
320,172,113542,1,0,0:0:0:0:
352,200,113636,1,0,0:0:0:0:
384,228,113730,2,0,L|192:184,1,170,0|2,0:0|0:0,0:0:0:0:
196,92,114292,1,0,0:0:0:0:
104,64,114480,2,0,P|48:180|56:228,1,170,0|2,0:0|0:0,0:0:0:0:
96,288,115042,5,0,0:0:0:0:
96,288,115136,1,0,0:0:0:0:
96,288,115230,1,2,0:0:0:0:
252,220,115605,2,0,L|340:180,1,85,0|2,0:0|0:0,0:0:0:0:
404,224,115980,2,0,P|412:156|380:112,1,85,0|2,0:0|0:0,0:0:0:0:
328,276,116355,2,0,P|376:316|488:264,2,170,0|4|4,0:0|0:0|0:0,0:0:0:0:
256,120,117292,1,0,0:0:0:0:
256,120,117480,1,4,0:0:0:0:
