osu file format v14

[General]
AudioFilename: A Bella!.mp3
AudioLeadIn: 0
PreviewTime: 35730
Countdown: 0
SampleSet: Normal
StackLeniency: 0.7
Mode: 0
LetterboxInBreaks: 0
WidescreenStoryboard: 0

[Editor]
DistanceSpacing: 1.1
BeatDivisor: 4
GridSize: 4
TimelineZoom: 1

[Metadata]
Title:A Bella! (feat. Lucy)
TitleUnicode:A Bella! (feat. Lucy)
Artist:M2U
ArtistUnicode:M2U
Creator:Crimmi
Version:Easy
Source:HIGH5
Tags:Side NazuSan Elcheer CrimmiSkye Kakao Android iOS 하이파이브 Rex Shin SQUARE MUSIQ PNIX GAMES
BeatmapID:930795
BeatmapSetID:431534

[Difficulty]
HPDrainRate:2
CircleSize:2
OverallDifficulty:2
ApproachRate:3
SliderMultiplier:1
SliderTickRate:2

[Events]
//Background and Video events
0,0,"anime_girl_tenderness_wind_ring_sadness_15014_1366x768.jpg",0,0
//Break Periods
2,59930,68790
//Storyboard Layer 0 (Background)
//Storyboard Layer 1 (Fail)
//Storyboard Layer 2 (Pass)
//Storyboard Layer 3 (Foreground)
//Storyboard Sound Samples

[TimingPoints]
1230,375,4,2,0,50,1,0
35730,-100,4,1,0,75,0,1
47355,-100,4,2,0,5,0,0
47730,-100,4,1,0,75,0,1
52792,-100,4,2,0,5,0,1
53730,-100,4,1,0,50,0,1
59730,-100,4,2,0,5,0,0
70230,-100,4,2,0,50,0,0
74730,-100,4,1,0,5,0,0
76230,-100,4,2,0,50,0,0
82230,-100,4,1,0,75,0,1
86730,-100,4,2,0,5,0,1
88230,-100,4,1,0,75,0,1
93480,-100,4,2,0,5,0,0
94230,-100,4,1,0,75,0,1
99292,-100,4,2,0,5,0,1
100230,-100,4,1,0,75,0,1
106230,-100,4,2,0,50,0,0
116730,-100,4,1,0,75,0,0

[Colours]
Combo1 : 221,187,255
Combo2 : 128,255,255
Combo3 : 255,183,219
Combo4 : 255,255,255

[HitObjects]
440,208,1230,2,0,P|464:288|432:368,2,150,4|8|2,0:0|0:0|0:0,0:0:0:0:
344,280,2730,2,0,P|264:304|192:272,2,150,0|8|2,0:0|0:0|0:0,0:0:0:0:
272,184,4230,2,0,P|296:104|264:24,2,150,0|8|2,0:0|0:0|0:0,0:0:0:0:
184,104,5730,5,0,0:0:0:0:
104,192,6105,1,2,0:0:0:0:
192,272,6480,2,0,P|184:336|200:384,1,100,0|2,0:0|0:0,0:0:0:0:
304,320,7230,6,0,P|376:344|456:312,2,150,4|8|2,0:0|0:0|0:0,0:0:0:0:
376,224,8730,2,0,P|392:144|368:72,2,150,0|8|2,0:0|0:0|0:0,0:0:0:0:
280,152,10230,2,0,P|192:128|128:160,2,150,0|8|2,0:0|0:0|0:0,0:0:0:0:
208,248,11730,5,0,0:0:0:0:
136,344,12105,1,8,0:0:0:0:
256,352,12480,1,0,0:0:0:0:
336,256,12855,1,2,0:0:0:0:
416,344,13230,6,0,P|456:272|448:208,2,150,4|2|0,0:0|0:0|0:0,0:0:0:0:
304,344,14730,2,0,L|144:344,2,150,0|2|0,0:0|0:0|0:0,0:0:0:0:
360,248,16230,2,0,L|208:248,1,150,0|2,0:0|0:0,0:0:0:0:
48,248,17355,1,0,0:0:0:0:
136,176,17730,2,0,P|100:145|-3:145,2,150,0|2|0,0:0|0:0|0:0,0:0:0:0:
48,248,19230,6,0,L|200:304,1,150,0|2,0:0|0:0,0:0:0:0:
344,352,20355,1,0,0:0:0:0:
416,264,20730,2,0,P|341:238|272:264,2,150,0|2|0,0:0|0:0|0:0,0:0:0:0:
480,176,22230,2,0,P|408:144|320:136,1,150,0|2,0:0|0:0,0:0:0:0:
176,168,23355,1,0,0:0:0:0:
72,192,23730,6,0,P|77:126|152:64,2,150,4|2|8,0:0|0:0|0:0,0:0:0:0:
176,168,25230,2,0,L|328:152,1,150,0|2,0:0|0:0,0:0:0:0:
488,136,26355,1,8,0:0:0:0:
496,248,26730,6,0,L|328:272,1,150,0|2,0:0|0:0,0:0:0:0:
184,288,27855,1,8,0:0:0:0:
80,312,28230,2,2,P|80:264|152:184,1,150
304,144,29355,1,8,0:0:0:0:
384,64,29730,6,0,P|408:120|392:212,2,150,4|2|8,0:0|0:0|0:0,0:0:0:0:
304,144,31230,2,0,L|160:232,1,150,0|2,0:0|0:0,0:0:0:0:
32,312,32355,1,8,0:0:0:0:
120,248,32730,6,0,P|136:296|128:352,2,100,0|2|0,0:0|0:0|0:0,0:0:0:0:
64,152,33855,1,8,0:0:0:0:
184,152,34230,2,0,B|232:136|232:136|288:160|288:160|336:144,1,150,4|0,0:0|0:0,0:0:0:0:
432,152,35167,1,2,0:0:0:0:
320,280,35730,6,0,L|160:304,2,150,4|8|2,0:0|0:0|0:0,0:0:0:0:
416,336,37230,2,0,P|432:288|336:168,1,200
256,128,38355,1,2,0:0:0:0:
176,200,38730,6,0,P|152:144|184:48,2,150,0|8|2,0:0|0:0|0:0,0:0:0:0:
256,128,40230,1,0,0:0:0:0:
312,224,40605,1,2,0:0:0:0:
416,200,40980,1,8,0:0:0:0:
432,88,41355,1,2,0:0:0:0:
328,48,41730,6,0,P|240:24|176:56,1,150,4|8,0:0|0:0,0:0:0:0:
72,160,42855,1,2,0:0:0:0:
184,160,43230,2,0,P|177:203|88:272,2,150,0|8|2,0:0|0:0|0:0,0:0:0:0:
144,56,44730,6,0,P|220:52|285:107,1,150,0|8,0:0|0:0,0:0:0:0:
352,247,45855,1,2,0:0:0:0:
408,144,46230,2,0,P|440:80|408:8,2,150,0|2|0,0:0|0:0|0:0,0:0:0:0:
488,240,47730,6,0,P|408:264|344:248,1,150,4|8,0:0|0:0,0:0:0:0:
256,120,48855,1,2,0:0:0:0:
185,35,49230,2,0,P|144:90|191:216,1,200
264,272,50355,1,2,0:0:0:0:
304,168,50730,6,0,P|360:216|368:304,2,150,0|8|2,0:0|0:0|0:0,0:0:0:0:
199,202,52230,2,0,L|36:176,2,150,0|8|0,0:0|0:0|0:0,0:0:0:0:
120,312,53730,6,0,L|272:336,2,150,4|8|2,0:0|0:0|0:0,0:0:0:0:
8,296,55230,2,0,P|36:232|164:205,1,200
248,250,56355,1,2,0:0:0:0:
352,296,56730,2,0,P|360:240|304:152,2,150,0|8|2,0:0|0:0|0:0,0:0:0:0:
256,192,58230,12,4,59730,0:0:0:0:
40,64,70230,6,0,P|112:40|184:64,1,150,0|2,0:0|0:0,0:0:0:0:
256,208,71355,1,8,0:0:0:0:
336,136,71730,2,0,L|448:32,2,150,0|2|8,0:0|0:0|0:0,0:0:0:0:
256,208,73230,6,0,P|320:240|400:224,2,150,0|2|8,0:0|0:0|0:0,0:0:0:0:
168,136,74730,2,0,P|88:120|40:64,2,150,0|2|8,0:0|0:0|0:0,0:0:0:0:
232,224,76230,6,0,P|256:272|232:368,2,150,4|2|8,0:0|0:0|0:0,0:0:0:0:
144,160,77730,2,0,P|231:118|317:163,1,200
384,248,78855,1,8,0:0:0:0:
464,168,79230,6,0,P|488:216|464:328,2,150,0|2|8,0:0|0:0|0:0,0:0:0:0:
384,240,80730,2,0,L|216:264,2,150,0|2|0,0:0|0:0|0:0,0:0:0:0:
344,136,82230,2,0,B|296:140|248:108|248:108|224:152|156:160,1,200
40,184,83355,1,2,0:0:0:0:
48,296,83730,2,0,B|104:280|104:280|176:304|176:304|256:272,1,200
336,224,84855,1,2,0:0:0:0:
438,193,85230,6,0,P|434:266|384:320,2,150,0|8|2,0:0|0:0|0:0,0:0:0:0:
336,224,86730,2,0,B|272:248|264:336|264:336|144:224,1,300
41,256,88230,6,0,P|41:184|71:146,1,100,4|8,0:0|0:0,0:0:0:0:
144,96,88980,1,0,0:0:0:0:
248,56,89355,1,2,0:0:0:0:
224,160,89730,2,0,P|272:160|352:80,2,150,0|8|2,0:0|0:0|0:0,0:0:0:0:
208,272,91230,6,0,L|368:312,2,150,0|8|2,0:0|0:0|0:0,0:0:0:0:
104,248,92730,1,0,0:0:0:0:
16,184,93105,1,8,0:0:0:0:
48,80,93480,1,0,0:0:0:0:
136,144,93855,1,0,0:0:0:0:
176,48,94230,6,0,P|240:32|352:96,1,200,4|8,0:0|0:0,0:0:0:0:
416,184,95355,1,2,0:0:0:0:
472,288,95730,2,0,P|400:304|328:256,2,150,0|8|2,0:0|0:0|0:0,0:0:0:0:
416,192,97230,6,0,P|352:160|240:208,1,200,0|8,0:0|0:0,0:0:0:0:
144,272,98355,1,2,0:0:0:0:
48,328,98730,2,0,P|32:272|112:160,1,200
208,112,99855,1,0,0:0:0:0:
304,48,100230,6,0,P|320:88|296:192,2,150,4|8|2,0:0|0:0|0:0,0:0:0:0:
208,112,101730,2,0,L|40:112,2,150,0|8|2,0:0|0:0|0:0,0:0:0:0:
228,232,103230,6,0,P|284:280|380:280,2,150,0|8|2,0:0|0:0|0:0,0:0:0:0:
336,160,104730,2,0,P|320:88|256:40,2,150,0|8|2,0:0|0:0|0:0,0:0:0:0:
272,248,106230,5,4,0:0:0:0:
464,352,106980,1,2,0:0:0:0:
440,136,107730,1,0,0:0:0:0:
344,80,108105,1,0,0:0:0:0:
304,184,108480,2,0,P|272:168|240:112,1,100,2|0,0:0|0:0,0:0:0:0:
184,16,109230,5,0,0:0:0:0:
64,200,109980,1,2,0:0:0:0:
280,152,110730,2,0,L|400:128,2,100,0|0|2,0:0|0:0|0:0,0:0:0:0:
176,176,111855,1,0,0:0:0:0:
64,200,112230,6,0,P|96:256|232:280,1,200,0|2,0:0|0:0,0:0:0:0:
320,248,113355,1,0,0:0:0:0:
400,320,113730,2,0,P|424:272|360:144,1,200,0|2,0:0|0:0,0:0:0:0:
176,248,115230,5,0,0:0:0:0:
272,200,115605,1,2,0:0:0:0:
368,144,115980,2,0,P|384:192|368:256,1,100,0|2,0:0|0:0,0:0:0:0:
288,304,116730,5,4,0:0:0:0:
200,240,117105,1,4,0:0:0:0:
112,304,117480,1,4,0:0:0:0:
