osu file format v14

[General]
AudioFilename: audio.mp3
AudioLeadIn: 0
PreviewTime: -1
Countdown: 0
SampleSet: Soft
StackLeniency: 0.7
Mode: 3
LetterboxInBreaks: 0
SpecialStyle: 0
WidescreenStoryboard: 0

[Editor]
DistanceSpacing: 1.2
BeatDivisor: 8
GridSize: 16
TimelineZoom: 2.650001

[Metadata]
Title:A Bella!
TitleUnicode:A Bella!
Artist:M2U
ArtistUnicode:M2U
Creator:Spicy Meme
Version:Technical [No SV]
Source:
Tags:yes
BeatmapID:1189452
BeatmapSetID:562630

[Difficulty]
HPDrainRate:8
CircleSize:4
OverallDifficulty:8
ApproachRate:5
SliderMultiplier:1.4
SliderTickRate:1

[Events]
//Background and Video events
0,0,"cd57fbc26cb9aa654792f5720222ee57.jpg",0,0
//Break Periods
//Storyboard Layer 0 (Background)
//Storyboard Layer 1 (Fail)
//Storyboard Layer 2 (Pass)
//Storyboard Layer 3 (Foreground)
//Storyboard Sound Samples

[TimingPoints]
2470,375,4,2,0,0,1,0

[HitObjects]
448,192,1688,128,0,2063:0:0:0:0:
320,192,2063,128,0,2470:0:0:0:0:
64,192,2407,1,0,0:0:0:0:
192,192,2438,1,0,0:0:0:0:
448,192,2470,1,0,0:0:0:0:
192,192,2657,1,0,0:0:0:0:
448,192,2657,1,0,0:0:0:0:
448,192,2845,1,0,0:0:0:0:
192,192,2938,1,0,0:0:0:0:
64,192,2985,1,0,0:0:0:0:
320,192,3032,128,0,3266:0:0:0:0:
448,192,3032,1,0,0:0:0:0:
320,192,3407,1,0,0:0:0:0:
64,192,3407,1,0,0:0:0:0:
448,192,3532,1,0,0:0:0:0:
320,192,3563,1,0,0:0:0:0:
192,192,3595,128,0,3735:0:0:0:0:
64,192,3595,1,0,0:0:0:0:
64,192,3782,1,0,0:0:0:0:
320,192,3782,1,0,0:0:0:0:
192,192,3907,1,0,0:0:0:0:
320,192,3938,1,0,0:0:0:0:
64,192,3970,128,0,4110:0:0:0:0:
448,192,3970,1,0,0:0:0:0:
192,192,4157,1,0,0:0:0:0:
64,192,4345,1,0,0:0:0:0:
448,192,4345,1,0,0:0:0:0:
320,192,4470,1,0,0:0:0:0:
192,192,4501,128,0,4720:0:0:0:0:
448,192,4532,1,0,0:0:0:0:
64,192,4532,1,0,0:0:0:0:
64,192,4860,128,0,5001:0:0:0:0:
320,192,4860,128,0,5001:0:0:0:0:
64,192,5048,128,0,5188:0:0:0:0:
320,192,5048,128,0,5188:0:0:0:0:
448,192,5095,1,0,0:0:0:0:
192,192,5235,1,0,0:0:0:0:
448,192,5470,128,0,5610:0:0:0:0:
64,192,5470,1,0,0:0:0:0:
192,192,5470,1,0,0:0:0:0:
320,192,5657,1,0,0:0:0:0:
320,192,5845,1,0,0:0:0:0:
64,192,5938,1,0,0:0:0:0:
448,192,5985,1,0,0:0:0:0:
320,192,6032,128,0,6313:0:0:0:0:
192,192,6032,1,0,0:0:0:0:
192,192,6345,1,0,0:0:0:0:
320,192,6595,128,0,6720:0:0:0:0:
448,192,6595,1,0,0:0:0:0:
64,192,6595,1,0,0:0:0:0:
192,192,6720,128,0,6829:0:0:0:0:
448,192,6970,1,0,0:0:0:0:
64,192,6970,1,0,0:0:0:0:
320,192,6970,1,0,0:0:0:0:
192,192,7110,1,0,0:0:0:0:
448,192,7204,1,0,0:0:0:0:
192,192,7298,1,0,0:0:0:0:
448,192,7345,1,0,0:0:0:0:
64,192,7345,1,0,0:0:0:0:
320,192,7391,1,0,0:0:0:0:
448,192,7485,128,0,7954:0:0:0:0:
320,192,7720,1,0,0:0:0:0:
64,192,7720,1,0,0:0:0:0:
192,192,7907,1,0,0:0:0:0:
320,192,8001,1,0,0:0:0:0:
192,192,8095,1,0,0:0:0:0:
64,192,8095,1,0,0:0:0:0:
448,192,8095,128,0,8188:0:0:0:0:
320,192,8235,1,0,0:0:0:0:
448,192,8407,1,0,0:0:0:0:
192,192,8438,1,0,0:0:0:0:
64,192,8470,1,0,0:0:0:0:
320,192,8501,1,0,0:0:0:0:
448,192,8563,1,0,0:0:0:0:
320,192,8657,1,0,0:0:0:0:
192,192,8657,1,0,0:0:0:0:
64,192,8845,1,0,0:0:0:0:
320,192,8938,1,0,0:0:0:0:
192,192,8985,1,0,0:0:0:0:
448,192,9032,128,0,9266:0:0:0:0:
320,192,9032,1,0,0:0:0:0:
192,192,9407,1,0,0:0:0:0:
320,192,9407,1,0,0:0:0:0:
64,192,9532,1,0,0:0:0:0:
320,192,9548,128,0,9735:0:0:0:0:
192,192,9595,1,0,0:0:0:0:
448,192,9595,1,0,0:0:0:0:
192,192,9782,1,0,0:0:0:0:
448,192,9907,1,0,0:0:0:0:
320,192,9938,1,0,0:0:0:0:
192,192,9970,1,0,0:0:0:0:
64,192,9970,128,0,10110:0:0:0:0:
320,192,10157,1,0,0:0:0:0:
448,192,10345,1,0,0:0:0:0:
192,192,10345,1,0,0:0:0:0:
64,192,10470,1,0,0:0:0:0:
192,192,10501,1,0,0:0:0:0:
320,192,10532,1,0,0:0:0:0:
448,192,10532,128,0,10720:0:0:0:0:
320,192,10860,128,0,11001:0:0:0:0:
448,192,10860,128,0,11001:0:0:0:0:
448,192,11048,128,0,11188:0:0:0:0:
320,192,11048,128,0,11188:0:0:0:0:
64,192,11095,1,0,0:0:0:0:
192,192,11235,1,0,0:0:0:0:
192,192,11470,1,0,0:0:0:0:
320,192,11470,128,0,11610:0:0:0:0:
64,192,11470,1,0,0:0:0:0:
448,192,11657,1,0,0:0:0:0:
320,192,11845,1,0,0:0:0:0:
192,192,11938,1,0,0:0:0:0:
448,192,11985,1,0,0:0:0:0:
192,192,12032,128,0,12313:0:0:0:0:
64,192,12032,1,0,0:0:0:0:
320,192,12032,128,0,12313:0:0:0:0:
448,192,12360,1,0,0:0:0:0:
320,192,12595,128,0,12720:0:0:0:0:
64,192,12595,1,0,0:0:0:0:
448,192,12595,1,0,0:0:0:0:
192,192,12720,128,0,12829:0:0:0:0:
320,192,12970,128,0,13720:0:0:0:0:
64,192,12970,128,0,13720:0:0:0:0:
448,192,12970,1,0,0:0:0:0:
192,192,13345,1,0,0:0:0:0:
192,192,13532,1,0,0:0:0:0:
192,192,13720,1,0,0:0:0:0:
320,192,14095,128,0,14470:0:0:0:0:
64,192,14095,128,0,14282:0:0:0:0:
448,192,14095,128,0,14188:0:0:0:0:
448,192,14470,1,0,0:0:0:0:
64,192,14470,1,0,0:0:0:0:
448,192,14657,1,0,0:0:0:0:
192,192,14845,1,0,0:0:0:0:
448,192,14845,1,0,0:0:0:0:
64,192,15032,1,0,0:0:0:0:
192,192,15032,128,0,15407:0:0:0:0:
448,192,15032,128,0,15407:0:0:0:0:
448,192,15595,1,0,0:0:0:0:
320,192,15626,1,0,0:0:0:0:
64,192,15782,1,0,0:0:0:0:
448,192,15782,1,0,0:0:0:0:
320,192,15813,1,0,0:0:0:0:
320,192,15970,128,0,16110:0:0:0:0:
320,192,16157,128,0,16298:0:0:0:0:
64,192,16345,1,0,0:0:0:0:
320,192,16345,128,0,16485:0:0:0:0:
64,192,16532,128,0,16907:0:0:0:0:
320,192,16532,128,0,16907:0:0:0:0:
320,192,17095,1,0,0:0:0:0:
192,192,17126,1,0,0:0:0:0:
448,192,17282,1,0,0:0:0:0:
192,192,17282,1,0,0:0:0:0:
192,192,17376,1,0,0:0:0:0:
192,192,17470,1,0,0:0:0:0:
192,192,17657,1,0,0:0:0:0:
320,192,17845,1,0,0:0:0:0:
192,192,17845,1,0,0:0:0:0:
192,192,18032,128,0,18407:0:0:0:0:
448,192,18407,1,0,0:0:0:0:
320,192,18595,1,0,0:0:0:0:
320,192,18782,1,0,0:0:0:0:
64,192,18782,1,0,0:0:0:0:
192,192,18970,128,0,19063:0:0:0:0:
64,192,18970,128,0,19110:0:0:0:0:
448,192,18970,128,0,19204:0:0:0:0:
320,192,19204,1,0,0:0:0:0:
320,192,19298,1,0,0:0:0:0:
320,192,19470,1,0,0:0:0:0:
448,192,19501,1,0,0:0:0:0:
192,192,19532,1,0,0:0:0:0:
64,192,19563,1,0,0:0:0:0:
320,192,19595,1,0,0:0:0:0:
448,192,19626,1,0,0:0:0:0:
192,192,19657,1,0,0:0:0:0:
64,192,19688,1,0,0:0:0:0:
320,192,19720,1,0,0:0:0:0:
320,192,19813,1,0,0:0:0:0:
320,192,19907,1,0,0:0:0:0:
192,192,20095,128,0,20188:0:0:0:0:
320,192,20095,128,0,20235:0:0:0:0:
448,192,20095,128,0,20470:0:0:0:0:
64,192,20095,128,0,20141:0:0:0:0:
320,192,20329,128,0,20470:0:0:0:0:
192,192,20376,128,0,20470:0:0:0:0:
64,192,20423,128,0,20470:0:0:0:0:
64,192,20657,1,0,0:0:0:0:
448,192,20845,1,0,0:0:0:0:
64,192,20845,1,0,0:0:0:0:
448,192,21032,128,0,21407:0:0:0:0:
192,192,21032,128,0,21407:0:0:0:0:
320,192,21595,1,0,0:0:0:0:
64,192,21782,1,0,0:0:0:0:
320,192,21782,1,0,0:0:0:0:
192,192,21970,128,0,22110:0:0:0:0:
192,192,22157,128,0,22298:0:0:0:0:
448,192,22345,1,0,0:0:0:0:
192,192,22345,128,0,22485:0:0:0:0:
320,192,22532,128,0,22579:0:0:0:0:
448,192,22532,128,0,23048:0:0:0:0:
64,192,22532,128,0,22907:0:0:0:0:
192,192,22907,1,0,0:0:0:0:
320,192,23095,1,0,0:0:0:0:
192,192,23126,1,0,0:0:0:0:
64,192,23282,1,0,0:0:0:0:
320,192,23282,1,0,0:0:0:0:
320,192,23376,1,0,0:0:0:0:
320,192,23470,1,0,0:0:0:0:
192,192,23657,1,0,0:0:0:0:
192,192,23845,1,0,0:0:0:0:
320,192,23845,1,0,0:0:0:0:
64,192,23938,1,0,0:0:0:0:
448,192,23938,1,0,0:0:0:0:
320,192,23970,1,0,0:0:0:0:
192,192,24001,1,0,0:0:0:0:
64,192,24032,1,0,0:0:0:0:
320,192,24063,1,0,0:0:0:0:
448,192,24095,128,0,24313:0:0:0:0:
192,192,24407,1,0,0:0:0:0:
64,192,24626,128,0,24852:0:0:0:0:
192,192,24641,128,0,24829:0:0:0:0:
320,192,24688,128,0,24813:0:0:0:0:
448,192,24720,128,0,24782:0:0:0:0:
64,192,24970,1,0,0:0:0:0:
448,192,24970,1,0,0:0:0:0:
192,192,24970,128,0,25157:0:0:0:0:
320,192,25345,1,0,0:0:0:0:
64,192,25345,1,0,0:0:0:0:
448,192,25532,128,0,25860:0:0:0:0:
192,192,25720,1,0,0:0:0:0:
64,192,25720,1,0,0:0:0:0:
448,192,25907,128,0,26001:0:0:0:0:
448,192,26048,128,0,26235:0:0:0:0:
64,192,26095,1,0,0:0:0:0:
320,192,26095,1,0,0:0:0:0:
320,192,26282,1,0,0:0:0:0:
192,192,26313,1,0,0:0:0:0:
64,192,26345,1,0,0:0:0:0:
448,192,26470,1,0,0:0:0:0:
320,192,26470,128,0,26657:0:0:0:0:
192,192,26470,128,0,26751:0:0:0:0:
320,192,26845,1,0,0:0:0:0:
64,192,26845,1,0,0:0:0:0:
192,192,27032,128,0,27360:0:0:0:0:
320,192,27032,128,0,27360:0:0:0:0:
64,192,27220,1,0,0:0:0:0:
192,192,27407,128,0,27501:0:0:0:0:
320,192,27407,128,0,27501:0:0:0:0:
320,192,27548,128,0,27735:0:0:0:0:
192,192,27548,128,0,27735:0:0:0:0:
448,192,27595,1,0,0:0:0:0:
448,192,27782,1,0,0:0:0:0:
64,192,27813,1,0,0:0:0:0:
192,192,27845,1,0,0:0:0:0:
320,192,27970,128,0,28063:0:0:0:0:
448,192,27970,1,0,0:0:0:0:
64,192,27970,128,0,28345:0:0:0:0:
192,192,27970,128,0,28345:0:0:0:0:
448,192,28345,1,0,0:0:0:0:
448,192,28532,128,0,28860:0:0:0:0:
192,192,28532,128,0,28860:0:0:0:0:
64,192,28532,128,0,28860:0:0:0:0:
448,192,28907,128,0,29001:0:0:0:0:
64,192,28907,128,0,29001:0:0:0:0:
192,192,28907,128,0,29001:0:0:0:0:
448,192,29048,128,0,29235:0:0:0:0:
192,192,29048,128,0,29235:0:0:0:0:
64,192,29048,128,0,29235:0:0:0:0:
192,192,29470,1,0,0:0:0:0:
448,192,29470,1,0,0:0:0:0:
64,192,29470,1,0,0:0:0:0:
448,192,29657,1,0,0:0:0:0:
320,192,29657,1,0,0:0:0:0:
64,192,29657,1,0,0:0:0:0:
448,192,29845,1,0,0:0:0:0:
192,192,29845,1,0,0:0:0:0:
64,192,29845,1,0,0:0:0:0:
320,192,30032,128,0,30173:0:0:0:0:
64,192,30032,128,0,30313:0:0:0:0:
448,192,30032,128,0,30595:0:0:0:0:
192,192,30032,128,0,30454:0:0:0:0:
320,192,30407,1,0,0:0:0:0:
192,192,30595,1,0,0:0:0:0:
64,192,30595,1,0,0:0:0:0:
64,192,30782,128,0,30876:0:0:0:0:
192,192,30813,128,0,30923:0:0:0:0:
320,192,30852,128,0,30970:0:0:0:0:
448,192,30923,128,0,31345:0:0:0:0:
320,192,31345,1,0,0:0:0:0:
64,192,31345,1,0,0:0:0:0:
448,192,31532,128,0,31860:0:0:0:0:
320,192,31532,128,0,31860:0:0:0:0:
64,192,31720,1,0,0:0:0:0:
448,192,31907,128,0,32001:0:0:0:0:
320,192,31907,128,0,32001:0:0:0:0:
448,192,32048,128,0,32235:0:0:0:0:
320,192,32048,128,0,32235:0:0:0:0:
192,192,32095,1,0,0:0:0:0:
192,192,32282,1,0,0:0:0:0:
64,192,32313,1,0,0:0:0:0:
448,192,32345,1,0,0:0:0:0:
448,192,32470,1,0,0:0:0:0:
320,192,32470,128,0,32751:0:0:0:0:
192,192,32470,128,0,32657:0:0:0:0:
448,192,32845,1,0,0:0:0:0:
64,192,32845,1,0,0:0:0:0:
192,192,33032,128,0,33360:0:0:0:0:
448,192,33032,128,0,33360:0:0:0:0:
320,192,33220,1,0,0:0:0:0:
448,192,33407,128,0,33501:0:0:0:0:
192,192,33407,128,0,33501:0:0:0:0:
192,192,33548,128,0,33735:0:0:0:0:
448,192,33548,128,0,33735:0:0:0:0:
64,192,33595,1,0,0:0:0:0:
320,192,33782,1,0,0:0:0:0:
192,192,33813,1,0,0:0:0:0:
64,192,33845,1,0,0:0:0:0:
64,192,33970,128,0,34345:0:0:0:0:
448,192,33970,1,0,0:0:0:0:
320,192,33970,128,0,34063:0:0:0:0:
192,192,33970,128,0,34345:0:0:0:0:
320,192,34345,1,0,0:0:0:0:
64,192,34532,128,0,34860:0:0:0:0:
448,192,34532,128,0,34860:0:0:0:0:
320,192,34532,128,0,34860:0:0:0:0:
64,192,34907,128,0,35001:0:0:0:0:
448,192,34907,128,0,35001:0:0:0:0:
320,192,34907,128,0,35001:0:0:0:0:
64,192,35048,128,0,35235:0:0:0:0:
448,192,35048,128,0,35235:0:0:0:0:
320,192,35048,128,0,35235:0:0:0:0:
192,192,35470,1,0,0:0:0:0:
64,192,35470,1,0,0:0:0:0:
448,192,35470,128,0,35563:0:0:0:0:
448,192,35657,1,0,0:0:0:0:
64,192,35657,1,0,0:0:0:0:
320,192,35657,128,0,35751:0:0:0:0:
64,192,35845,1,0,0:0:0:0:
448,192,35845,1,0,0:0:0:0:
192,192,35845,128,0,35938:0:0:0:0:
320,192,36032,128,0,36063:0:0:0:0:
448,192,36032,1,0,0:0:0:0:
64,192,36032,128,0,36126:0:0:0:0:
192,192,36032,128,0,36079:0:0:0:0:
64,192,36313,1,0,0:0:0:0:
448,192,36407,128,0,36641:0:0:0:0:
320,192,36407,128,0,36532:0:0:0:0:
192,192,36407,128,0,36829:0:0:0:0:
64,192,36876,1,0,0:0:0:0:
192,192,36907,1,0,0:0:0:0:
320,192,36938,1,0,0:0:0:0:
448,192,36970,128,0,37251:0:0:0:0:
64,192,36970,1,0,0:0:0:0:
320,192,37345,1,0,0:0:0:0:
64,192,37345,1,0,0:0:0:0:
192,192,37532,1,0,0:0:0:0:
448,192,37532,128,0,37860:0:0:0:0:
192,192,37907,1,0,0:0:0:0:
64,192,37907,1,0,0:0:0:0:
448,192,37907,128,0,38001:0:0:0:0:
448,192,38048,128,0,38235:0:0:0:0:
320,192,38095,1,0,0:0:0:0:
320,192,38470,128,0,38751:0:0:0:0:
192,192,38470,1,0,0:0:0:0:
192,192,38610,1,0,0:0:0:0:
192,192,38798,1,0,0:0:0:0:
64,192,38891,1,0,0:0:0:0:
192,192,38985,1,0,0:0:0:0:
320,192,39032,128,0,39360:0:0:0:0:
192,192,39173,1,0,0:0:0:0:
192,192,39266,1,0,0:0:0:0:
320,192,39407,128,0,39501:0:0:0:0:
192,192,39454,1,0,0:0:0:0:
192,192,39548,1,0,0:0:0:0:
320,192,39548,128,0,39735:0:0:0:0:
64,192,39782,1,0,0:0:0:0:
448,192,39876,1,0,0:0:0:0:
320,192,39907,1,0,0:0:0:0:
192,192,39938,1,0,0:0:0:0:
448,192,39970,1,0,0:0:0:0:
64,192,39970,128,0,40251:0:0:0:0:
448,192,40345,1,0,0:0:0:0:
320,192,40345,1,0,0:0:0:0:
192,192,40532,1,0,0:0:0:0:
64,192,40532,128,0,40860:0:0:0:0:
448,192,40720,1,0,0:0:0:0:
320,192,40766,1,0,0:0:0:0:
192,192,40813,1,0,0:0:0:0:
320,192,40907,1,0,0:0:0:0:
448,192,40907,1,0,0:0:0:0:
64,192,40907,128,0,41001:0:0:0:0:
64,192,41048,128,0,41235:0:0:0:0:
192,192,41095,1,0,0:0:0:0:
448,192,41470,1,0,0:0:0:0:
192,192,41470,1,0,0:0:0:0:
448,192,41657,1,0,0:0:0:0:
192,192,41657,1,0,0:0:0:0:
320,192,41845,1,0,0:0:0:0:
448,192,42032,1,0,0:0:0:0:
192,192,42032,128,0,42407:0:0:0:0:
320,192,42079,1,0,0:0:0:0:
64,192,42126,1,0,0:0:0:0:
448,192,42173,1,0,0:0:0:0:
320,192,42220,1,0,0:0:0:0:
64,192,42266,1,0,0:0:0:0:
448,192,42313,1,0,0:0:0:0:
320,192,42407,1,0,0:0:0:0:
192,192,42595,128,0,42782:0:0:0:0:
64,192,42595,128,0,42876:0:0:0:0:
448,192,42829,1,0,0:0:0:0:
320,192,42876,1,0,0:0:0:0:
192,192,42923,1,0,0:0:0:0:
320,192,42970,1,0,0:0:0:0:
64,192,42970,1,0,0:0:0:0:
448,192,43001,1,0,0:0:0:0:
448,192,43110,1,0,0:0:0:0:
448,192,43298,1,0,0:0:0:0:
192,192,43345,1,0,0:0:0:0:
448,192,43485,1,0,0:0:0:0:
320,192,43532,128,0,43860:0:0:0:0:
64,192,43532,1,0,0:0:0:0:
448,192,43907,1,0,0:0:0:0:
320,192,43907,128,0,44001:0:0:0:0:
320,192,44048,128,0,44235:0:0:0:0:
64,192,44095,1,0,0:0:0:0:
192,192,44282,1,0,0:0:0:0:
448,192,44282,1,0,0:0:0:0:
320,192,44470,1,0,0:0:0:0:
192,192,44501,128,0,44563:0:0:0:0:
320,192,44657,1,0,0:0:0:0:
192,192,44688,128,0,44751:0:0:0:0:
320,192,44845,1,0,0:0:0:0:
192,192,44876,128,0,44938:0:0:0:0:
320,192,45032,128,0,45173:0:0:0:0:
448,192,45032,128,0,45079:0:0:0:0:
192,192,45032,128,0,45360:0:0:0:0:
64,192,45407,1,0,0:0:0:0:
448,192,45407,1,0,0:0:0:0:
192,192,45407,128,0,45501:0:0:0:0:
192,192,45548,128,0,45735:0:0:0:0:
448,192,45595,1,0,0:0:0:0:
64,192,45782,1,0,0:0:0:0:
192,192,45970,1,0,0:0:0:0:
320,192,46001,1,0,0:0:0:0:
192,192,46157,1,0,0:0:0:0:
320,192,46188,1,0,0:0:0:0:
192,192,46345,1,0,0:0:0:0:
320,192,46376,1,0,0:0:0:0:
320,192,46532,128,0,46860:0:0:0:0:
192,192,46532,128,0,46673:0:0:0:0:
64,192,46532,128,0,46579:0:0:0:0:
448,192,46907,1,0,0:0:0:0:
64,192,46907,1,0,0:0:0:0:
320,192,46907,128,0,47001:0:0:0:0:
320,192,47048,128,0,47235:0:0:0:0:
192,192,47095,1,0,0:0:0:0:
64,192,47470,128,0,47610:0:0:0:0:
320,192,47470,128,0,47610:0:0:0:0:
448,192,47470,128,0,47610:0:0:0:0:
64,192,47657,128,0,47798:0:0:0:0:
448,192,47657,128,0,47798:0:0:0:0:
320,192,47657,128,0,47798:0:0:0:0:
64,192,47845,128,0,48126:0:0:0:0:
448,192,47845,128,0,48032:0:0:0:0:
320,192,47845,128,0,48079:0:0:0:0:
192,192,48220,1,0,0:0:0:0:
64,192,48360,1,0,0:0:0:0:
320,192,48360,1,0,0:0:0:0:
320,192,48548,1,0,0:0:0:0:
64,192,48548,1,0,0:0:0:0:
320,192,48735,1,0,0:0:0:0:
64,192,48735,1,0,0:0:0:0:
192,192,48970,128,0,49063:0:0:0:0:
448,192,48970,128,0,49157:0:0:0:0:
320,192,48970,128,0,49251:0:0:0:0:
64,192,48970,1,0,0:0:0:0:
192,192,49345,1,0,0:0:0:0:
64,192,49345,1,0,0:0:0:0:
192,192,49532,1,0,0:0:0:0:
320,192,49532,128,0,49860:0:0:0:0:
448,192,49907,1,0,0:0:0:0:
64,192,49907,1,0,0:0:0:0:
320,192,49907,128,0,50001:0:0:0:0:
320,192,50048,128,0,50235:0:0:0:0:
192,192,50095,1,0,0:0:0:0:
448,192,50282,1,0,0:0:0:0:
192,192,50470,128,0,50751:0:0:0:0:
320,192,50470,1,0,0:0:0:0:
320,192,50610,1,0,0:0:0:0:
320,192,50798,1,0,0:0:0:0:
448,192,50891,1,0,0:0:0:0:
320,192,50985,1,0,0:0:0:0:
192,192,51032,128,0,51360:0:0:0:0:
320,192,51173,1,0,0:0:0:0:
320,192,51266,1,0,0:0:0:0:
192,192,51407,128,0,51501:0:0:0:0:
320,192,51454,1,0,0:0:0:0:
320,192,51548,1,0,0:0:0:0:
192,192,51548,128,0,51735:0:0:0:0:
320,192,51782,1,0,0:0:0:0:
448,192,51845,1,0,0:0:0:0:
320,192,51876,1,0,0:0:0:0:
192,192,51907,1,0,0:0:0:0:
64,192,51938,1,0,0:0:0:0:
192,192,51970,128,0,52251:0:0:0:0:
320,192,51970,128,0,52251:0:0:0:0:
64,192,52345,1,0,0:0:0:0:
448,192,52345,1,0,0:0:0:0:
192,192,52532,128,0,52860:0:0:0:0:
320,192,52532,128,0,52860:0:0:0:0:
448,192,52720,1,0,0:0:0:0:
64,192,52766,1,0,0:0:0:0:
448,192,52813,1,0,0:0:0:0:
64,192,52860,1,0,0:0:0:0:
192,192,52907,128,0,53001:0:0:0:0:
320,192,52907,128,0,53001:0:0:0:0:
192,192,53048,128,0,53235:0:0:0:0:
320,192,53048,128,0,53235:0:0:0:0:
448,192,53282,1,0,0:0:0:0:
192,192,53470,1,0,0:0:0:0:
64,192,53470,128,0,53563:0:0:0:0:
320,192,53657,1,0,0:0:0:0:
192,192,53657,128,0,53751:0:0:0:0:
448,192,53845,1,0,0:0:0:0:
320,192,53845,128,0,53938:0:0:0:0:
320,192,54032,1,0,0:0:0:0:
448,192,54032,128,0,54126:0:0:0:0:
192,192,54063,1,0,0:0:0:0:
64,192,54095,1,0,0:0:0:0:
320,192,54157,1,0,0:0:0:0:
192,192,54188,1,0,0:0:0:0:
64,192,54220,1,0,0:0:0:0:
192,192,54407,1,0,0:0:0:0:
64,192,54407,1,0,0:0:0:0:
448,192,54595,1,0,0:0:0:0:
320,192,54595,1,0,0:0:0:0:
448,192,54813,1,0,0:0:0:0:
320,192,54845,1,0,0:0:0:0:
192,192,54876,1,0,0:0:0:0:
64,192,54907,1,0,0:0:0:0:
192,192,54938,1,0,0:0:0:0:
320,192,54970,1,0,0:0:0:0:
448,192,55001,1,0,0:0:0:0:
448,192,55110,1,0,0:0:0:0:
448,192,55298,1,0,0:0:0:0:
192,192,55345,1,0,0:0:0:0:
448,192,55485,1,0,0:0:0:0:
320,192,55532,1,0,0:0:0:0:
64,192,55532,128,0,55860:0:0:0:0:
64,192,55907,128,0,56001:0:0:0:0:
320,192,55907,1,0,0:0:0:0:
64,192,56048,128,0,56235:0:0:0:0:
320,192,56095,1,0,0:0:0:0:
448,192,56282,1,0,0:0:0:0:
192,192,56282,1,0,0:0:0:0:
192,192,56470,1,0,0:0:0:0:
320,192,56501,128,0,56563:0:0:0:0:
192,192,56657,1,0,0:0:0:0:
320,192,56688,128,0,56751:0:0:0:0:
192,192,56845,1,0,0:0:0:0:
320,192,56876,128,0,56938:0:0:0:0:
320,192,57032,128,0,57360:0:0:0:0:
448,192,57032,128,0,57079:0:0:0:0:
192,192,57032,128,0,57173:0:0:0:0:
320,192,57407,128,0,57501:0:0:0:0:
192,192,57407,1,0,0:0:0:0:
64,192,57407,1,0,0:0:0:0:
320,192,57548,128,0,57735:0:0:0:0:
448,192,57595,1,0,0:0:0:0:
64,192,57782,1,0,0:0:0:0:
192,192,57782,1,0,0:0:0:0:
320,192,57970,1,0,0:0:0:0:
448,192,58001,1,0,0:0:0:0:
320,192,58157,1,0,0:0:0:0:
448,192,58188,1,0,0:0:0:0:
320,192,58345,1,0,0:0:0:0:
448,192,58376,1,0,0:0:0:0:
192,192,58532,128,0,58579:0:0:0:0:
320,192,58532,128,0,58673:0:0:0:0:
448,192,58532,128,0,58860:0:0:0:0:
448,192,58907,128,0,59001:0:0:0:0:
64,192,58907,1,0,0:0:0:0:
320,192,58907,1,0,0:0:0:0:
448,192,59048,128,0,59235:0:0:0:0:
192,192,59095,1,0,0:0:0:0:
448,192,59470,128,0,59610:0:0:0:0:
320,192,59470,128,0,59610:0:0:0:0:
64,192,59470,128,0,59610:0:0:0:0:
320,192,59657,128,0,59798:0:0:0:0:
448,192,59657,128,0,59798:0:0:0:0:
64,192,59657,128,0,59798:0:0:0:0:
320,192,59845,128,0,60079:0:0:0:0:
448,192,59845,128,0,60032:0:0:0:0:
64,192,59845,128,0,60126:0:0:0:0:
192,192,60220,1,0,0:0:0:0:
192,192,60407,1,0,0:0:0:0:
320,192,60438,128,0,60532:0:0:0:0:
192,192,60595,1,0,0:0:0:0:
448,192,60595,128,0,60876:0:0:0:0:
320,192,60641,1,0,0:0:0:0:
192,192,60720,1,0,0:0:0:0:
320,192,60782,1,0,0:0:0:0:
192,192,60829,1,0,0:0:0:0:
64,192,60923,1,0,0:0:0:0:
320,192,60923,128,0,61110:0:0:0:0:
448,192,61110,128,0,61298:0:0:0:0:
320,192,61298,128,0,61391:0:0:0:0:
64,192,61485,1,0,0:0:0:0:
192,192,61485,1,0,0:0:0:0:
320,192,61579,1,0,0:0:0:0:
192,192,61673,1,0,0:0:0:0:
192,192,61860,128,0,62048:0:0:0:0:
448,192,62048,1,0,0:0:0:0:
320,192,62048,128,0,62141:0:0:0:0:
64,192,62048,128,0,62141:0:0:0:0:
320,192,62235,128,0,62329:0:0:0:0:
192,192,62235,128,0,62329:0:0:0:0:
64,192,62423,1,0,0:0:0:0:
448,192,62423,1,0,0:0:0:0:
320,192,62423,128,0,62563:0:0:0:0:
192,192,62610,1,0,0:0:0:0:
320,192,62704,1,0,0:0:0:0:
192,192,62798,1,0,0:0:0:0:
320,192,62891,1,0,0:0:0:0:
448,192,62985,1,0,0:0:0:0:
192,192,62985,128,0,63266:0:0:0:0:
64,192,62985,128,0,63266:0:0:0:0:
192,192,63360,128,0,63454:0:0:0:0:
64,192,63360,128,0,63454:0:0:0:0:
64,192,63548,128,0,63923:0:0:0:0:
320,192,63548,1,0,0:0:0:0:
192,192,63548,128,0,63782:0:0:0:0:
192,192,63876,1,0,0:0:0:0:
320,192,63907,128,0,64157:0:0:0:0:
448,192,63970,1,0,0:0:0:0:
448,192,64110,128,0,64376:0:0:0:0:
320,192,64298,128,0,64438:0:0:0:0:
320,192,64485,128,0,64720:0:0:0:0:
448,192,64485,128,0,64766:0:0:0:0:
320,192,64860,128,0,65001:0:0:0:0:
448,192,64860,128,0,65001:0:0:0:0:
320,192,65048,128,0,65188:0:0:0:0:
192,192,65048,128,0,65188:0:0:0:0:
320,192,65235,128,0,65376:0:0:0:0:
64,192,65235,128,0,65376:0:0:0:0:
64,192,65423,128,0,65938:0:0:0:0:
192,192,65423,128,0,65938:0:0:0:0:
320,192,65985,1,0,0:0:0:0:
448,192,66032,1,0,0:0:0:0:
64,192,66032,1,0,0:0:0:0:
192,192,66079,1,0,0:0:0:0:
320,192,66126,1,0,0:0:0:0:
448,192,66173,1,0,0:0:0:0:
320,192,66220,1,0,0:0:0:0:
192,192,66266,1,0,0:0:0:0:
448,192,66313,1,0,0:0:0:0:
64,192,66313,1,0,0:0:0:0:
320,192,66360,1,0,0:0:0:0:
192,192,66407,1,0,0:0:0:0:
64,192,66454,1,0,0:0:0:0:
320,192,66595,128,0,66735:0:0:0:0:
448,192,66595,128,0,66688:0:0:0:0:
64,192,66595,128,0,66641:0:0:0:0:
448,192,66923,1,0,0:0:0:0:
64,192,66923,1,0,0:0:0:0:
320,192,66923,128,0,67110:0:0:0:0:
448,192,67110,128,0,67298:0:0:0:0:
320,192,67298,128,0,67391:0:0:0:0:
64,192,67485,1,0,0:0:0:0:
192,192,67485,1,0,0:0:0:0:
320,192,67579,1,0,0:0:0:0:
192,192,67673,1,0,0:0:0:0:
192,192,67860,128,0,68048:0:0:0:0:
64,192,68048,1,0,0:0:0:0:
320,192,68048,1,0,0:0:0:0:
448,192,68141,1,0,0:0:0:0:
320,192,68235,1,0,0:0:0:0:
448,192,68329,1,0,0:0:0:0:
64,192,68423,1,0,0:0:0:0:
448,192,68423,1,0,0:0:0:0:
192,192,68423,128,0,68610:0:0:0:0:
64,192,68610,1,0,0:0:0:0:
192,192,68704,1,0,0:0:0:0:
64,192,68798,1,0,0:0:0:0:
192,192,68891,1,0,0:0:0:0:
448,192,68985,1,0,0:0:0:0:
64,192,68985,128,0,69266:0:0:0:0:
192,192,68985,128,0,69266:0:0:0:0:
192,192,69360,128,0,69454:0:0:0:0:
64,192,69360,128,0,69454:0:0:0:0:
320,192,69548,1,0,0:0:0:0:
64,192,69548,128,0,69923:0:0:0:0:
192,192,69548,128,0,69805:0:0:0:0:
448,192,69970,128,0,70157:0:0:0:0:
320,192,69970,128,0,70063:0:0:0:0:
192,192,69970,128,0,70016:0:0:0:0:
64,192,70157,1,0,0:0:0:0:
192,192,70204,1,0,0:0:0:0:
320,192,70251,1,0,0:0:0:0:
448,192,70298,1,0,0:0:0:0:
320,192,70345,1,0,0:0:0:0:
192,192,70391,1,0,0:0:0:0:
448,192,70438,1,0,0:0:0:0:
64,192,70438,1,0,0:0:0:0:
320,192,70485,1,0,0:0:0:0:
192,192,70532,1,0,0:0:0:0:
64,192,70579,1,0,0:0:0:0:
320,192,70673,1,0,0:0:0:0:
448,192,70673,1,0,0:0:0:0:
192,192,70673,1,0,0:0:0:0:
448,192,71048,1,0,0:0:0:0:
320,192,71048,1,0,0:0:0:0:
64,192,71048,1,0,0:0:0:0:
64,192,71470,1,0,0:0:0:0:
448,192,71470,1,0,0:0:0:0:
192,192,71470,128,0,71657:0:0:0:0:
320,192,71845,1,0,0:0:0:0:
64,192,71845,1,0,0:0:0:0:
448,192,72032,128,0,72360:0:0:0:0:
192,192,72220,1,0,0:0:0:0:
64,192,72220,1,0,0:0:0:0:
448,192,72407,128,0,72501:0:0:0:0:
448,192,72548,128,0,72735:0:0:0:0:
64,192,72595,1,0,0:0:0:0:
320,192,72595,1,0,0:0:0:0:
320,192,72782,1,0,0:0:0:0:
192,192,72813,1,0,0:0:0:0:
64,192,72845,1,0,0:0:0:0:
448,192,72970,1,0,0:0:0:0:
320,192,72970,128,0,73157:0:0:0:0:
192,192,72970,128,0,73251:0:0:0:0:
320,192,73345,1,0,0:0:0:0:
64,192,73345,1,0,0:0:0:0:
192,192,73532,128,0,73860:0:0:0:0:
320,192,73532,128,0,73860:0:0:0:0:
64,192,73720,1,0,0:0:0:0:
192,192,73907,128,0,74001:0:0:0:0:
320,192,73907,128,0,74001:0:0:0:0:
320,192,74048,128,0,74235:0:0:0:0:
192,192,74048,128,0,74235:0:0:0:0:
448,192,74095,1,0,0:0:0:0:
448,192,74282,1,0,0:0:0:0:
64,192,74313,1,0,0:0:0:0:
192,192,74345,1,0,0:0:0:0:
320,192,74470,128,0,74563:0:0:0:0:
448,192,74470,1,0,0:0:0:0:
64,192,74470,128,0,74845:0:0:0:0:
192,192,74470,128,0,74845:0:0:0:0:
448,192,74845,1,0,0:0:0:0:
448,192,75032,128,0,75360:0:0:0:0:
192,192,75032,128,0,75360:0:0:0:0:
64,192,75032,128,0,75360:0:0:0:0:
448,192,75407,128,0,75501:0:0:0:0:
64,192,75407,128,0,75501:0:0:0:0:
192,192,75407,128,0,75501:0:0:0:0:
448,192,75548,128,0,75735:0:0:0:0:
192,192,75548,128,0,75735:0:0:0:0:
64,192,75548,128,0,75735:0:0:0:0:
192,192,75970,1,0,0:0:0:0:
448,192,75970,1,0,0:0:0:0:
64,192,75970,1,0,0:0:0:0:
448,192,76157,1,0,0:0:0:0:
320,192,76157,1,0,0:0:0:0:
64,192,76157,1,0,0:0:0:0:
448,192,76345,1,0,0:0:0:0:
192,192,76345,1,0,0:0:0:0:
64,192,76345,1,0,0:0:0:0:
320,192,76532,128,0,76673:0:0:0:0:
64,192,76532,128,0,76813:0:0:0:0:
448,192,76532,128,0,77095:0:0:0:0:
192,192,76532,128,0,76954:0:0:0:0:
320,192,76907,1,0,0:0:0:0:
192,192,77095,1,0,0:0:0:0:
64,192,77095,1,0,0:0:0:0:
64,192,77282,128,0,77376:0:0:0:0:
192,192,77313,128,0,77423:0:0:0:0:
320,192,77352,128,0,77470:0:0:0:0:
448,192,77423,128,0,77845:0:0:0:0:
320,192,77845,1,0,0:0:0:0:
64,192,77845,1,0,0:0:0:0:
448,192,78032,128,0,78360:0:0:0:0:
320,192,78032,128,0,78360:0:0:0:0:
64,192,78220,1,0,0:0:0:0:
448,192,78407,128,0,78501:0:0:0:0:
320,192,78407,128,0,78501:0:0:0:0:
448,192,78548,128,0,78735:0:0:0:0:
320,192,78548,128,0,78735:0:0:0:0:
192,192,78595,1,0,0:0:0:0:
192,192,78782,1,0,0:0:0:0:
64,192,78813,1,0,0:0:0:0:
448,192,78845,1,0,0:0:0:0:
448,192,78970,1,0,0:0:0:0:
320,192,78970,128,0,79251:0:0:0:0:
192,192,78970,128,0,79157:0:0:0:0:
448,192,79345,1,0,0:0:0:0:
64,192,79345,1,0,0:0:0:0:
192,192,79532,128,0,79860:0:0:0:0:
448,192,79532,128,0,79860:0:0:0:0:
320,192,79720,1,0,0:0:0:0:
448,192,79907,128,0,80001:0:0:0:0:
192,192,79907,128,0,80001:0:0:0:0:
192,192,80048,128,0,80235:0:0:0:0:
448,192,80048,128,0,80235:0:0:0:0:
64,192,80095,1,0,0:0:0:0:
320,192,80282,1,0,0:0:0:0:
192,192,80313,1,0,0:0:0:0:
64,192,80345,1,0,0:0:0:0:
64,192,80470,128,0,80845:0:0:0:0:
448,192,80470,1,0,0:0:0:0:
320,192,80470,128,0,80563:0:0:0:0:
192,192,80470,128,0,80845:0:0:0:0:
320,192,80845,1,0,0:0:0:0:
64,192,81032,128,0,81360:0:0:0:0:
448,192,81032,128,0,81360:0:0:0:0:
320,192,81032,128,0,81360:0:0:0:0:
64,192,81407,128,0,81501:0:0:0:0:
448,192,81407,128,0,81501:0:0:0:0:
320,192,81407,128,0,81501:0:0:0:0:
64,192,81548,128,0,81782:0:0:0:0:
448,192,81548,128,0,81735:0:0:0:0:
320,192,81548,128,0,81735:0:0:0:0:
192,192,81813,1,0,0:0:0:0:
320,192,81845,1,0,0:0:0:0:
448,192,81876,1,0,0:0:0:0:
64,192,81876,1,0,0:0:0:0:
192,192,81907,1,0,0:0:0:0:
320,192,81938,1,0,0:0:0:0:
192,192,81970,128,0,82204:0:0:0:0:
64,192,81970,128,0,82095:0:0:0:0:
448,192,81970,128,0,82298:0:0:0:0:
64,192,82157,128,0,82251:0:0:0:0:
320,192,82157,128,0,82298:0:0:0:0:
192,192,82345,128,0,82438:0:0:0:0:
448,192,82345,128,0,82532:0:0:0:0:
64,192,82345,128,0,82485:0:0:0:0:
320,192,82532,128,0,82563:0:0:0:0:
192,192,82532,128,0,82579:0:0:0:0:
64,192,82532,128,0,82626:0:0:0:0:
64,192,82813,1,0,0:0:0:0:
448,192,82907,128,0,83141:0:0:0:0:
320,192,82907,128,0,83032:0:0:0:0:
192,192,82907,128,0,83329:0:0:0:0:
64,192,83376,1,0,0:0:0:0:
192,192,83407,1,0,0:0:0:0:
320,192,83438,1,0,0:0:0:0:
448,192,83470,128,0,83751:0:0:0:0:
64,192,83470,1,0,0:0:0:0:
320,192,83845,1,0,0:0:0:0:
64,192,83845,1,0,0:0:0:0:
192,192,84032,1,0,0:0:0:0:
448,192,84032,128,0,84360:0:0:0:0:
192,192,84407,1,0,0:0:0:0:
64,192,84407,1,0,0:0:0:0:
448,192,84407,128,0,84501:0:0:0:0:
448,192,84548,128,0,84735:0:0:0:0:
320,192,84595,1,0,0:0:0:0:
320,192,84970,128,0,85251:0:0:0:0:
192,192,84970,1,0,0:0:0:0:
192,192,85110,1,0,0:0:0:0:
192,192,85298,1,0,0:0:0:0:
64,192,85391,1,0,0:0:0:0:
192,192,85485,1,0,0:0:0:0:
320,192,85532,128,0,85860:0:0:0:0:
192,192,85673,1,0,0:0:0:0:
192,192,85766,1,0,0:0:0:0:
320,192,85907,128,0,86001:0:0:0:0:
192,192,85954,1,0,0:0:0:0:
192,192,86048,1,0,0:0:0:0:
320,192,86048,128,0,86235:0:0:0:0:
64,192,86282,1,0,0:0:0:0:
448,192,86376,1,0,0:0:0:0:
320,192,86407,1,0,0:0:0:0:
192,192,86438,1,0,0:0:0:0:
448,192,86470,1,0,0:0:0:0:
64,192,86470,128,0,86751:0:0:0:0:
448,192,86845,1,0,0:0:0:0:
320,192,86845,1,0,0:0:0:0:
192,192,87032,1,0,0:0:0:0:
64,192,87032,128,0,87360:0:0:0:0:
448,192,87220,1,0,0:0:0:0:
320,192,87266,1,0,0:0:0:0:
192,192,87313,1,0,0:0:0:0:
320,192,87407,1,0,0:0:0:0:
448,192,87407,1,0,0:0:0:0:
64,192,87407,128,0,87501:0:0:0:0:
64,192,87548,128,0,87735:0:0:0:0:
192,192,87595,1,0,0:0:0:0:
448,192,87970,128,0,88626:0:0:0:0:
320,192,87970,128,0,88438:0:0:0:0:
192,192,87970,128,0,88251:0:0:0:0:
64,192,88157,1,0,0:0:0:0:
192,192,88345,1,0,0:0:0:0:
320,192,88532,1,0,0:0:0:0:
64,192,88720,1,0,0:0:0:0:
448,192,88720,1,0,0:0:0:0:
192,192,88782,1,0,0:0:0:0:
320,192,88845,1,0,0:0:0:0:
448,192,88907,1,0,0:0:0:0:
448,192,89095,1,0,0:0:0:0:
320,192,89095,1,0,0:0:0:0:
64,192,89095,1,0,0:0:0:0:
192,192,89141,1,0,0:0:0:0:
320,192,89188,1,0,0:0:0:0:
64,192,89235,1,0,0:0:0:0:
448,192,89235,1,0,0:0:0:0:
192,192,89282,1,0,0:0:0:0:
320,192,89329,1,0,0:0:0:0:
448,192,89376,1,0,0:0:0:0:
320,192,89470,1,0,0:0:0:0:
64,192,89470,1,0,0:0:0:0:
448,192,89501,1,0,0:0:0:0:
448,192,89610,1,0,0:0:0:0:
448,192,89798,1,0,0:0:0:0:
192,192,89845,1,0,0:0:0:0:
448,192,89985,1,0,0:0:0:0:
320,192,90032,128,0,90360:0:0:0:0:
64,192,90032,1,0,0:0:0:0:
448,192,90407,1,0,0:0:0:0:
320,192,90407,128,0,90501:0:0:0:0:
320,192,90548,128,0,90735:0:0:0:0:
64,192,90595,1,0,0:0:0:0:
192,192,90782,1,0,0:0:0:0:
448,192,90782,1,0,0:0:0:0:
320,192,90970,1,0,0:0:0:0:
192,192,91001,128,0,91063:0:0:0:0:
320,192,91157,1,0,0:0:0:0:
192,192,91188,128,0,91251:0:0:0:0:
320,192,91345,1,0,0:0:0:0:
192,192,91376,128,0,91438:0:0:0:0:
320,192,91532,128,0,91673:0:0:0:0:
448,192,91532,128,0,91579:0:0:0:0:
192,192,91532,128,0,91860:0:0:0:0:
64,192,91907,1,0,0:0:0:0:
448,192,91907,1,0,0:0:0:0:
192,192,91907,128,0,92001:0:0:0:0:
192,192,92048,128,0,92235:0:0:0:0:
448,192,92095,1,0,0:0:0:0:
64,192,92282,1,0,0:0:0:0:
192,192,92470,1,0,0:0:0:0:
320,192,92501,1,0,0:0:0:0:
192,192,92657,1,0,0:0:0:0:
320,192,92688,1,0,0:0:0:0:
192,192,92845,1,0,0:0:0:0:
320,192,92876,1,0,0:0:0:0:
320,192,93032,128,0,93360:0:0:0:0:
192,192,93032,128,0,93173:0:0:0:0:
64,192,93032,128,0,93079:0:0:0:0:
448,192,93407,1,0,0:0:0:0:
64,192,93407,1,0,0:0:0:0:
320,192,93407,128,0,93501:0:0:0:0:
320,192,93548,128,0,93735:0:0:0:0:
192,192,93595,1,0,0:0:0:0:
64,192,93970,128,0,94110:0:0:0:0:
320,192,93970,128,0,94110:0:0:0:0:
448,192,93970,128,0,94110:0:0:0:0:
64,192,94157,128,0,94298:0:0:0:0:
448,192,94157,128,0,94298:0:0:0:0:
320,192,94157,128,0,94298:0:0:0:0:
64,192,94345,128,0,94626:0:0:0:0:
448,192,94345,128,0,94532:0:0:0:0:
320,192,94345,128,0,94579:0:0:0:0:
192,192,94720,1,0,0:0:0:0:
64,192,94860,1,0,0:0:0:0:
320,192,94860,1,0,0:0:0:0:
320,192,95048,1,0,0:0:0:0:
64,192,95048,1,0,0:0:0:0:
320,192,95235,1,0,0:0:0:0:
64,192,95235,1,0,0:0:0:0:
192,192,95470,128,0,95563:0:0:0:0:
448,192,95470,128,0,95657:0:0:0:0:
320,192,95470,128,0,95751:0:0:0:0:
64,192,95470,1,0,0:0:0:0:
192,192,95845,1,0,0:0:0:0:
64,192,95845,1,0,0:0:0:0:
192,192,96032,1,0,0:0:0:0:
320,192,96032,128,0,96360:0:0:0:0:
448,192,96407,1,0,0:0:0:0:
64,192,96407,1,0,0:0:0:0:
320,192,96407,128,0,96501:0:0:0:0:
320,192,96548,128,0,96735:0:0:0:0:
192,192,96595,1,0,0:0:0:0:
448,192,96782,1,0,0:0:0:0:
192,192,96970,128,0,97251:0:0:0:0:
320,192,96970,1,0,0:0:0:0:
320,192,97110,1,0,0:0:0:0:
320,192,97298,1,0,0:0:0:0:
448,192,97391,1,0,0:0:0:0:
320,192,97485,1,0,0:0:0:0:
192,192,97532,128,0,97860:0:0:0:0:
320,192,97673,1,0,0:0:0:0:
320,192,97766,1,0,0:0:0:0:
192,192,97907,128,0,98001:0:0:0:0:
320,192,97954,1,0,0:0:0:0:
320,192,98048,1,0,0:0:0:0:
192,192,98048,128,0,98235:0:0:0:0:
320,192,98282,1,0,0:0:0:0:
448,192,98345,1,0,0:0:0:0:
320,192,98376,1,0,0:0:0:0:
192,192,98407,1,0,0:0:0:0:
64,192,98438,1,0,0:0:0:0:
192,192,98470,128,0,98751:0:0:0:0:
320,192,98470,128,0,98751:0:0:0:0:
64,192,98845,1,0,0:0:0:0:
448,192,98845,1,0,0:0:0:0:
192,192,99032,128,0,99360:0:0:0:0:
320,192,99032,128,0,99360:0:0:0:0:
448,192,99220,1,0,0:0:0:0:
64,192,99266,1,0,0:0:0:0:
448,192,99313,1,0,0:0:0:0:
64,192,99360,1,0,0:0:0:0:
192,192,99407,128,0,99501:0:0:0:0:
320,192,99407,128,0,99501:0:0:0:0:
192,192,99548,128,0,99735:0:0:0:0:
320,192,99548,128,0,99735:0:0:0:0:
448,192,99782,1,0,0:0:0:0:
192,192,99970,1,0,0:0:0:0:
64,192,99970,128,0,100063:0:0:0:0:
320,192,100157,1,0,0:0:0:0:
192,192,100157,128,0,100251:0:0:0:0:
448,192,100345,1,0,0:0:0:0:
320,192,100345,128,0,100438:0:0:0:0:
192,192,100532,128,0,100860:0:0:0:0:
320,192,100532,128,0,100860:0:0:0:0:
448,192,100532,128,0,100860:0:0:0:0:
192,192,100907,1,0,0:0:0:0:
64,192,100907,1,0,0:0:0:0:
448,192,101095,1,0,0:0:0:0:
320,192,101095,1,0,0:0:0:0:
448,192,101313,1,0,0:0:0:0:
320,192,101345,1,0,0:0:0:0:
192,192,101376,1,0,0:0:0:0:
64,192,101407,1,0,0:0:0:0:
192,192,101438,1,0,0:0:0:0:
320,192,101470,1,0,0:0:0:0:
448,192,101501,1,0,0:0:0:0:
448,192,101610,1,0,0:0:0:0:
448,192,101798,1,0,0:0:0:0:
192,192,101845,1,0,0:0:0:0:
448,192,101985,1,0,0:0:0:0:
320,192,102032,1,0,0:0:0:0:
64,192,102032,128,0,102360:0:0:0:0:
64,192,102407,128,0,102501:0:0:0:0:
320,192,102407,1,0,0:0:0:0:
64,192,102548,128,0,102735:0:0:0:0:
320,192,102595,1,0,0:0:0:0:
448,192,102782,1,0,0:0:0:0:
192,192,102782,1,0,0:0:0:0:
192,192,102970,1,0,0:0:0:0:
320,192,103001,128,0,103063:0:0:0:0:
192,192,103157,1,0,0:0:0:0:
320,192,103188,128,0,103251:0:0:0:0:
192,192,103345,1,0,0:0:0:0:
320,192,103376,128,0,103438:0:0:0:0:
320,192,103532,128,0,103860:0:0:0:0:
448,192,103532,128,0,103579:0:0:0:0:
192,192,103532,128,0,103673:0:0:0:0:
320,192,103907,128,0,104001:0:0:0:0:
192,192,103907,1,0,0:0:0:0:
64,192,103907,1,0,0:0:0:0:
320,192,104048,128,0,104235:0:0:0:0:
448,192,104095,1,0,0:0:0:0:
64,192,104282,1,0,0:0:0:0:
192,192,104282,1,0,0:0:0:0:
320,192,104470,1,0,0:0:0:0:
448,192,104501,1,0,0:0:0:0:
320,192,104657,1,0,0:0:0:0:
448,192,104688,1,0,0:0:0:0:
320,192,104845,1,0,0:0:0:0:
448,192,104876,1,0,0:0:0:0:
192,192,105032,128,0,105079:0:0:0:0:
320,192,105032,128,0,105173:0:0:0:0:
448,192,105032,128,0,105360:0:0:0:0:
448,192,105407,128,0,105501:0:0:0:0:
64,192,105407,1,0,0:0:0:0:
320,192,105407,1,0,0:0:0:0:
448,192,105548,128,0,105735:0:0:0:0:
192,192,105595,1,0,0:0:0:0:
448,192,105970,128,0,106110:0:0:0:0:
320,192,105970,128,0,106110:0:0:0:0:
64,192,105970,128,0,106110:0:0:0:0:
320,192,106157,128,0,106298:0:0:0:0:
448,192,106157,128,0,106298:0:0:0:0:
64,192,106157,128,0,106298:0:0:0:0:
320,192,106345,128,0,106579:0:0:0:0:
448,192,106345,128,0,106532:0:0:0:0:
64,192,106345,128,0,106626:0:0:0:0:
192,192,106720,1,0,0:0:0:0:
192,192,106907,1,0,0:0:0:0:
320,192,106938,128,0,107032:0:0:0:0:
448,192,107095,128,0,107188:0:0:0:0:
320,192,107126,128,0,107220:0:0:0:0:
192,192,107157,128,0,107251:0:0:0:0:
64,192,107188,128,0,107282:0:0:0:0:
448,192,107282,1,0,0:0:0:0:
192,192,107376,1,0,0:0:0:0:
320,192,107470,128,0,107985:0:0:0:0:
448,192,107470,1,0,0:0:0:0:
64,192,107470,128,0,107985:0:0:0:0:
192,192,108032,1,0,0:0:0:0:
320,192,108102,1,0,0:0:0:0:
64,192,108173,128,0,108360:0:0:0:0:
192,192,108173,128,0,108360:0:0:0:0:
448,192,108173,1,0,0:0:0:0:
448,192,108360,1,0,0:0:0:0:
320,192,108548,1,0,0:0:0:0:
448,192,108548,1,0,0:0:0:0:
320,192,108735,1,0,0:0:0:0:
448,192,108923,128,0,109438:0:0:0:0:
64,192,108923,128,0,109345:0:0:0:0:
192,192,108923,1,0,0:0:0:0:
320,192,109110,1,0,0:0:0:0:
192,192,109298,1,0,0:0:0:0:
64,192,109485,1,0,0:0:0:0:
448,192,109673,128,0,109907:0:0:0:0:
320,192,109673,128,0,110235:0:0:0:0:
192,192,109673,128,0,110235:0:0:0:0:
64,192,110235,1,0,0:0:0:0:
192,192,110329,1,0,0:0:0:0:
320,192,110423,128,0,110845:0:0:0:0:
64,192,110423,128,0,110938:0:0:0:0:
448,192,110423,1,0,0:0:0:0:
448,192,110798,1,0,0:0:0:0:
192,192,110798,1,0,0:0:0:0:
448,192,110985,1,0,0:0:0:0:
64,192,111173,128,0,111266:0:0:0:0:
448,192,111173,128,0,111360:0:0:0:0:
320,192,111173,1,0,0:0:0:0:
320,192,111360,1,0,0:0:0:0:
192,192,111548,1,0,0:0:0:0:
192,192,111735,1,0,0:0:0:0:
320,192,111923,128,0,112485:0:0:0:0:
192,192,111923,128,0,112251:0:0:0:0:
64,192,111923,128,0,112391:0:0:0:0:
448,192,112298,1,0,0:0:0:0:
64,192,112485,128,0,112626:0:0:0:0:
192,192,112485,1,0,0:0:0:0:
320,192,112673,1,0,0:0:0:0:
192,192,112673,128,0,113001:0:0:0:0:
448,192,113048,128,0,113376:0:0:0:0:
320,192,113048,1,0,0:0:0:0:
64,192,113048,1,0,0:0:0:0:
64,192,113423,128,0,113985:0:0:0:0:
192,192,113423,128,0,113798:0:0:0:0:
320,192,113798,1,0,0:0:0:0:
448,192,113845,1,0,0:0:0:0:
320,192,113985,1,0,0:0:0:0:
448,192,114079,1,0,0:0:0:0:
64,192,114173,128,0,114360:0:0:0:0:
320,192,114173,1,0,0:0:0:0:
192,192,114360,1,0,0:0:0:0:
320,192,114454,1,0,0:0:0:0:
192,192,114548,1,0,0:0:0:0:
64,192,114735,1,0,0:0:0:0:
192,192,114829,1,0,0:0:0:0:
320,192,114923,1,0,0:0:0:0:
192,192,114938,1,0,0:0:0:0:
64,192,114938,1,0,0:0:0:0:
448,192,114970,128,0,115391:0:0:0:0:
64,192,115298,128,0,115391:0:0:0:0:
320,192,115298,128,0,115485:0:0:0:0:
320,192,115673,128,0,116235:0:0:0:0:
192,192,115673,128,0,115860:0:0:0:0:
64,192,116282,1,0,0:0:0:0:
320,192,116376,1,0,0:0:0:0:
448,192,116470,1,0,0:0:0:0:
192,192,116470,1,0,0:0:0:0:
192,192,116798,5,0,0:0:0:0:
320,192,116821,1,0,0:0:0:0:
448,192,116845,1,0,0:0:0:0:
448,192,116985,1,0,0:0:0:0:
64,192,117173,5,0,0:0:0:0:
192,192,117196,1,0,0:0:0:0:
320,192,117220,1,0,0:0:0:0:
320,192,117360,1,0,0:0:0:0:
64,192,117360,1,0,0:0:0:0:
192,192,117454,1,0,0:0:0:0:
448,192,117454,1,0,0:0:0:0:
320,192,117548,1,0,0:0:0:0:
64,192,117548,1,0,0:0:0:0:
192,192,117735,1,0,0:0:0:0:
448,192,117735,1,0,0:0:0:0:
320,192,117829,1,0,0:0:0:0:
64,192,117829,1,0,0:0:0:0:
320,192,117923,128,0,118016:0:0:0:0:
448,192,117923,128,0,118204:0:0:0:0:
64,192,117923,128,0,118063:0:0:0:0:
192,192,117923,128,0,118157:0:0:0:0:
192,192,118298,128,0,118485:0:0:0:0:
64,192,118298,128,0,118579:0:0:0:0:
448,192,118298,128,0,118532:0:0:0:0:
320,192,118298,128,0,118391:0:0:0:0:
320,192,118673,128,0,118766:0:0:0:0:
448,192,118673,128,0,118860:0:0:0:0:
64,192,118673,128,0,118813:0:0:0:0:
192,192,118673,128,0,118954:0:0:0:0:
