osu file format v14

[General]
AudioFilename: audio.mp3
AudioLeadIn: 0
PreviewTime: 37318
Countdown: 1
SampleSet: Normal
StackLeniency: 0.6
Mode: 0
LetterboxInBreaks: 0
WidescreenStoryboard: 1

[Editor]
DistanceSpacing: 1.3
BeatDivisor: 4
GridSize: 4
TimelineZoom: 1

[Metadata]
Title:A Bella! (Feat. Lucy)
TitleUnicode:A Bella! (Feat. Lucy)
Artist:M2U
ArtistUnicode:M2U
Creator:Jorkseljund
Version:Hyper
Source:
Tags:
BeatmapID:1625392
BeatmapSetID:773228

[Difficulty]
HPDrainRate:5
CircleSize:3.5
OverallDifficulty:5
ApproachRate:7.5
SliderMultiplier:1.2
SliderTickRate:1

[Events]
//Background and Video events
0,0,"code-geass-raging-red-desktop-background.jpg",0,0
//Break Periods
//Storyboard Layer 0 (Background)
//Storyboard Layer 1 (Fail)
//Storyboard Layer 2 (Pass)
//Storyboard Layer 3 (Foreground)
//Storyboard Sound Samples

[TimingPoints]
3006,375,4,1,0,60,1,0
37506,-100,4,1,0,60,0,1
48756,-100,4,1,0,60,0,0
49506,-100,4,1,0,60,0,1
61506,-100,4,1,0,60,0,0
67412,-100,4,2,0,60,0,0
71818,-100,4,1,0,60,0,0
84006,-100,4,1,0,60,0,1
88506,-125,4,2,0,60,0,0
90006,-100,4,1,0,60,0,1
95256,-100,4,1,0,60,0,0
96006,-100,4,1,0,60,0,1
100506,-100,4,1,0,60,0,0
102006,-100,4,1,0,60,0,1
108006,-100,4,2,0,60,0,0

[HitObjects]
104,100,3006,6,0,P|92:152|96:176,1,60,0|0,0:0|2:0,0:0:0:0:
124,228,3381,1,0,2:0:0:0:
52,260,3568,2,0,P|108:308|172:296,1,120,0|0,0:0|2:0,0:0:0:0:
200,244,4131,2,0,L|236:296,1,60,0|0,0:0|2:0,0:0:0:0:
280,228,4506,6,0,L|240:172,1,60,0|0,0:0|2:0,0:0:0:0:
176,144,4881,1,0,2:0:0:0:
240,96,5068,2,0,P|296:108|376:96,1,120,0|0,0:0|2:0,0:0:0:0:
432,72,5631,1,0,0:0:0:0:
392,176,5818,1,0,2:0:0:0:
440,236,6006,6,0,P|448:272|444:308,2,60,0|0|0,0:0|2:0|2:0,0:0:0:0:
392,176,6568,2,0,B|336:204|336:204|344:236|336:268,1,120,0|0,0:0|2:0,0:0:0:0:
264,240,7131,2,0,P|264:288|272:308,1,60,0|0,0:0|2:0,0:0:0:0:
192,208,7506,6,0,P|128:224|64:208,1,120
16,140,8068,2,0,P|74:129|132:145,1,120
188,92,8631,2,0,P|144:68|128:64,2,60
260,60,9193,5,0,2:0:0:0:
252,136,9381,2,0,P|244:180|248:204,1,60,0|0,2:0|0:0,0:0:0:0:
316,232,9756,2,0,P|324:188|320:164,1,60,0|0,2:0|2:0,0:0:0:0:
348,100,10131,2,0,P|392:88|424:104,1,60,0|0,0:0|2:0,0:0:0:0:
448,156,10506,5,0,0:0:0:0:
408,224,10693,1,0,2:0:0:0:
424,300,10881,1,0,2:0:0:0:
328,236,11068,2,0,P|336:276|264:280,1,120,0|0,0:0|2:0,0:0:0:0:
220,232,11631,2,0,P|196:272|196:288,1,60,0|0,0:0|2:0,0:0:0:0:
80,288,12006,6,0,L|100:228,1,60,0|0,0:0|2:0,0:0:0:0:
160,180,12381,1,0,2:0:0:0:
60,88,12568,2,0,B|100:88|100:88|124:72|124:72|176:72,1,120,0|0,0:0|2:0,0:0:0:0:
244,36,13131,2,0,P|252:80|248:104,1,60,0|0,0:0|2:0,0:0:0:0:
324,124,13506,6,0,P|318:168|306:189,1,60,8|0,3:0|3:0,0:0:0:0:
340,256,13881,1,8,3:0:0:0:
416,268,14068,1,8,3:0:0:0:
484,232,14256,1,8,3:0:0:0:
340,256,14631,1,0,2:0:0:0:
192,308,15006,6,0,P|144:304|112:312,1,60,4|0,0:0|2:0,0:0:0:0:
60,280,15381,1,0,2:0:0:0:
112,224,15568,2,0,P|100:180|108:88,1,120,0|0,0:0|2:0,0:0:0:0:
148,40,16131,2,0,P|180:80|180:104,1,60,0|0,0:0|2:0,0:0:0:0:
228,212,16506,6,0,P|268:216|292:204,1,60,0|0,0:0|2:0,0:0:0:0:
324,140,16881,1,0,2:0:0:0:
364,208,17068,2,0,P|368:264|360:336,2,120,0|0|0,0:0|2:0|2:0,0:0:0:0:
456,96,18006,6,0,P|424:84|392:84,1,60,0|0,0:0|2:0,0:0:0:0:
344,28,18381,1,0,2:0:0:0:
288,96,18568,2,0,P|292:144|280:228,1,120,0|0,0:0|2:0,0:0:0:0:
207,200,19131,2,0,P|208:230|216:260,1,60,0|0,0:0|2:0,0:0:0:0:
116,316,19506,5,2,2:0:0:0:
52,224,19693,2,0,L|48:168,1,30,2|2,2:0|2:0,0:0:0:0:
49,194,19881,1,2,2:0:0:0:
68,80,20068,1,2,2:0:0:0:
136,44,20255,1,2,2:0:0:0:
136,44,20349,1,2,2:0:0:0:
136,44,20443,1,2,2:0:0:0:
192,100,20631,2,0,P|236:108|264:104,1,60,0|0,0:0|2:0,0:0:0:0:
392,80,21006,6,0,P|412:124|408:200,1,120,4|0,0:0|2:0,0:0:0:0:
488,196,21568,2,0,P|476:248|440:308,1,120,0|0,0:0|2:0,0:0:0:0:
408,196,22131,2,0,P|368:188|344:192,1,60,0|0,0:0|2:0,0:0:0:0:
260,280,22506,5,0,0:0:0:0:
220,212,22693,2,0,P|216:160|228:136,1,60,0|0,2:0|2:0,0:0:0:0:
136,208,23068,2,0,P|140:260|112:320,1,120,0|0,1:0|2:0,2:0:0:0:
64,256,23631,2,0,L|8:232,1,60,0|0,0:0|2:0,0:0:0:0:
136,208,24006,6,0,P|124:180|128:144,2,60,0|0|0,0:0|2:0|2:0,0:0:0:0:
204,124,24568,2,0,P|192:84|200:4,1,120,4|0,0:0|2:0,0:0:0:0:
272,44,25131,2,0,P|272:88|284:112,1,60,0|0,2:0|2:0,0:0:0:0:
396,168,25506,6,0,P|400:208|396:244,2,60,0|0|0,0:0|2:0|2:0,0:0:0:0:
324,200,26068,2,0,P|324:256|316:328,1,120,0|0,0:0|2:0,0:0:0:0:
244,292,26631,2,0,L|184:296,1,60,0|0,0:0|2:0,0:0:0:0:
108,308,27006,6,0,P|116:360|116:380,2,60,0|0|0,0:0|2:0|2:0,0:0:0:0:
40,264,27568,2,0,B|72:228|112:228|112:228|112:176,1,120,0|0,0:0|2:0,0:0:0:0:
112,191,28131,1,0,0:0:0:0:
112,191,28318,1,0,2:0:0:0:
180,60,28506,6,0,P|232:68|260:60,1,60,0|0,0:0|2:0,0:0:0:0:
308,104,28881,1,0,2:0:0:0:
364,48,29068,2,0,P|388:88|368:160,1,120,0|0,0:0|2:0,0:0:0:0:
444,184,29631,2,0,P|420:220|404:236,1,60,0|0,0:0|2:0,0:0:0:0:
320,316,30006,5,0,0:0:0:0:
280,248,30193,2,0,P|276:212|276:184,1,60,2|2,2:0|2:0,0:0:0:0:
208,272,30568,2,0,P|200:312|108:332,1,120,0|4,0:0|2:0,0:0:0:0:
72,296,31131,1,4,2:0:0:0:
