osu file format v14

[General]
AudioFilename: audio.mp3
AudioLeadIn: 0
PreviewTime: 37318
Countdown: 1
SampleSet: Normal
StackLeniency: 0.6
Mode: 0
LetterboxInBreaks: 0
WidescreenStoryboard: 1

[Editor]
DistanceSpacing: 0.8
BeatDivisor: 4
GridSize: 4
TimelineZoom: 1

[Metadata]
Title:A Bella! (Feat. Lucy)
TitleUnicode:A Bella! (Feat. Lucy)
Artist:M2U
ArtistUnicode:M2U
Creator:Jorkseljund
Version:Advanced
Source:
Tags:
BeatmapID:1625391
BeatmapSetID:773228

[Difficulty]
HPDrainRate:4
CircleSize:3.5
OverallDifficulty:4
ApproachRate:6
SliderMultiplier:1.1
SliderTickRate:1

[Events]
//Background and Video events
0,0,"code-geass-raging-red-desktop-background.jpg",0,0
//Break Periods
2,61506,66456
//Storyboard Layer 0 (Background)
//Storyboard Layer 1 (Fail)
//Storyboard Layer 2 (Pass)
//Storyboard Layer 3 (Foreground)
//Storyboard Sound Samples

[TimingPoints]
3006,375,4,1,0,60,1,0
37506,-100,4,1,0,60,0,1
48756,-100,4,1,0,60,0,0
49506,-100,4,1,0,60,0,1
61506,-100,4,1,0,60,0,0
67412,-100,4,2,0,60,0,0
71818,-100,4,1,0,60,0,0
84006,-100,4,1,0,60,0,1
88506,-125,4,2,0,60,0,0
90006,-100,4,1,0,60,0,1
95256,-100,4,1,0,60,0,0
96006,-100,4,1,0,60,0,1
100506,-100,4,1,0,60,0,0
102006,-100,4,1,0,60,0,1
108006,-100,4,2,0,60,0,0

[HitObjects]
72,96,3006,6,0,P|120:88|248:104,2,165
40,176,4506,5,0,0:0:0:0:
132,272,5068,2,0,P|192:224|144:148,1,165
192,80,6006,6,0,P|252:136|272:220,1,165
356,316,7131,1,0,0:0:0:0:
408,248,7506,6,0,L|420:128,1,110
424,96,8068,1,0,0:0:0:0:
344,60,8443,2,0,L|336:124,1,55
276,180,9006,6,0,P|232:192|112:176,2,165
288,92,10506,6,0,P|332:120|344:224,2,165
212,44,12006,5,0,0:0:0:0:
132,80,12381,2,0,P|136:120|132:152,1,55
76,200,12943,2,0,P|72:240|76:272,1,55
160,236,13506,6,0,P|200:232|232:236,1,55,0|0,3:0|3:0,0:0:0:0:
244,264,13881,2,0,P|248:292|240:328,2,55,8|8|8,3:0|3:0|3:0,0:0:0:0:
268,180,14631,1,0,0:0:0:0:
304,100,15006,6,0,P|384:92|472:104,1,165,4|0,0:0|0:0,0:0:0:0:
420,176,15943,1,0,2:0:0:0:
408,220,16131,2,0,P|412:256|404:276,1,55,0|0,0:0|2:0,0:0:0:0:
368,296,16506,6,0,B|308:316|308:316|248:304|248:304|208:336,2,165
344,212,18006,6,0,B|300:228|300:228|232:212,1,110,0|0,0:0|2:0,0:0:0:0:
196,204,18568,1,0,0:0:0:0:
116,240,18943,2,0,P|104:280|104:304,2,55,0|0|0,2:0|0:0|2:0,0:0:0:0:
92,204,19506,6,0,P|72:156|88:92,1,110,2|2,2:0|2:0,0:0:0:0:
108,64,20068,1,2,2:0:0:0:
176,124,20443,2,0,L|236:132,1,55,2|2,2:0|2:0,0:0:0:0:
208,216,21006,6,0,B|176:260|200:288|200:288|244:256|244:344,2,165,4|0|0,0:0|0:0|0:0,0:0:0:0:
268,152,22506,6,0,P|308:140|432:156,2,165
240,184,23818,1,0,2:0:0:0:
244,228,24006,6,0,P|248:264|248:288,1,55,0|0,0:0|2:0,0:0:0:0:
160,300,24568,2,0,P|160:248|152:184,1,110,4|0,0:0|2:0,0:0:0:0:
128,156,25131,2,0,P|124:112|128:88,1,55,0|0,0:0|2:0,0:0:0:0:
156,68,25506,6,0,P|204:56|324:76,2,165,4|0|0,0:0|0:0|0:0,0:0:0:0:
80,136,27006,6,0,P|128:148|248:128,1,165
284,208,27943,2,0,L|276:268,1,55,0|0,2:0|0:0,0:0:0:0:
364,280,28506,6,0,P|368:232|388:112,2,165
280,312,30006,6,0,L|220:320,1,55,0|2,0:0|2:0,0:0:0:0:
196,288,30381,1,2,2:0:0:0:
196,288,30568,1,4,1:0:0:0:
108,308,30943,2,0,L|100:244,1,55,4|4,2:0|2:0,0:0:0:0:
28,300,31506,6,0,P|24:232|32:128,1,165
128,48,32631,1,0,0:0:0:0:
160,128,33006,2,0,P|204:132|276:128,1,110,0|0,0:0|2:0,0:0:0:0:
269,128,33568,1,0,1:0:0:0:
240,216,33943,2,0,L|316:212,1,55,0|0,2:0|0:0,0:0:0:0:
344,288,34506,5,0,0:0:0:0:
416,236,35068,2,0,B|452:292|452:292|516:208,1,165
444,156,36006,2,0,P|396:152|336:188,1,110
312,208,36568,1,4,2:0:0:0:
248,148,36943,1,4,2:0:0:0:
168,252,37506,5,4,2:0:0:0:
92,204,37881,1,0,1:0:0:0:
108,164,38068,1,0,0:0:0:0:
160,92,38443,1,0,0:0:0:0:
188,128,38631,1,0,0:0:0:0:
216,164,38818,1,0,0:0:0:0:
244,196,39006,6,0,P|256:232|252:256,2,55
276,164,39568,2,0,P|272:128|280:48,1,110
320,72,40131,2,0,P|352:80|384:76,1,55
400,116,40506,5,0,0:0:0:0:
384,204,40881,2,0,L|394:258,1,55
308,312,41443,2,0,L|314:257,2,55
272,336,42006,6,0,P|244:336|218:329,1,55
148,312,42381,1,0,0:0:0:0:
108,292,42568,2,0,P|96:248|104:168,1,110
99,184,43131,1,0,0:0:0:0:
180,92,43506,6,0,P|172:52|176:28,2,55,4|0|0,2:0|0:0|0:0,0:0:0:0:
212,124,44068,2,0,P|192:188|224:240,1,110,0|0,1:0|0:0,0:0:0:0:
224,264,44631,2,0,P|272:272|296:268,1,55
320,252,45006,6,0,P|356:240|432:256,1,110,4|0,2:0|0:0,0:0:0:0:
460,224,45568,2,0,P|468:188|460:112,1,110
428,84,46131,1,0,0:0:0:0:
392,108,46318,1,0,0:0:0:0:
356,84,46506,6,0,B|300:64|300:64|232:84,1,110,4|0,2:0|0:0,0:0:0:0:
220,108,47068,2,0,B|171:93|171:93|115:113,1,110
72,100,47631,1,0,0:0:0:0:
88,256,48006,2,0,P|84:292|84:312,2,55,4|4|4,2:0|2:0|2:0,0:0:0:0:
164,300,48756,6,0,L|232:312,1,55,2|2,2:0|2:0,0:0:0:0:
256,288,49131,2,0,L|328:284,1,55,2|2,2:0|2:0,0:0:0:0:
348,264,49506,6,0,P|336:220|352:152,1,110,4|0,2:0|0:0,0:0:0:0:
388,136,50068,2,0,P|400:92|384:24,1,110,0|0,2:0|0:0,0:0:0:0:
348,52,50631,2,0,L|284:64,1,55
264,96,51006,6,0,L|248:148,1,55
268,188,51381,1,0,0:0:0:0:
232,212,51568,2,0,P|184:208|116:216,1,110
88,240,52131,1,0,0:0:0:0:
132,316,52506,6,0,P|176:324|252:316,1,110
280,296,53068,1,0,0:0:0:0:
316,216,53443,2,0,L|308:152,1,55
276,136,53818,1,0,0:0:0:0:
236,156,54006,6,0,L|168:160,1,55,2|2,2:0|2:0,0:0:0:0:
148,132,54381,1,2,2:0:0:0:
112,156,54568,2,0,P|92:200|104:268,1,110,6|2,2:0|2:0,0:0:0:0:
136,288,55131,1,0,0:0:0:0:
220,204,55506,6,0,L|256:256,1,55,4|0,2:0|0:0,0:0:0:0:
260,292,55881,1,0,0:0:0:0:
300,312,56068,2,0,P|344:320|420:308,1,110
432,276,56631,1,0,0:0:0:0:
356,232,57006,6,0,P|348:196|356:120,1,110,4|0,2:0|0:0,0:0:0:0:
332,88,57568,1,0,0:0:0:0:
248,112,57943,2,0,B|236:148|236:148|240:176,2,55
228,72,58506,1,4,2:0:0:0:
160,128,58881,6,0,L|144:192,1,55
84,244,59443,2,0,L|104:312,1,55
184,268,60006,6,0,L|196:208,2,55,4|4|0,2:0|2:0|2:0,0:0:0:0:
216,296,60568,1,2,2:0:0:0:
260,288,60756,2,0,P|304:284|324:288,1,55,0|0,3:0|0:0,0:0:0:0:
352,308,61131,1,4,0:0:0:0:
208,248,67506,6,0,P|204:216|208:192,1,55,0|0,1:0|0:0,0:0:0:0:
244,168,67881,2,0,P|248:136|244:112,1,55,0|0,0:0|1:0,0:0:0:0:
224,76,68256,1,0,0:0:0:0:
112,48,68631,1,0,1:0:0:0:
92,132,69006,6,0,P|80:176|92:244,1,110,0|0,1:0|0:0,0:0:0:0:
112,276,69568,2,0,P|156:288|224:276,1,110,0|0,1:0|0:0,0:0:0:0:
260,300,70131,1,0,1:0:0:0:
300,220,70506,6,0,L|280:156,1,55,0|0,1:0|1:0,0:0:0:0:
280,124,70881,2,0,L|300:60,1,55
336,52,71256,1,4,0:0:0:0:
404,108,71631,1,4,0:0:0:0:
368,188,72006,6,0,P|360:240|364:264,1,55,0|0,0:0|2:0,0:0:0:0:
348,284,72381,1,0,2:0:0:0:
304,292,72568,2,0,P|264:296|180:292,1,110,0|0,0:0|2:0,0:0:0:0:
194,293,73131,1,0,0:0:0:0:
224,208,73506,6,0,P|164:212|120:252,1,110,0|0,0:0|2:0,0:0:0:0:
84,252,74068,1,0,0:0:0:0:
48,172,74443,2,0,L|44:112,1,55,0|0,2:0|0:0,0:0:0:0:
124,80,75006,6,0,L|112:24,2,55,0|0|0,0:0|2:0|2:0,0:0:0:0:
156,112,75568,2,0,P|204:120|284:108,1,110,0|0,1:0|2:0,0:0:0:0:
304,92,76131,1,0,0:0:0:0:
424,96,76506,6,0,P|432:128|424:156,1,55,2|2,2:0|2:0,0:0:0:0:
380,212,76881,1,2,2:0:0:0:
380,212,77068,1,4,0:0:0:0:
416,292,77443,1,4,2:0:0:0:
416,292,77631,1,4,2:0:0:0:
332,320,78006,6,0,P|288:312|212:328,1,110,0|0,0:0|2:0,0:0:0:0:
188,300,78568,2,0,P|144:292|68:308,1,110,0|0,0:0|2:0,0:0:0:0:
40,288,79131,1,0,0:0:0:0:
52,148,79506,6,0,P|68:192|132:180,1,110,0|0,0:0|2:0,0:0:0:0:
160,164,80068,1,0,0:0:0:0:
240,200,80443,2,0,P|276:196|304:204,1,55,0|0,2:0|0:0,0:0:0:0:
372,240,81006,5,0,0:0:0:0:
392,156,81381,2,0,P|400:116|396:92,1,55,0|0,2:0|0:0,0:0:0:0:
348,28,81943,2,0,P|308:20|284:24,1,55,0|0,2:0|0:0,0:0:0:0:
248,96,82506,6,0,L|192:84,2,55,2|2|2,2:0|2:0|2:0,0:0:0:0:
272,132,83068,1,4,2:0:0:0:
248,216,83443,1,4,2:0:0:0:
128,276,84006,6,0,P|136:224|124:164,1,110,4|0,2:0|0:0,0:0:0:0:
108,128,84568,1,0,0:0:0:0:
192,60,84943,2,0,L|252:68,1,55
276,100,85318,1,0,0:0:0:0:
300,136,85506,6,0,P|304:168|300:196,2,55
336,108,86068,2,0,P|372:92|448:108,1,110
468,140,86631,2,0,P|484:172|480:196,1,55
456,228,87006,5,0,0:0:0:0:
400,296,87381,2,0,P|364:288|336:296,1,55
276,240,87943,2,0,P|268:192|272:168,1,55
272,144,88318,1,0,0:0:0:0:
212,88,88506,6,0,P|184:80|120:92,1,88,2|2,0:0|0:0,0:0:0:0:
100,112,89068,1,2,0:0:0:0:
84,144,89256,2,0,P|92:184|88:248,1,88,6|2,0:0|0:0,0:0:0:0:
140,304,90006,6,0,P|180:300|208:308,1,55,4|0,2:0|0:0,0:0:0:0:
232,324,90381,1,0,0:0:0:0:
248,284,90568,2,0,P|256:240|252:172,1,110
260,132,91131,1,0,0:0:0:0:
316,64,91506,6,0,P|352:80|424:80,1,110,4|0,2:0|0:0,0:0:0:0:
460,104,92068,2,0,P|472:136|464:212,1,110
428,236,92631,2,0,P|392:248|372:248,1,55
336,228,93006,1,4,2:0:0:0:
260,276,93381,5,0,0:0:0:0:
260,276,93568,1,0,0:0:0:0:
192,224,93943,1,0,0:0:0:0:
192,224,94131,1,0,0:0:0:0:
164,140,94506,6,0,P|160:104|168:76,2,55,4|4|4,2:0|2:0|2:0,0:0:0:0:
80,168,95256,2,0,P|84:208|84:232,1,55,2|2,2:0|2:0,0:0:0:0:
112,256,95631,2,0,P|116:296|116:320,1,55,2|2,2:0|2:0,0:0:0:0:
156,328,96006,6,0,P|208:320|272:332,1,110,4|0,2:0|0:0,0:0:0:0:
304,312,96568,1,0,0:0:0:0:
380,264,96943,2,0,P|392:292|396:320,2,55
384,220,97506,6,0,P|388:180|384:152,1,55
364,128,97881,1,0,0:0:0:0:
340,92,98068,2,0,P|292:80|232:88,1,110
192,76,98631,1,0,0:0:0:0:
184,164,99006,6,0,P|192:220|184:288,1,110
187,273,99568,1,0,0:0:0:0:
100,284,99943,2,0,P|104:336|100:356,2,55
76,248,100506,6,0,L|72:192,1,55,2|2,2:0|2:0,0:0:0:0:
60,152,100881,1,2,2:0:0:0:
76,112,101068,2,0,P|100:76|164:96,1,110,4|0,2:0|0:0,0:0:0:0:
200,96,101631,1,0,0:0:0:0:
252,168,102006,6,0,P|296:172|328:164,1,55,4|0,2:0|0:0,0:0:0:0:
336,140,102381,1,0,0:0:0:0:
372,168,102568,2,0,P|384:208|376:280,1,110
344,304,103131,2,0,P|304:312|280:308,1,55
252,292,103506,5,4,2:0:0:0:
172,328,103881,2,0,L|108:320,1,55
68,248,104443,1,0,0:0:0:0:
56,204,104631,2,0,P|52:160|56:140,1,55
53,149,105006,5,4,2:0:0:0:
116,88,105381,2,0,P|160:80|184:88,1,55
244,128,105943,2,0,P|288:136|312:128,1,55
372,88,106506,6,0,L|392:144,1,55,4|4,2:0|2:0,0:0:0:0:
420,172,106881,1,0,2:0:0:0:
420,172,107068,1,2,2:0:0:0:
408,216,107256,2,0,P|404:248|404:280,1,55,0|0,3:0|0:0,0:0:0:0:
376,308,107631,1,4,0:0:0:0:
288,324,108006,6,0,P|240:312|168:328,1,110,2|0,0:0|0:0,0:0:0:0:
100,284,108756,2,0,P|96:248|108:160,1,110,2|2,0:0|0:0,0:0:0:0:
108,132,109318,2,0,P|116:92|124:72,1,55,2|2,0:0|0:0,0:0:0:0:
192,132,109881,2,0,L|212:76,1,55,2|2,0:0|0:0,0:0:0:0:
210,80,110256,1,2,0:0:0:0:
292,108,110631,1,0,0:0:0:0:
256,188,111006,6,0,P|244:244|336:240,1,165,2|2,0:0|0:0,0:0:0:0:
364,224,111756,2,0,P|400:212|420:216,1,55,2|2,0:0|0:0,0:0:0:0:
460,204,112131,2,0,P|472:168|472:144,1,55,2|2,0:0|0:0,0:0:0:0:
456,112,112506,1,2,0:0:0:0:
376,76,112881,2,0,P|328:68|308:76,1,55,2|0,0:0|0:0,0:0:0:0:
288,92,113256,1,2,0:0:0:0:
208,56,113631,1,2,0:0:0:0:
140,112,114006,6,0,P|128:160|128:232,1,110,2|2,0:0|0:0,0:0:0:0:
172,296,114756,2,0,P|220:292|232:296,1,55,2|2,0:0|0:0,0:0:0:0:
264,316,115131,2,0,P|300:316|320:308,1,55,2|2,0:0|0:0,0:0:0:0:
360,304,115506,1,2,0:0:0:0:
400,224,115881,1,2,0:0:0:0:
372,188,116068,2,0,L|340:136,1,55,0|2,0:0|0:0,0:0:0:0:
260,172,116631,1,0,0:0:0:0:
172,164,117006,6,0,P|164:100|140:48,1,110,2|0,0:0|0:0,0:0:0:0:
80,116,117756,2,0,P|64:164|72:236,1,110,2|0,0:0|0:0,0:0:0:0:
120,292,118506,2,0,P|172:300|232:288,1,110,4|0,0:0|1:0,0:0:0:0:
268,276,119068,2,0,P|312:268|328:272,1,55,0|4,3:0|1:0,0:0:0:0:
