osu file format v14

[General]
AudioFilename: audio.mp3
AudioLeadIn: 0
PreviewTime: 43500
Countdown: 0
SampleSet: Normal
StackLeniency: 0.7
Mode: 0
LetterboxInBreaks: 0
WidescreenStoryboard: 1

[Editor]
DistanceSpacing: 0.7
BeatDivisor: 4
GridSize: 4
TimelineZoom: 1.8

[Metadata]
Title:Myosotis
TitleUnicode:Myosotis
Artist:M2U & Nicode ft. Guriri & Lucy
ArtistUnicode:M2U & Nicode ft. Guriri & Lucy
Creator:chparkkim
Version:Easy [LV1]
Source:Deemo
Tags:Rayark, Deemo, Hans, Alice, Cytus, Myosotis, M2U, Nicode, Guriri, Anime
BeatmapID:1087678
BeatmapSetID:493107

[Difficulty]
HPDrainRate:2
CircleSize:2
OverallDifficulty:2
ApproachRate:3
SliderMultiplier:1
SliderTickRate:1

[Events]
//Background and Video events
0,0,"black-abstract-backgrounds-dowload.jpg",0,0
//Break Periods
//Storyboard Layer 0 (Background)
//Storyboard Layer 1 (Fail)
//Storyboard Layer 2 (Pass)
//Storyboard Layer 3 (Foreground)
//Storyboard Sound Samples

[TimingPoints]
1500,375,4,1,0,30,1,0
43500,-100,4,1,0,50,0,0
78000,-100,4,1,0,60,0,1
102000,-100,4,1,0,30,0,0

[Colours]
Combo1 : 255,0,128
Combo2 : 64,0,128
Combo3 : 18,124,255
Combo4 : 0,0,160

[HitObjects]
176,72,1500,6,0,P|124:316|328:200,1,600
196,204,4500,1,0,0:0:0:0:
272,112,5250,1,0,0:0:0:0:
392,106,6000,1,0,0:0:0:0:
328,208,6750,1,0,0:0:0:0:
380,316,7500,6,0,B|364:336|260:360|196:292|160:224|248:192|220:108|152:68|140:68,1,400
76,176,9750,1,0,0:0:0:0:
200,168,10500,2,0,P|316:156|388:200,1,200
464,288,12000,2,0,P|348:300|276:256,1,200
256,192,13500,12,0,15000,0:0:0:0:
256,192,16500,12,0,18000,0:0:0:0:
308,80,19500,6,0,P|265:163|159:168,1,200
168,312,21000,2,0,P|196:223|300:201,1,200
184,108,22500,1,0,0:0:0:0:
184,248,23250,1,0,0:0:0:0:
316,292,24000,1,0,0:0:0:0:
316,156,24750,1,0,0:0:0:0:
176,156,25500,6,0,P|271:148|316:63,1,200
412,164,27000,2,0,P|448:248|408:352,1,200
308,256,28500,1,0,0:0:0:0:
392,144,29250,1,0,0:0:0:0:
308,256,30000,2,0,B|227:265|227:265|308:141|265:46|84:-58|-29:160|74:246,1,600
152,172,33000,5,0,0:0:0:0:
232,56,33750,1,0,0:0:0:0:
368,88,34500,2,0,L|368:304,1,200
240,224,36000,5,0,0:0:0:0:
136,128,36750,1,0,0:0:0:0:
264,72,37500,1,0,0:0:0:0:
376,160,38250,1,0,0:0:0:0:
304,280,39000,6,0,P|136:272|224:128,2,400
368,152,42750,1,0,0:0:0:0:
248,80,43500,5,0,0:0:0:0:
128,152,44250,1,0,0:0:0:0:
128,288,45000,2,0,L|336:288,1,200
424,184,46500,5,0,0:0:0:0:
424,48,47250,1,0,0:0:0:0:
292,48,48000,2,0,P|276:136|192:208,1,200
152,72,49500,5,0,0:0:0:0:
80,192,50250,1,0,0:0:0:0:
152,312,51000,1,0,0:0:0:0:
224,192,51750,1,0,0:0:0:0:
296,64,52500,1,0,0:0:0:0:
368,192,53250,1,0,0:0:0:0:
296,312,54000,6,0,L|192:312,3,100
248,264,55500,5,0,0:0:0:0:
128,192,56250,1,0,0:0:0:0:
192,72,57000,2,0,P|280:80|344:176,1,200
344,304,58500,5,0,0:0:0:0:
240,208,59250,1,0,0:0:0:0:
136,112,60000,1,0,0:0:0:0:
136,256,60750,1,0,0:0:0:0:
256,328,61500,6,0,B|300:220|424:248,1,200
440,108,63000,2,0,P|356:48|256:84,1,200
220,204,64500,5,0,0:0:0:0:
220,344,65250,1,0,0:0:0:0:
96,280,66000,2,0,B|96:184|96:184|232:184|232:280|376:280|376:280|376:280|416:56|88:80,2,800
380,280,73500,5,0,0:0:0:0:
256,192,75000,12,0,77250,0:0:0:0:
280,112,78000,5,0,0:0:0:0:
160,184,78750,1,0,0:0:0:0:
160,324,79500,1,0,0:0:0:0:
224,296,79875,1,0,0:0:0:0:
280,252,80250,1,0,0:0:0:0:
324,196,80625,1,0,0:0:0:0:
356,132,81000,6,0,L|140:132,1,200
88,144,82125,1,0,0:0:0:0:
52,204,82500,2,0,P|100:304|200:340,1,200
244,312,83625,1,0,0:0:0:0:
292,260,84000,6,0,L|292:60,1,200
156,88,85500,1,0,0:0:0:0:
88,108,85875,1,0,0:0:0:0:
48,164,86250,1,0,0:0:0:0:
92,296,87000,6,0,L|312:316,1,200
396,220,88500,2,0,L|236:92,1,200
104,60,90000,5,0,0:0:0:0:
104,128,90375,1,0,0:0:0:0:
104,196,90750,1,0,0:0:0:0:
232,140,91500,1,0,0:0:0:0:
232,208,91875,1,0,0:0:0:0:
232,276,92250,1,0,0:0:0:0:
364,320,93000,6,0,L|364:112,1,200
316,68,94125,1,0,0:0:0:0:
252,36,94500,1,0,0:0:0:0:
160,140,95250,1,0,0:0:0:0:
220,176,95625,1,0,0:0:0:0:
252,240,96000,6,0,L|164:312,2,100
148,144,97500,1,0,0:0:0:0:
188,84,97875,1,0,0:0:0:0:
256,64,98250,1,0,0:0:0:0:
324,80,98625,1,0,0:0:0:0:
380,120,99000,6,0,P|348:224|256:276,1,200
236,132,100500,1,0,0:0:0:0:
100,104,101250,2,0,L|100:304,1,200
204,212,102750,1,0,0:0:0:0:
308,120,103500,5,0,0:0:0:0:
76,184,105000,1,0,0:0:0:0:
268,324,106500,1,0,0:0:0:0:
224,80,108000,1,0,0:0:0:0:
324,144,108750,1,0,0:0:0:0:
224,80,109500,6,0,P|120:88|84:176,1,200
176,160,111000,2,0,P|192:248|288:256,1,200
300,144,112500,6,0,P|396:184|400:272,1,200
320,232,114000,2,0,P|240:248|216:360,1,200
296,320,115500,5,0,0:0:0:0:
112,168,117000,1,0,0:0:0:0:
344,104,118500,5,0,0:0:0:0:
344,224,119250,1,0,0:0:0:0:
256,140,120000,1,0,0:0:0:0:
256,260,120750,1,0,0:0:0:0:
136,292,121500,5,0,0:0:0:0:
136,172,122250,1,0,0:0:0:0:
224,256,123000,1,0,0:0:0:0:
224,136,123750,1,0,0:0:0:0:
128,96,124500,6,0,P|196:36|304:72,1,200
224,136,126000,2,0,P|224:224|328:256,1,200
256,192,127500,12,0,130500,0:0:0:0:
