osu file format v14

[General]
AudioFilename: audio.mp3
AudioLeadIn: 0
PreviewTime: -1
Countdown: 0
SampleSet: None
StackLeniency: 0.7
Mode: 0
LetterboxInBreaks: 0
WidescreenStoryboard: 0

[Editor]
Bookmarks: 16174,22774,30574,37774,52174,80974,88174,95374,102574,112174
DistanceSpacing: 0.8
BeatDivisor: 1
GridSize: 4
TimelineZoom: 1

[Metadata]
Title:Stellar
TitleUnicode:Stellar
Artist:M2U & Nicode
ArtistUnicode:M2U & Nicode
Creator:salchow
Version:Normal
Source:
Tags:
BeatmapID:1405171
BeatmapSetID:663892

[Difficulty]
HPDrainRate:4
CircleSize:3
OverallDifficulty:4
ApproachRate:4
SliderMultiplier:0.8
SliderTickRate:1

[Events]
//Background and Video events
0,0,"763d605a521901578244e6f50e473de6.jpg",0,0
//Break Periods
2,66774,71554
2,95574,101254
//Storyboard Layer 0 (Background)
//Storyboard Layer 1 (Fail)
//Storyboard Layer 2 (Pass)
//Storyboard Layer 3 (Foreground)
//Storyboard Sound Samples

[TimingPoints]
577.10727416243,300.000431482221,4,1,0,100,1,0
1777,-100,4,1,0,100,0,0
9274,-100,4,1,0,100,0,0
23374,-100,4,1,0,100,0,1
30574,-100,4,1,0,100,0,0
37474,-100,4,1,0,100,0,0
37774,-100,4,1,0,100,0,0
52174,-100,4,1,0,100,0,1
66574,-100,4,1,0,100,0,0
80974,-100,4,1,0,100,0,1
95374,-100,4,1,0,100,0,0
95674,-100,4,1,0,100,0,0

[Colours]
Combo1 : 210,255,255
Combo2 : 0,91,183
Combo3 : 37,185,239
Combo4 : 29,60,141

[HitObjects]
104,188,1774,6,0,P|148:152|216:152,1,80
292,212,2674,2,0,P|248:248|180:248,1,80
120,184,3574,6,0,L|160:56,1,80
276,96,4474,2,0,L|220:296,1,160
304,324,5374,6,0,P|352:304|368:264,1,80
288,176,6274,2,0,L|196:216,1,80
120,112,7174,2,0,L|252:60,1,80
332,92,8074,6,0,P|432:192|384:264,1,240
160,152,9874,6,0,L|172:232,1,80
52,296,10774,2,0,L|36:195,1,80
136,128,11674,6,0,P|200:116|128:224,1,240
24,236,13474,6,0,L|52:148,1,80
144,104,14374,2,0,L|180:184,1,80
284,208,15274,2,0,L|308:132,1,80
224,56,15874,1,0,0:0:0:0:
140,120,16174,6,0,L|112:200,1,80
176,284,16774,1,0,0:0:0:0:
244,212,17074,2,0,L|336:243,1,80
376,320,17674,5,0,0:0:0:0:
280,328,17974,2,0,B|228:312|228:312|208:288|208:288|100:248,1,160
92,184,18874,6,0,P|48:232|149:353,1,240
220,320,20074,5,0,0:0:0:0:
160,244,20374,1,0,0:0:0:0:
223,176,20674,2,0,P|311:264|303:280,1,160
236,332,21574,6,0,P|189:326|127:253,1,80
92,244,22174,1,0,0:0:0:0:
156,172,22474,1,0,0:0:0:0:
420,89,23374,6,0,B|345:149|345:149|345:224,1,160
422,276,24274,2,0,B|390:311|390:311|269:310,1,160
188,276,25174,5,0,0:0:0:0:
256,205,25474,2,0,P|311:191|341:196,2,80
181,141,26374,2,0,P|126:127|96:132,1,80
80,224,26974,6,0,L|110:312,1,80
204,324,27574,1,0,0:0:0:0:
216,230,27874,2,0,L|186:142,1,80
92,148,28474,5,0,0:0:0:0:
152,68,28774,2,0,P|255:48|358:83,1,160
360,144,29674,2,0,L|321:246,2,80
420,56,30574,6,0,P|378:49|308:57,1,80
248,76,31174,1,0,0:0:0:0:
319,142,31474,2,0,B|318:235|318:235|355:305,1,160
256,328,32374,2,0,B|225:343|225:343|188:314|188:314|104:368|28:296,1,240
64,216,33574,5,0,0:0:0:0:
100,124,33874,1,0,0:0:0:0:
140,36,34174,6,0,P|214:93|146:216,1,240
72,176,35374,1,0,0:0:0:0:
56,268,35674,1,0,0:0:0:0:
38,357,35974,6,0,L|176:340,1,80
208,332,36574,1,0,0:0:0:0:
304,308,36874,2,0,B|224:160|224:160|205:263,1,240
436,216,38674,6,0,P|368:196|328:220,1,80
316,284,39274,1,0,0:0:0:0:
220,264,39574,2,0,P|128:260|80:180,1,160
188,160,40474,2,0,P|280:164|336:240,1,160
264,292,41374,6,0,L|348:316,1,80
436,288,41974,1,0,0:0:0:0:
376,208,42274,2,0,L|292:184,1,80
216,136,42874,1,0,0:0:0:0:
128,180,43174,6,0,L|104:292,2,80
212,248,44074,2,0,L|224:364,2,80
260,168,44974,6,0,P|172:156|124:208,1,160
212,248,45874,2,0,B|244:272|244:272|272:256|272:256|364:320|452:240,1,240
452,168,47074,1,0,0:0:0:0:
360,184,47374,1,0,0:0:0:0:
304,104,47674,6,0,P|264:196|308:264,1,160
368,304,48574,6,0,P|276:356|112:264,1,240
76,260,49774,1,0,0:0:0:0:
168,224,50074,1,0,0:0:0:0:
208,132,50374,6,0,L|280:168,2,80
180,36,51274,1,0,0:0:0:0:
276,56,51574,2,0,L|368:96,1,80
448,124,52174,6,0,P|404:188|356:252,1,80
324,248,52774,1,0,0:0:0:0:
236,208,53074,1,0,0:0:0:0:
312,140,53374,2,0,B|244:104|244:104|140:120,1,160
200,208,54274,5,0,0:0:0:0:
168,300,54574,2,0,L|84:288,1,80
48,204,55174,1,0,0:0:0:0:
116,140,55474,2,0,L|220:152,1,80
288,160,56074,5,0,0:0:0:0:
380,176,56374,1,0,0:0:0:0:
484,188,56674,2,0,B|464:280|464:280|384:320,1,160
320,264,57574,5,0,0:0:0:0:
352,176,57874,1,0,0:0:0:0:
384,84,58174,2,0,P|344:60|256:92,1,80
68,144,59374,5,0,0:0:0:0:
164,176,59674,1,0,0:0:0:0:
260,212,59974,6,0,L|220:284,1,80
128,312,60574,1,0,0:0:0:0:
112,220,60874,2,0,L|150:150,1,80
240,108,61474,5,0,0:0:0:0:
308,180,61774,1,0,0:0:0:0:
384,124,62074,2,0,B|304:96|304:96|204:132|204:132|140:112,1,240
72,80,63274,5,0,0:0:0:0:
16,152,63574,1,0,0:0:0:0:
72,224,63874,2,0,P|128:224|176:276,1,80
228,296,64474,5,0,0:0:0:0:
248,208,64774,1,0,0:0:0:0:
268,116,65074,6,0,P|240:88|200:72,1,80
112,64,65674,2,0,P|75:79|47:107,1,80
40,200,66274,5,0,0:0:0:0:
124,248,66574,1,0,0:0:0:0:
120,168,72874,6,0,L|92:68,2,80
200,228,73774,2,0,L|308:208,1,80
372,232,74374,1,0,0:0:0:0:
344,328,74674,6,0,L|264:312,1,80
184,260,75274,1,0,0:0:0:0:
104,304,75574,1,0,0:0:0:0:
104,208,75874,6,0,P|124:152|100:104,1,80
64,64,76474,2,0,P|148:36|268:100,1,160
292,112,77374,2,0,L|240:272,1,160
152,308,78274,1,0,0:0:0:0:
120,220,78574,6,0,L|160:124,1,80
228,96,79174,2,0,P|260:124|328:144,2,80
132,88,80074,2,0,P|88:164|196:176,1,160
224,164,80974,6,0,P|256:156|320:164,1,80
380,220,81574,1,0,0:0:0:0:
296,264,81874,2,0,P|264:272|200:264,1,80
160,196,82474,5,0,0:0:0:0:
232,136,82774,2,0,P|264:116|296:80,2,80
144,104,83674,2,0,P|88:176|208:236,1,240
240,168,84874,5,0,0:0:0:0:
304,244,85174,2,0,L|348:328,1,80
428,264,85774,5,0,0:0:0:0:
380,176,86074,1,0,0:0:0:0:
336,92,86374,2,0,P|264:120|204:108,2,80
416,40,87274,2,0,P|476:120|448:224,1,160
448,268,88174,6,0,P|360:248|272:276,1,160
200,252,89074,2,0,P|228:160|220:76,1,160
156,40,89974,2,0,P|68:72|148:132,1,160
168,148,90874,5,0,0:0:0:0:
232,224,91174,2,0,L|312:248,2,80
136,260,92074,6,0,P|92:180|160:120,1,160
212,112,92974,2,0,P|292:148|384:116,1,160
356,40,93874,2,0,P|440:80|412:192,1,160
360,200,94774,6,0,L|240:188,2,80
192,56,102574,6,0,P|224:84|240:128,1,80
340,116,103474,6,0,P|376:200|188:100,1,560
252,64,106174,5,0,0:0:0:0:
