osu file format v14

[General]
AudioFilename: audio.mp3
AudioLeadIn: 0
PreviewTime: 16471
Countdown: 1
SampleSet: Soft
StackLeniency: 0.7
Mode: 0
LetterboxInBreaks: 0
WidescreenStoryboard: 1

[Editor]
DistanceSpacing: 1
BeatDivisor: 4
GridSize: 8
TimelineZoom: 1.4

[Metadata]
Title:Moon Halo
TitleUnicode:Moon Halo
Artist:M2U & Nicode
ArtistUnicode:M2U & Nicode
Creator:Xirnic
Version:Eclipse
Source:Deemo
Tags:Artcore
BeatmapID:1666453
BeatmapSetID:793540

[Difficulty]
HPDrainRate:6
CircleSize:4.6
OverallDifficulty:8
ApproachRate:9
SliderMultiplier:1.4
SliderTickRate:1

[Events]
//Background and Video events
0,0,"Moon_Halo.png",0,0
//Break Periods
//Storyboard Layer 0 (Background)
//Storyboard Layer 1 (Fail)
//Storyboard Layer 2 (Pass)
//Storyboard Layer 3 (Foreground)
//Storyboard Sound Samples

[TimingPoints]
805,333.333333333333,3,2,0,100,1,0
16805,-66.6666666666667,3,2,0,50,0,0
20804,-60.6060606060606,3,2,0,50,0,0
26804,-60.6060606060606,3,3,0,100,0,1
31804,-60.6060606060606,3,2,0,100,0,0
48805,-60.6060606060606,3,2,0,50,0,0
56138,-60.6060606060606,3,3,0,100,0,0
56805,-60.6060606060606,3,2,0,100,0,0
62804,-181.818181818181,3,2,0,100,0,0
65138,-100,3,2,0,100,0,0
75138,-100,3,3,0,100,0,0
77805,-100,3,2,0,100,0,0
96804,-333.333333333333,3,2,0,100,0,0

[HitObjects]
176,104,805,5,8,0:0:0:0:
248,224,1138,1,0,0:0:0:0:
336,112,1472,2,0,P|368:184|344:264,1,140,0|8,0:0|0:0,0:0:0:0:
304,368,2138,1,0,0:0:0:0:
216,256,2472,1,0,0:0:0:0:
216,347,2638,1,0,0:0:0:0:
138,302,2805,1,8,0:0:0:0:
128,150,3138,6,0,P|184:78|256:54,1,140
364,32,3805,1,0,0:0:0:0:
384,166,4138,5,8,0:0:0:0:
506,234,4304,1,8,0:0:0:0:
364,230,4471,5,2,0:0:0:0:
408,363,4638,1,2,0:0:0:0:
309,264,4805,2,0,P|237:272|149:216,1,175,8|0,0:0|0:0,0:0:0:0:
96,131,5305,1,0,0:0:0:0:
208,44,5472,1,0,0:0:0:0:
326,124,5638,1,0,0:0:0:0:
309,264,5805,2,0,P|237:272|149:216,1,175,8|0,0:0|0:0,0:0:0:0:
265,133,6305,2,0,P|298:119|334:123,2,70
301,270,6805,5,0,0:0:0:0:
210,113,6972,1,0,0:0:0:0:
210,270,7139,5,0,0:0:0:0:
301,113,7304,1,0,0:0:0:0:
165,191,7472,5,0,0:0:0:0:
347,192,7638,1,0,0:0:0:0:
253,48,7804,2,0,P|230:74|221:107,1,70
396,111,8138,2,0,P|419:138|428:171,1,70
346,326,8472,2,0,P|320:349|284:354,1,70
121,349,8805,5,8,0:0:0:0:
208,228,9138,2,0,P|168:156|208:84,1,140
325,70,9805,2,0,P|405:86|437:158,1,140,8|0,0:0|0:0,0:0:0:0:
445,271,10472,1,0,0:0:0:0:
354,165,10638,1,0,0:0:0:0:
301,296,10805,1,8,0:0:0:0:
126,245,11138,1,0,0:0:0:0:
214,84,11472,1,0,0:0:0:0:
361,192,11805,1,8,0:0:0:0:
256,72,12305,5,0,0:0:0:0:
192,128,12472,1,0,0:0:0:0:
256,184,12638,1,0,0:0:0:0:
320,232,12805,1,8,0:0:0:0:
256,184,13305,5,0,0:0:0:0:
320,232,13472,1,0,0:0:0:0:
256,288,13638,1,0,0:0:0:0:
192,336,13805,1,8,0:0:0:0:
93,128,14305,6,0,P|157:80|229:72,1,140
304,74,14805,2,0,P|372:88|426:132,1,140,0|8,0:0|0:0,0:0:0:0:
332,243,15472,1,2,0:0:0:0:
216,152,15805,1,8,0:0:0:0:
191,79,16471,5,0,0:0:0:0:
312,88,16805,2,0,P|288:144|208:160,1,105.000004005432,8|0,0:0|0:0,0:0:0:0:
352,176,17138,2,0,P|303:212|225:186,1,105.000004005432,4|0,0:0|0:0,0:0:0:0:
351,280,17472,2,0,P|290:287|240:232,1,105.000004005432,4|0,0:0|0:0,0:0:0:0:
145,273,17805,6,0,B|189:243|189:243|245:275,1,105.000004005432,8|0,0:0|0:0,0:0:0:0:
152,213,18138,2,0,B|176:165|176:165|240:165,1,105.000004005432,4|0,0:0|0:0,0:0:0:0:
134,147,18472,2,0,B|130:93|130:93|186:61,1,105.000004005432,4|0,0:0|0:0,0:0:0:0:
280,192,18805,2,0,P|368:192|440:320,1,210.000008010865,8|4,0:0|0:0,0:0:0:0:
368,320,19305,1,0,0:0:0:0:
256,272,19472,1,12,0:0:0:0:
144,320,19638,1,0,0:0:0:0:
32,272,19805,2,0,B|32:208|32:128|96:80,1,210.000008010865,8|4,0:0|0:0,0:0:0:0:
192,64,20471,5,0,0:0:0:0:
304,72,20805,2,0,P|240:152|240:200,1,115.500001101494,8|0,0:0|0:0,0:0:0:0:
376,160,21138,2,0,P|280:197|256:238,1,115.500001101494,4|0,0:0|0:0,0:0:0:0:
392,272,21472,2,0,P|290:256|249:280,1,115.500001101494,12|0,0:0|0:0,0:0:0:0:
384,336,21805,2,0,P|256:360|152:336,1,231.000002202988,8|4,0:0|0:0,0:0:0:0:
112,256,22305,1,0,0:0:0:0:
160,144,22472,1,12,0:0:0:0:
256,80,22638,1,0,0:0:0:0:
368,104,22805,6,0,B|448:136|480:224|472:312,1,231.000002202988,8|4,0:0|0:0,0:0:0:0:
360,280,23305,1,8,0:0:0:0:
256,232,23472,1,12,0:0:0:0:
152,280,23638,1,0,0:0:0:0:
136,160,23805,1,12,0:0:0:0:
256,232,23972,1,0,0:0:0:0:
256,232,24138,1,0,0:0:0:0:
360,96,24638,5,0,0:0:0:0:
384,112,24805,2,0,B|416:160|392:288|240:288,1,231.000002202988,8|4,0:0|0:0,0:0:0:0:
176,280,25305,1,0,0:0:0:0:
128,176,25472,1,12,0:0:0:0:
176,72,25638,1,0,0:0:0:0:
224,176,25805,1,8,0:0:0:0:
267,43,25971,1,0,0:0:0:0:
296,176,26138,1,4,0:0:0:0:
399,22,26305,1,0,0:0:0:0:
461,169,26472,2,0,L|469:289,1,115.500001101494,0|12,0:0|0:0,0:0:0:0:
400,288,26805,5,4,0:0:0:0:
256,192,27138,1,4,0:0:0:0:
96,48,27472,1,4,0:0:0:0:
72,288,27805,1,4,0:0:0:0:
432,128,28305,1,4,0:0:0:0:
355,200,28804,2,0,P|347:264|198:283,1,231.000002202988
224,216,29305,1,0,0:0:0:0:
256,144,29472,1,0,0:0:0:0:
296,208,29638,1,0,0:0:0:0:
286,232,29805,6,0,P|220:177|304:192,1,231.000002202988,8|0,0:0|0:0,0:0:0:0:
344,240,30305,1,0,0:0:0:0:
184,256,30472,1,0,0:0:0:0:
256,80,30639,1,0,0:0:0:0:
256,152,30805,2,0,P|232:216|352:232,3,231.000002202988,8|2|2|4,0:0|0:0|0:0|0:0,0:0:0:0:
312,128,32138,1,0,0:0:0:0:
416,56,32472,1,0,0:0:0:0:
224,144,32804,5,8,0:0:0:0:
160,56,33138,2,0,P|112:112|112:288,1,231.000002202988
184,280,33804,2,0,B|184:208|256:208|256:208|256:288|344:288,1,231.000002202988,8|0,0:0|0:0,0:0:0:0:
336,208,34471,1,0,0:0:0:0:
336,56,34638,1,0,0:0:0:0:
466,132,34804,1,8,0:0:0:0:
456,240,35054,1,0,0:0:0:0:
456,240,35096,1,0,0:0:0:0:
456,240,35138,2,0,P|448:320|304:328,1,231.000002202988,0|0,0:0|0:0,0:0:0:0:
256,304,35804,5,8,0:0:0:0:
168,216,36138,1,0,0:0:0:0:
102,150,36304,1,0,0:0:0:0:
168,85,36471,1,0,0:0:0:0:
233,150,36638,1,0,0:0:0:0:
168,216,36804,1,8,0:0:0:0:
234,229,37304,5,0,0:0:0:0:
233,150,37471,1,0,0:0:0:0:
296,192,37638,1,0,0:0:0:0:
296,119,37804,2,0,P|304:39|368:23,1,115.500001101494,8|0,0:0|0:0,0:0:0:0:
398,57,38138,2,0,P|394:113|353:152,1,115.500001101494
396,222,38471,2,0,P|444:150|420:94,1,115.500001101494
361,63,38804,5,8,0:0:0:0:
175,63,39138,2,0,P|116:61|71:91,1,115.500001101494
49,190,39471,1,0,0:0:0:0:
191,208,39721,1,0,0:0:0:0:
191,208,39804,2,0,P|239:304|383:328,1,231.000002202988,8|0,0:0|0:0,0:0:0:0:
470,193,40471,1,0,0:0:0:0:
376,181,40638,1,0,0:0:0:0:
305,113,40804,5,4,0:0:0:0:
128,112,41138,2,0,P|112:216|216:328,1,231.000002202988
338,318,41804,2,0,P|418:238|418:78,1,231.000002202988,8|0,0:0|0:0,0:0:0:0:
294,257,42471,1,0,0:0:0:0:
208,222,42638,1,0,0:0:0:0:
197,130,42804,1,8,0:0:0:0:
316,60,43054,1,0,0:0:0:0:
316,60,43096,1,0,0:0:0:0:
316,60,43138,2,0,P|356:100|420:268,1,231.000002202988,0|0,0:0|0:0,0:0:0:0:
270,150,43804,5,8,0:0:0:0:
111,54,44138,1,0,0:0:0:0:
73,138,44304,1,0,0:0:0:0:
136,205,44471,1,0,0:0:0:0:
216,159,44638,1,0,0:0:0:0:
204,67,44804,2,0,P|345:72|369:192,1,231.000002202988,8|0,0:0|0:0,0:0:0:0:
386,255,45304,1,0,0:0:0:0:
295,182,45471,1,0,0:0:0:0:
277,296,45638,1,0,0:0:0:0:
191,219,45804,6,0,B|142:219|142:219|102:291|102:139|63:211|63:211|-1:211,1,231.000002202988,8|0,0:0|0:0,0:0:0:0:
73,118,46304,2,0,P|113:38|249:6,1,231.000002202988
356,22,46804,1,8,0:0:0:0:
256,192,48471,5,0,0:0:0:0:
183,160,48804,1,4,0:0:0:0:
172,56,48971,5,0,0:0:0:0:
96,216,49138,1,0,0:0:0:0:
273,134,49304,1,0,0:0:0:0:
356,312,49471,5,0,0:0:0:0:
435,131,49638,1,0,0:0:0:0:
257,213,49804,1,4,0:0:0:0:
157,43,49971,5,0,0:0:0:0:
97,230,50138,1,0,0:0:0:0:
318,106,50304,1,0,0:0:0:0:
186,278,50804,5,4,0:0:0:0:
154,93,51304,1,0,0:0:0:0:
254,42,51471,2,0,P|334:66|366:106,1,115.500001101494
201,168,51804,1,4,0:0:0:0:
374,172,51971,1,0,0:0:0:0:
263,305,52138,5,0,0:0:0:0:
414,220,52305,1,0,0:0:0:0:
314,360,52471,5,0,0:0:0:0:
244,201,52638,1,0,0:0:0:0:
382,97,52804,1,4,0:0:0:0:
186,73,52971,5,0,0:0:0:0:
360,164,53138,1,0,0:0:0:0:
167,200,53304,1,0,0:0:0:0:
265,370,53471,5,0,0:0:0:0:
396,223,53638,1,0,0:0:0:0:
209,243,53804,1,4,0:0:0:0:
191,47,53971,5,0,0:0:0:0:
15,136,54138,1,0,0:0:0:0:
205,179,54304,1,0,0:0:0:0:
333,91,54804,5,4,0:0:0:0:
124,95,55138,2,0,P|76:159|124:303,1,231.000002202988
290,347,55804,1,0,0:0:0:0:
325,165,56138,1,8,0:0:0:0:
325,165,56304,1,8,0:0:0:0:
440,56,56471,2,0,P|470:228|436:276,1,231.000002202988,2|4,0:0|0:0,0:0:0:0:
120,80,57471,5,0,0:0:0:0:
294,264,57804,1,8,0:0:0:0:
449,34,58304,1,2,0:0:0:0:
313,160,58638,1,0,0:0:0:0:
267,79,58804,1,8,0:0:0:0:
86,140,59138,5,0,0:0:0:0:
362,333,59471,1,0,0:0:0:0:
252,15,59805,1,8,0:0:0:0:
154,336,60138,1,8,0:0:0:0:
423,134,60471,1,8,0:0:0:0:
240,160,60804,5,8,0:0:0:0:
31,342,61304,1,0,0:0:0:0:
51,251,61471,1,0,0:0:0:0:
105,176,61638,1,0,0:0:0:0:
174,115,61804,2,0,P|314:199|330:271,1,231.000002202988,8|0,0:0|0:0,0:0:0:0:
158,183,62471,1,0,0:0:0:0:
96,186,62804,6,0,P|72:250|192:322,1,231.000007049561,8|8,0:0|0:0,0:0:0:0:
249,317,64138,1,0,0:0:0:0:
354,270,64471,1,0,0:0:0:0:
347,154,64804,1,0,0:0:0:0:
232,113,65137,5,0,0:0:0:0:
129,296,65471,2,0,P|97:224|121:144,1,140,0|8,0:0|0:0,0:0:0:0:
188,51,66137,1,0,0:0:0:0:
307,125,66471,1,0,0:0:0:0:
307,34,66637,1,0,0:0:0:0:
385,79,66804,1,0,0:0:0:0:
386,218,67137,2,0,P|330:290|258:314,1,140
158,365,67804,5,8,0:0:0:0:
133,227,68137,5,0,0:0:0:0:
50,123,68303,1,0,0:0:0:0:
174,170,68470,5,0,0:0:0:0:
140,40,68637,1,0,0:0:0:0:
237,130,68804,2,0,P|309:122|397:178,1,140,8|0,0:0|0:0,0:0:0:0:
274,242,69304,1,0,0:0:0:0:
361,342,69471,1,0,0:0:0:0:
454,248,69637,1,0,0:0:0:0:
369,148,69804,2,0,P|305:121|237:130,1,140,8|0,0:0|0:0,0:0:0:0:
141,223,70304,2,0,L|96:312,2,70
224,120,70804,5,8,0:0:0:0:
174,255,70971,1,0,0:0:0:0:
296,200,71138,5,0,0:0:0:0:
342,327,71305,1,0,0:0:0:0:
360,200,71471,5,0,0:0:0:0:
232,153,71637,1,0,0:0:0:0:
248,288,71804,2,0,P|216:224|240:168,1,70,8|0,0:0|0:0,0:0:0:0:
160,104,72137,2,0,P|182:130|191:163,1,70
104,264,72471,2,0,P|81:238|72:205,1,70
120,80,72804,1,8,0:0:0:0:
256,120,73138,6,0,P|336:120|392:160,1,140
304,264,73804,2,0,P|224:264|168:224,1,140,8|0,0:0|0:0,0:0:0:0:
160,96,74471,1,0,0:0:0:0:
168,104,74638,1,0,0:0:0:0:
168,104,74804,1,8,0:0:0:0:
264,64,75054,1,0,0:0:0:0:
264,64,75096,1,0,0:0:0:0:
264,64,75138,2,0,P|320:104|320:184,1,140,8|8,0:0|0:0,0:0:0:0:
184,152,75804,1,8,0:0:0:0:
264,264,76138,5,0,0:0:0:0:
178,236,76304,1,8,0:0:0:0:
178,145,76471,1,0,0:0:0:0:
265,119,76638,1,0,0:0:0:0:
318,191,76804,1,0,0:0:0:0:
152,64,77304,2,0,P|112:104|112:144,2,70
144,176,77804,2,0,B|136:216|136:216|192:216|192:216|184:272,1,140,8|0,0:0|0:0,0:0:0:0:
296,296,78304,2,0,B|376:216|376:216|352:200,1,140
256,152,78804,1,0,0:0:0:0:
480,184,79138,5,8,0:0:0:0:
320,24,79471,1,8,0:0:0:0:
96,32,79804,1,8,0:0:0:0:
64,256,80138,2,0,P|24:304|24:320,1,70
136,288,80471,2,0,P|176:336|176:352,1,70
240,248,80804,1,0,0:0:0:0:
256,112,81138,6,0,P|320:80|392:88,1,140
440,216,81804,2,0,P|376:256|280:264,1,140,8|0,0:0|0:0,0:0:0:0:
184,216,82471,1,0,0:0:0:0:
184,129,82638,1,0,0:0:0:0:
257,172,82804,1,8,0:0:0:0:
264,280,83054,1,0,0:0:0:0:
264,280,83096,1,0,0:0:0:0:
264,280,83138,2,0,P|336:328|384:320,1,140,0|0,0:0|0:0,0:0:0:0:
448,200,83804,1,8,0:0:0:0:
328,120,84138,5,0,0:0:0:0:
232,224,84304,1,0,0:0:0:0:
232,80,84471,1,0,0:0:0:0:
328,184,84638,1,0,0:0:0:0:
416,80,84804,1,8,0:0:0:0:
216,152,85304,5,0,0:0:0:0:
352,184,85471,1,0,0:0:0:0:
232,256,85638,1,0,0:0:0:0:
368,296,85804,1,8,0:0:0:0:
88,336,86138,2,0,L|128:264,1,70
248,208,86471,2,0,L|296:144,1,70
256,88,86721,1,0,0:0:0:0:
288,56,86804,2,0,P|352:32|432:48,1,140,8|0,0:0|0:0,0:0:0:0:
376,192,87471,1,0,0:0:0:0:
224,160,87804,6,0,P|152:176|104:232,1,140,8|0,0:0|0:0,0:0:0:0:
208,280,88388,1,0,0:0:0:0:
208,280,88429,1,0,0:0:0:0:
208,280,88471,2,0,L|296:264,1,70,0|0,0:0|0:0,0:0:0:0:
344,224,88804,1,8,0:0:0:0:
288,80,89138,2,0,P|208:64|136:104,1,140
88,224,89804,2,0,P|192:280|224:280,1,140,8|0,0:0|0:0,0:0:0:0:
216,128,90471,1,0,0:0:0:0:
216,37,90638,1,0,0:0:0:0:
295,83,90804,1,8,0:0:0:0:
400,128,91054,5,0,0:0:0:0:
400,128,91096,1,0,0:0:0:0:
400,128,91138,1,8,0:0:0:0:
320,264,91471,1,8,0:0:0:0:
192,184,91804,1,8,0:0:0:0:
248,40,92138,2,0,L|320:40,1,70
296,176,92471,2,0,L|216:176,1,70
120,88,92804,1,0,0:0:0:0:
272,96,93304,6,0,L|344:120,2,70
136,120,93804,2,0,B|88:136|88:136|112:152|112:152|48:168,1,140,8|0,0:0|0:0,0:0:0:0:
112,296,94304,2,0,P|184:344|240:328,1,140
304,216,94804,1,8,0:0:0:0:
256,192,95138,12,0,96138,0:0:0:0:
240,176,96721,5,0,0:0:0:0:
240,176,96763,1,0,0:0:0:0:
240,176,96804,2,0,L|288:176,1,41.9999987182618,0|0,0:0|0:0,0:0:0:0:
360,112,97304,1,0,0:0:0:0:
440,192,97471,2,0,L|464:224,1,31.4999990386963
376,312,97971,1,0,0:0:0:0:
272,288,98138,2,0,L|240:304,2,31.4999990386963
256,80,99138,1,0,0:0:0:0:
120,144,100638,5,0,0:0:0:0:
120,168,100721,1,0,0:0:0:0:
120,192,100804,2,0,P|152:272|184:272,1,125.999996154785,0|0,0:0|0:0,0:0:0:0:
