osu file format v14

[General]
AudioFilename: audio.mp3
AudioLeadIn: 0
PreviewTime: 49666
Countdown: 0
SampleSet: Normal
StackLeniency: 0.7
Mode: 0
LetterboxInBreaks: 0
WidescreenStoryboard: 1

[Editor]
Bookmarks: 60935,86435,92248,110436,113436,115478
DistanceSpacing: 0.6
BeatDivisor: 4
GridSize: 8
TimelineZoom: 1

[Metadata]
Title:Lune
TitleUnicode:Lune
Artist:M2U & Nicode
ArtistUnicode:M2U & Nicode
Creator:Helen0903
Version:Normal
Source:Deemo
Tags:rsi m2u nicode jumpstreams jumps spacing
BeatmapID:1265168
BeatmapSetID:598409

[Difficulty]
HPDrainRate:4
CircleSize:4.2
OverallDifficulty:5
ApproachRate:5
SliderMultiplier:1.5
SliderTickRate:1

[Events]
//Background and Video events
0,0,"Konachan.com - 202447 sample.jpg",0,0
//Break Periods
2,49116,54346
//Storyboard Layer 0 (Background)
//Storyboard Layer 1 (Fail)
//Storyboard Layer 2 (Pass)
//Storyboard Layer 3 (Foreground)
//Storyboard Sound Samples

[TimingPoints]
166,375,4,1,0,35,1,0
166,-142.857142857143,4,1,0,35,0,0
21166,-100,4,1,0,40,0,0
28687,-66.6666666666667,4,1,0,40,0,0
28780,-100,4,1,0,40,0,0
31312,-100,4,1,0,50,0,0
31687,-100,4,1,0,40,0,0
32062,-100,4,1,0,30,0,0
32437,-100,4,1,0,20,0,0
32812,-100,4,1,0,25,0,0
33187,-100,4,1,0,25,0,0
34311,-66.6666666666667,4,1,0,10,0,0
34312,-100,4,1,0,10,0,0
34687,-100,4,1,0,20,0,0
39562,-100,4,1,0,30,0,0
41062,-100,4,1,0,35,0,0
43030,-100,4,1,0,40,0,0
43499,-100,4,1,0,50,0,1
49687,-100,4,1,0,30,0,0
56062,-100,4,1,0,40,0,0
60187,-100,4,1,0,45,0,0
62062,-100,4,1,0,30,0,0
62416,-100,4,1,0,79,0,0
62604,-100,4,1,0,25,0,0
62624,-100,4,1,0,25,0,0
63166,-100,4,1,0,79,0,0
63374,-100,4,1,0,15,0,0
64312,-100,4,1,0,10,0,0
64687,-133.333333333333,4,1,0,20,0,0
71437,-200,4,1,0,20,0,0
72187,-105.263157894737,4,1,0,20,0,0
74062,-105.263157894737,4,1,0,25,0,0
74437,-105.263157894737,4,1,0,30,0,0
74812,-105.263157894737,4,1,0,35,0,0
75166,-105.263157894737,4,1,0,40,0,1
81187,-153.846153846154,4,1,0,30,0,0
82124,-66.6666666666667,4,1,0,30,0,0
82312,-37,4,1,0,30,0,0
82687,-153.846153846154,4,1,0,30,0,0
83624,-66.6666666666667,4,1,0,30,0,0
83812,-37,4,1,0,30,0,0
84187,-153.846153846154,4,1,0,30,0,0
86061,-100,4,1,0,35,0,0
86061,-100,4,1,0,35,0,0
93561,-100,4,1,0,45,0,0
95436,-100,4,1,0,35,0,0
96166,-200,4,1,0,10,0,0
107416,375,4,1,0,10,1,0
109311,-100,4,1,0,5,0,0

[Colours]
Combo1 : 255,192,0
Combo2 : 255,255,255
Combo3 : 255,255,128
Combo4 : 255,255,0

[HitObjects]
77,86,166,5,0,0:0:0:0:
237,136,916,2,0,L|446:218,1,209.999993591309
305,322,2416,1,0,0:0:0:0:
221,325,2791,1,0,0:0:0:0:
137,322,3166,2,0,L|45:240,1,104.999996795654
45,169,3916,5,0,0:0:0:0:
92,99,4291,2,0,L|200:63,1,104.999996795654
358,84,5416,1,0,0:0:0:0:
422,137,5791,1,0,0:0:0:0:
427,220,6166,2,0,L|342:302,1,104.999996795654
269,311,6916,6,0,L|156:331,1,104.999996795654
84,306,7666,1,0,0:0:0:0:
106,139,8416,2,0,L|2:157,2,104.999996795654
257,66,9916,1,0,0:0:0:0:
425,66,10666,6,0,L|399:188,1,104.999996795654
384,250,11416,2,0,L|292:185,1,104.999996795654
236,132,12166,1,0,0:0:0:0:
85,57,12916,1,0,0:0:0:0:
22,212,13666,1,0,0:0:0:0:
165,299,14416,6,0,P|242:335|369:360,1,209.999993591309
447,355,15541,1,0,0:0:0:0:
495,286,15916,2,0,L|500:169,1,104.999996795654
477,99,16666,1,0,0:0:0:0:
324,29,17416,1,0,0:0:0:0:
256,192,18166,12,0,21166,0:0:0:0:
78,71,21916,5,0,0:0:0:0:
316,101,22666,1,0,0:0:0:0:
423,154,23041,1,0,0:0:0:0:
322,219,23416,1,0,0:0:0:0:
101,313,24166,6,0,L|72:164,1,150
60,46,24916,1,0,0:0:0:0:
299,26,25666,2,0,L|402:171,1,150
445,252,26416,1,0,0:0:0:0:
445,252,26791,2,0,L|295:253,1,150
90,127,27916,6,0,L|243:89,1,150
347,46,28666,1,0,0:0:0:0:
430,270,29416,2,0,L|263:303,2,150
256,192,30916,12,0,33166,0:0:0:0:
99,107,33916,5,0,0:0:0:0:
212,67,34291,2,0,L|361:73,1,150
450,296,35416,1,0,0:0:0:0:
343,351,35791,2,0,L|192:357,1,150
66,153,36916,5,0,0:0:0:0:
155,72,37291,1,0,0:0:0:0:
256,136,37666,1,0,0:0:0:0:
375,140,38041,2,0,L|375:295,1,150
494,291,38791,2,0,L|492:109,1,150
411,51,39541,5,0,0:0:0:0:
293,76,39916,1,0,0:0:0:0:
183,125,40291,2,0,P|165:167|190:290,1,150
270,343,41041,1,0,0:0:0:0:
389,351,41416,1,0,0:0:0:0:
493,291,41791,2,0,P|495:180|478:113,1,150
256,192,42916,12,0,44416,0:0:0:0:
95,102,45166,6,0,L|239:42,1,150
298,145,45916,2,0,L|138:218,1,150
466,237,46666,2,0,L|321:308,1,150
260,206,47416,2,0,L|410:136,1,150
508,101,48166,1,0,0:0:0:0:
276,38,48916,1,0,0:0:0:0:
66,165,55666,6,0,P|201:77|347:120,1,300
472,297,57166,1,0,0:0:0:0:
368,235,57541,1,0,0:0:0:0:
273,309,57916,1,0,0:0:0:0:
165,255,58291,2,0,L|168:151,2,75
96,353,59041,5,0,0:0:0:0:
23,259,59416,1,0,0:0:0:0:
138,48,60166,2,0,L|138:150,2,75
257,35,60916,2,0,L|257:111,4,75
496,36,62416,5,0,0:0:0:0:
465,274,63166,1,0,0:0:0:0:
225,291,63916,1,0,0:0:0:0:
127,221,64291,1,0,0:0:0:0:
17,172,64666,2,0,P|36:74|93:16,1,150
155,23,65416,1,0,0:0:0:0:
333,49,66166,5,0,0:0:0:0:
408,97,66541,1,0,0:0:0:0:
472,160,66916,2,0,P|489:235|471:286,1,112.500004291535
412,326,67666,1,0,0:0:0:0:
241,269,68416,1,0,0:0:0:0:
166,218,68791,2,0,L|83:136,1,112.500004291535
152,78,69541,2,0,L|254:160,1,112.500004291535
318,191,70291,5,0,0:0:0:0:
407,180,70666,1,0,0:0:0:0:
481,16,71416,2,0,L|349:3,1,112.500004291535
312,24,72166,1,0,0:0:0:0:
85,51,72916,6,0,L|100:202,1,142.49999619484
144,297,73666,1,0,0:0:0:0:
370,326,74416,2,0,L|505:260,1,142.49999619484
498,149,75166,1,0,0:0:0:0:
53,46,76666,5,0,0:0:0:0:
34,158,77041,1,0,0:0:0:0:
100,250,77416,1,4,0:0:0:0:
325,284,78166,2,0,P|402:238|453:173,1,142.49999619484
404,89,78916,1,0,0:0:0:0:
290,89,79291,6,0,P|217:164|205:206,1,142.49999619484
237,307,80041,1,0,0:0:0:0:
333,368,80416,1,0,0:0:0:0:
256,192,81166,12,0,84166,0:0:0:0:
97,108,84916,6,0,L|205:88,1,97.4999955368044
270,79,85666,1,0,0:0:0:0:
501,141,86416,2,0,L|437:295,2,150
286,34,87916,1,0,0:0:0:0:
79,156,88666,2,0,L|70:237,2,75
117,42,89416,1,0,0:0:0:0:
352,89,90166,5,0,0:0:0:0:
486,287,90916,2,0,L|305:326,1,150
220,336,91666,1,0,0:0:0:0:
64,152,92416,6,0,L|160:22,1,150
258,89,93166,2,0,L|158:206,1,150
68,280,93916,1,0,0:0:0:0:
140,375,94291,1,0,0:0:0:0:
257,350,94666,1,0,0:0:0:0:
372,317,95041,2,0,L|397:147,1,150
305,87,96166,5,0,0:0:0:0:
185,88,96916,2,0,L|114:123,2,75
234,54,98041,1,0,0:0:0:0:
293,45,98416,2,0,L|327:128,2,75
267,1,99541,1,0,0:0:0:0:
207,1,99916,1,0,0:0:0:0:
158,36,100291,6,0,L|154:113,1,75
158,170,101041,1,0,0:0:0:0:
183,224,101416,2,0,L|269:193,1,75
312,188,102166,1,0,0:0:0:0:
367,81,102916,1,0,0:0:0:0:
446,171,103666,6,0,L|392:235,1,75
448,259,104416,1,0,0:0:0:0:
342,200,105166,1,0,0:0:0:0:
248,274,105916,6,0,L|162:275,2,75
308,274,107041,1,0,0:0:0:0:
406,205,107416,6,0,P|274:126|-6:221,1,450
68,309,108916,1,0,0:0:0:0:
256,192,110416,12,0,115478,0:0:0:0:
