osu file format v14

[General]
AudioFilename: audio.mp3
AudioLeadIn: 0
PreviewTime: 49666
Countdown: 0
SampleSet: Normal
StackLeniency: 0.7
Mode: 0
LetterboxInBreaks: 0
WidescreenStoryboard: 1

[Editor]
Bookmarks: 60935,86435,92248,99166,110436,113436,115478
DistanceSpacing: 1
BeatDivisor: 4
GridSize: 8
TimelineZoom: 1

[Metadata]
Title:Lune
TitleUnicode:Lune
Artist:M2U & Nicode
ArtistUnicode:M2U & Nicode
Creator:Helen0903
Version:Hyper
Source:Deemo
Tags:rsi m2u nicode jumpstreams jumps spacing
BeatmapID:1265258
BeatmapSetID:598409

[Difficulty]
HPDrainRate:6
CircleSize:4.5
OverallDifficulty:6
ApproachRate:8.7
SliderMultiplier:1.5
SliderTickRate:1

[Events]
//Background and Video events
0,0,"Konachan.com - 202447 sample.jpg",0,0
//Break Periods
//Storyboard Layer 0 (Background)
//Storyboard Layer 1 (Fail)
//Storyboard Layer 2 (Pass)
//Storyboard Layer 3 (Foreground)
//Storyboard Sound Samples

[TimingPoints]
166,375,4,1,0,35,1,0
166,-142.857142857143,4,1,0,35,0,0
18166,-71.4285714285714,4,1,0,35,0,0
21187,-100,4,1,0,40,0,0
28687,-66.6666666666667,4,1,0,40,0,0
28780,-100,4,1,0,40,0,0
31312,-100,4,1,0,50,0,0
31687,-100,4,1,0,40,0,0
32062,-100,4,1,0,30,0,0
32437,-100,4,1,0,20,0,0
32812,-100,4,1,0,25,0,0
33187,-100,4,1,0,25,0,0
34311,-66.6666666666667,4,1,0,10,0,0
34312,-100,4,1,0,10,0,0
34687,-100,4,1,0,20,0,0
39562,-100,4,1,0,30,0,0
41062,-100,4,1,0,35,0,0
43030,-100,4,1,0,40,0,0
43499,-100,4,1,0,50,0,1
47603,-66.6666666666667,4,1,0,50,0,1
48916,-100,4,1,0,50,0,0
55666,-50,4,1,0,30,0,0
56062,-100,4,1,0,40,0,0
60187,-100,4,1,0,45,0,0
62062,-100,4,1,0,30,0,0
62416,-100,4,1,0,79,0,0
62604,-100,4,1,0,25,0,0
62624,-100,4,1,0,25,0,0
63166,-100,4,1,0,79,0,0
63374,-100,4,1,0,15,0,0
64312,-100,4,1,0,10,0,0
71437,-200,4,1,0,20,0,0
72187,-105.263157894737,4,1,0,20,0,0
74062,-105.263157894737,4,1,0,25,0,0
74437,-105.263157894737,4,1,0,30,0,0
74812,-105.263157894737,4,1,0,35,0,0
75187,-105.263157894737,4,1,0,40,0,1
81187,-153.846153846154,4,1,0,30,0,0
82124,-66.6666666666667,4,1,0,30,0,0
82312,-37,4,1,0,30,0,0
82687,-153.846153846154,4,1,0,30,0,0
83624,-66.6666666666667,4,1,0,30,0,0
83812,-37,4,1,0,30,0,0
84187,-153.846153846154,4,1,0,30,0,0
86061,-100,4,1,0,35,0,0
86061,-100,4,1,0,35,0,0
87353,-100,4,1,0,50,0,0
88853,-100,4,1,0,60,0,0
90353,-100,4,1,0,75,0,0
93561,-100,4,1,0,45,0,0
95436,-100,4,1,0,35,0,0
96166,-200,4,1,0,10,0,0
107416,375,4,1,0,10,1,0
109311,-100,4,1,0,5,0,0

[Colours]
Combo1 : 255,192,0
Combo2 : 255,255,255
Combo3 : 255,255,128
Combo4 : 255,255,0

[HitObjects]
110,67,166,5,0,0:0:0:0:
197,147,541,1,0,0:0:0:0:
379,278,916,1,0,0:0:0:0:
357,59,1666,6,0,L|291:155,1,104.999996795654
460,66,2416,1,0,0:0:0:0:
393,123,2791,1,0,0:0:0:0:
485,238,3166,1,0,0:0:0:0:
111,126,3916,5,0,0:0:0:0:
237,116,4291,1,0,0:0:0:0:
307,258,4572,5,0,0:0:0:0:
325,267,4666,1,0,0:0:0:0:
423,160,5041,5,0,0:0:0:0:
367,68,5228,5,0,0:0:0:0:
346,69,5322,1,0,0:0:0:0:
325,71,5416,1,0,0:0:0:0:
253,165,5603,5,0,0:0:0:0:
373,169,5791,1,0,0:0:0:0:
192,35,5978,1,0,0:0:0:0:
249,96,6166,6,0,L|137:98,1,104.999996795654
296,98,6916,1,0,0:0:0:0:
464,86,7666,6,0,L|356:98,1,104.999996795654
507,82,8416,1,0,0:0:0:0:
314,102,8791,1,0,0:0:0:0:
420,91,9166,1,0,0:0:0:0:
445,211,9541,1,0,0:0:0:0:
298,129,9916,1,0,0:0:0:0:
125,114,10666,6,0,L|142:164,2,52.4999983978272
226,65,11416,5,0,0:0:0:0:
340,106,11697,5,0,0:0:0:0:
360,110,11791,1,0,0:0:0:0:
457,32,12072,1,0,0:0:0:0:
436,27,12166,1,0,0:0:0:0:
226,175,12541,5,0,0:0:0:0:
397,248,12916,1,0,0:0:0:0:
268,298,13291,5,0,0:0:0:0:
257,242,13478,1,0,0:0:0:0:
211,278,13666,1,0,0:0:0:0:
35,106,14416,6,0,L|137:66,1,104.999996795654
306,62,15072,5,0,0:0:0:0:
319,78,15166,1,0,0:0:0:0:
172,110,15541,5,0,0:0:0:0:
325,93,15916,1,0,0:0:0:0:
185,189,16291,1,0,0:0:0:0:
305,26,16666,1,0,0:0:0:0:
313,298,17416,5,0,0:0:0:0:
134,144,18166,1,0,0:0:0:0:
272,200,18541,5,0,0:0:0:0:
354,148,18728,1,0,0:0:0:0:
363,311,18916,1,0,0:0:0:0:
444,258,19103,1,0,0:0:0:0:
289,254,19291,1,0,0:0:0:0:
319,119,19478,1,0,0:0:0:0:
339,295,19666,1,0,0:0:0:0:
468,273,19853,1,0,0:0:0:0:
426,168,20041,6,0,L|254:298,2,209.999993591309
99,95,21166,5,4,0:0:0:0:
195,106,21353,5,0,0:0:0:0:
193,143,21446,1,0,0:0:0:0:
198,180,21540,1,0,0:0:0:0:
210,215,21634,1,0,0:0:0:0:
229,248,21728,5,0,0:0:0:0:
254,274,21821,1,0,0:0:0:0:
286,293,21915,1,0,0:0:0:0:
322,301,22009,1,0,0:0:0:0:
359,302,22103,5,0,0:0:0:0:
394,291,22196,1,0,0:0:0:0:
424,269,22290,1,0,0:0:0:0:
440,235,22384,1,0,0:0:0:0:
445,94,22852,5,0,0:0:0:0:
422,66,22946,1,0,0:0:0:0:
393,43,23040,1,0,0:0:0:0:
359,27,23134,1,0,0:0:0:0:
322,20,23227,5,0,0:0:0:0:
285,19,23321,1,0,0:0:0:0:
249,27,23415,1,0,0:0:0:0:
215,44,23509,1,0,0:0:0:0:
185,67,23603,6,0,L|217:109,1,37.5
233,127,23791,5,0,0:0:0:0:
312,216,23978,1,0,0:0:0:0:
158,256,24166,1,8,0:0:0:0:
60,185,24353,5,0,0:0:0:0:
75,150,24446,1,0,0:0:0:0:
95,119,24540,1,0,0:0:0:0:
121,91,24634,1,0,0:0:0:0:
149,67,24728,5,0,0:0:0:0:
183,49,24821,1,0,0:0:0:0:
218,36,24915,1,0,0:0:0:0:
254,29,25009,1,0,0:0:0:0:
292,27,25103,5,0,0:0:0:0:
329,32,25196,1,0,0:0:0:0:
365,42,25290,1,0,0:0:0:0:
399,57,25384,1,0,0:0:0:0:
438,241,25853,5,0,0:0:0:0:
414,270,25946,1,0,0:0:0:0:
386,294,26040,1,0,0:0:0:0:
354,314,26134,1,0,0:0:0:0:
319,329,26228,5,0,0:0:0:0:
283,337,26321,1,0,0:0:0:0:
245,339,26415,1,0,0:0:0:0:
208,335,26509,1,0,0:0:0:0:
174,319,26603,6,0,L|197:275,1,37.5
208,259,26791,5,0,0:0:0:0:
263,180,26978,2,0,L|196:138,1,75,0|8,0:0|0:0,0:0:0:0:
415,61,27353,6,0,L|416:102,1,37.5
355,64,27541,2,0,L|355:26,1,37.5
299,69,27728,2,0,L|301:108,1,37.5
243,66,27916,2,0,L|243:23,1,37.5
191,69,28103,5,0,0:0:0:0:
186,168,28291,1,0,0:0:0:0:
257,210,28478,1,0,0:0:0:0:
440,177,28666,1,8,0:0:0:0:
439,223,28853,6,0,L|381:226,1,37.5
440,270,29041,2,0,L|400:269,1,37.5
437,319,29228,2,0,L|396:319,1,37.5
437,368,29416,2,0,L|397:373,1,37.5
354,373,29603,5,0,0:0:0:0:
325,292,29791,1,0,0:0:0:0:
221,283,29978,1,0,0:0:0:0:
312,140,30166,1,0,0:0:0:0:
442,146,30353,6,0,L|443:102,1,37.5
394,148,30541,2,0,L|343:149,1,37.5
395,206,30728,2,0,L|394:256,1,37.5
452,208,30916,2,0,L|492:206,1,37.5
455,270,31103,6,0,L|452:208,1,37.5
398,273,31291,2,0,L|345:273,1,37.5
403,334,31478,2,0,L|403:372,1,37.5
463,333,31666,2,0,L|503:335,1,37.5
63,82,32416,5,0,0:0:0:0:
142,112,32791,1,0,0:0:0:0:
25,262,33166,1,0,0:0:0:0:
135,206,33541,1,0,0:0:0:0:
280,358,33916,1,0,0:0:0:0:
359,232,34291,6,0,L|365:323,1,75
471,264,34666,1,0,0:0:0:0:
352,100,35041,5,0,0:0:0:0:
282,177,35322,2,0,L|234:179,1,37.5
93,149,35697,5,0,0:0:0:0:
93,186,35791,1,0,0:0:0:0:
144,149,35884,2,0,L|185:148,1,37.5
103,303,36166,5,0,0:0:0:0:
200,349,36353,1,0,0:0:0:0:
24,241,36541,1,0,0:0:0:0:
148,326,36728,1,0,0:0:0:0:
63,269,36916,1,0,0:0:0:0:
128,200,37103,2,0,L|179:142,1,75
194,244,37478,1,0,0:0:0:0:
254,180,37666,1,0,0:0:0:0:
406,74,37853,5,0,0:0:0:0:
253,284,38041,1,0,0:0:0:0:
366,131,38228,1,0,0:0:0:0:
294,229,38416,1,0,0:0:0:0:
332,182,38603,2,0,L|403:218,1,75
332,182,38978,2,0,L|263:142,1,75
151,189,39353,5,0,0:0:0:0:
158,225,39446,1,0,0:0:0:0:
176,258,39540,1,0,0:0:0:0:
202,285,39634,1,0,0:0:0:0:
234,303,39728,5,0,0:0:0:0:
271,312,39821,1,0,0:0:0:0:
308,311,39915,1,0,0:0:0:0:
344,299,40009,1,0,0:0:0:0:
374,278,40103,5,0,0:0:0:0:
398,249,40196,1,0,0:0:0:0:
413,215,40290,1,0,0:0:0:0:
418,178,40384,1,0,0:0:0:0:
413,141,40478,5,0,0:0:0:0:
398,107,40571,1,0,0:0:0:0:
373,79,40665,5,0,0:0:0:0:
229,236,40853,1,0,0:0:0:0:
261,133,41041,1,0,0:0:0:0:
361,211,41228,1,0,0:0:0:0:
207,102,41416,5,0,0:0:0:0:
0,191,41791,1,0,0:0:0:0:
130,100,42166,1,0,0:0:0:0:
206,100,42353,6,0,L|209:160,1,37.5
267,96,42541,2,0,L|266:57,1,37.5
323,100,42728,2,0,L|325:144,1,37.5
384,105,42916,2,0,L|384:58,1,37.5
442,109,43103,2,0,L|444:165,1,37.5
498,113,43291,2,0,L|499:62,1,37.5
495,309,43666,5,0,0:0:0:0:
361,309,43853,5,0,0:0:0:0:
326,322,43947,1,0,0:0:0:0:
288,323,44041,1,0,0:0:0:0:
251,314,44134,1,0,0:0:0:0:
217,296,44228,5,0,0:0:0:0:
189,269,44322,1,0,0:0:0:0:
168,237,44416,1,0,0:0:0:0:
159,200,44509,1,0,0:0:0:0:
170,164,44603,5,0,0:0:0:0:
201,143,44697,1,0,0:0:0:0:
238,143,44791,1,0,0:0:0:0:
265,168,44884,1,0,0:0:0:0:
275,204,44978,5,0,0:0:0:0:
255,236,45072,1,0,0:0:0:0:
217,233,45166,1,0,0:0:0:0:
197,201,45259,1,0,0:0:0:0:
214,167,45353,5,0,0:0:0:0:
246,147,45447,1,0,0:0:0:0:
283,148,45541,1,0,0:0:0:0:
318,159,45634,1,0,0:0:0:0:
348,180,45728,5,0,0:0:0:0:
375,206,45822,1,0,0:0:0:0:
392,239,45916,1,0,0:0:0:0:
400,276,46009,1,0,0:0:0:0:
417,312,46103,6,0,L|417:262,1,37.5
464,312,46291,2,0,L|465:351,1,37.5
466,384,46478,1,0,0:0:0:0:
472,178,46666,5,0,0:0:0:0:
377,179,46853,6,0,L|376:224,1,37.5
322,175,47041,2,0,L|320:114,1,37.5
265,175,47228,2,0,L|266:217,1,37.5
207,175,47416,2,0,L|207:128,1,37.5
207,231,47603,6,0,L|206:159,1,56.2500021457673
263,118,47791,2,0,L|265:176,1,56.2500021457673
324,231,47978,2,0,L|321:169,1,56.2500021457673
379,113,48166,2,0,L|381:172,1,56.2500021457673
448,289,48353,5,0,0:0:0:0:
300,343,48541,1,0,0:0:0:0:
279,200,48728,1,0,0:0:0:0:
397,348,48916,1,0,0:0:0:0:
108,103,49666,5,0,0:0:0:0:
222,106,49853,2,0,L|219:188,1,75
312,100,50228,1,0,0:0:0:0:
314,174,50416,1,0,0:0:0:0:
213,287,50791,5,0,0:0:0:0:
312,343,51166,5,0,0:0:0:0:
381,342,51353,2,0,L|384:254,1,75
312,267,51728,1,0,0:0:0:0:
131,308,51916,1,0,0:0:0:0:
91,175,52197,5,0,0:0:0:0:
105,140,52291,1,0,0:0:0:0:
261,77,52572,1,0,0:0:0:0:
292,97,52666,1,0,0:0:0:0:
408,118,52853,6,0,L|402:207,1,75
248,233,53228,1,0,0:0:0:0:
108,126,53416,5,0,0:0:0:0:
145,126,53509,1,0,0:0:0:0:
182,126,53603,1,0,0:0:0:0:
326,138,53791,5,0,0:0:0:0:
272,251,53978,1,0,0:0:0:0:
132,234,54166,1,0,0:0:0:0:
437,328,54541,6,0,L|271:344,1,150
426,214,55291,2,0,L|276:224,1,150
81,96,55853,5,0,0:0:0:0:
104,64,55946,1,0,0:0:0:0:
135,40,56040,1,0,0:0:0:0:
171,24,56134,1,0,0:0:0:0:
210,17,56228,5,0,0:0:0:0:
249,20,56321,1,0,0:0:0:0:
286,33,56415,1,0,0:0:0:0:
319,55,56509,1,0,0:0:0:0:
346,84,56603,5,0,0:0:0:0:
364,118,56696,1,0,0:0:0:0:
373,157,56790,1,0,0:0:0:0:
373,196,56884,1,0,0:0:0:0:
362,234,56978,5,0,0:0:0:0:
343,268,57071,1,0,0:0:0:0:
316,297,57165,1,0,0:0:0:0:
282,317,57259,1,0,0:0:0:0:
245,329,57353,5,0,0:0:0:0:
205,331,57446,1,0,0:0:0:0:
167,323,57540,1,0,0:0:0:0:
131,306,57634,1,0,0:0:0:0:
79,309,57728,6,0,L|79:252,1,37.5
25,269,57916,2,0,L|25:324,1,37.5
28,229,58103,1,0,0:0:0:0:
30,191,58196,1,0,0:0:0:0:
43,156,58290,5,0,0:0:0:0:
149,52,58478,1,0,0:0:0:0:
141,185,58666,1,0,0:0:0:0:
234,259,58853,5,0,0:0:0:0:
261,283,58946,1,0,0:0:0:0:
295,300,59040,1,0,0:0:0:0:
332,307,59134,1,0,0:0:0:0:
369,303,59228,5,0,0:0:0:0:
404,290,59321,1,0,0:0:0:0:
434,268,59415,1,0,0:0:0:0:
458,239,59509,1,0,0:0:0:0:
472,205,59603,5,0,0:0:0:0:
477,168,59696,1,0,0:0:0:0:
472,131,59790,1,0,0:0:0:0:
457,96,59884,1,0,0:0:0:0:
433,67,59978,5,0,0:0:0:0:
403,46,60071,1,0,0:0:0:0:
367,33,60165,1,0,0:0:0:0:
330,30,60259,1,0,0:0:0:0:
294,38,60353,5,0,0:0:0:0:
264,61,60447,1,0,0:0:0:0:
236,86,60540,1,0,0:0:0:0:
223,120,60634,1,0,0:0:0:0:
230,157,60728,5,0,0:0:0:0:
246,191,60822,1,0,0:0:0:0:
263,224,60915,1,0,0:0:0:0:
273,260,61009,1,0,0:0:0:0:
268,297,61103,6,0,L|339:294,1,37.5
246,327,61291,2,0,L|183:328,1,37.5
167,331,61478,1,0,0:0:0:0:
85,240,61666,6,0,P|126:98|260:35,2,300
183,293,63916,5,0,0:0:0:0:
374,91,64291,1,0,0:0:0:0:
457,242,64666,2,0,L|289:308,1,150
291,211,65416,6,0,L|366:164,1,75
417,129,65791,2,0,L|347:174,1,75
307,115,66166,1,0,0:0:0:0:
201,69,66541,5,0,0:0:0:0:
204,134,66822,2,0,L|243:131,1,37.5
175,214,67197,6,0,L|134:217,2,37.5
231,213,67478,1,0,0:0:0:0:
280,210,67572,2,0,L|287:250,1,37.5
418,284,67853,5,0,0:0:0:0:
397,155,68041,1,0,0:0:0:0:
293,271,68228,1,0,0:0:0:0:
273,141,68416,1,0,0:0:0:0:
435,330,68603,5,0,0:0:0:0:
415,95,68791,1,0,0:0:0:0:
269,329,68978,1,0,0:0:0:0:
270,86,69166,1,0,0:0:0:0:
479,369,69353,5,0,0:0:0:0:
461,13,69541,1,0,0:0:0:0:
282,341,69728,1,0,0:0:0:0:
270,36,69916,1,0,0:0:0:0:
270,36,70103,5,0,0:0:0:0:
272,325,70291,1,0,0:0:0:0:
398,169,70478,1,0,0:0:0:0:
135,170,70666,1,0,0:0:0:0:
81,101,70853,6,0,L|83:153,1,37.5
84,174,71041,1,0,0:0:0:0:
86,211,71134,1,0,0:0:0:0:
102,244,71228,1,0,0:0:0:0:
127,272,71322,5,0,0:0:0:0:
158,293,71416,1,0,0:0:0:0:
293,211,71791,1,0,0:0:0:0:
410,288,72166,5,0,0:0:0:0:
445,200,72353,1,0,0:0:0:0:
330,269,72541,1,0,0:0:0:0:
357,184,72728,1,0,0:0:0:0:
410,288,72916,1,0,0:0:0:0:
207,121,73291,5,0,0:0:0:0:
61,248,73666,2,0,L|216:243,1,142.49999619484
203,242,74416,2,0,L|203:92,1,142.49999619484
329,204,75166,1,0,0:0:0:0:
452,210,75353,5,0,0:0:0:0:
455,174,75446,1,0,0:0:0:0:
451,139,75540,1,0,0:0:0:0:
439,105,75634,1,0,0:0:0:0:
420,75,75728,5,0,0:0:0:0:
394,51,75821,1,0,0:0:0:0:
371,23,75915,1,0,0:0:0:0:
341,43,76009,1,0,0:0:0:0:
318,15,76103,5,0,0:0:0:0:
290,37,76196,1,0,0:0:0:0:
257,21,76290,1,0,0:0:0:0:
235,49,76384,1,0,0:0:0:0:
203,31,76478,5,0,0:0:0:0:
186,64,76571,1,0,0:0:0:0:
151,54,76666,5,0,0:0:0:0:
66,142,76853,1,0,0:0:0:0:
178,189,77041,1,0,0:0:0:0:
267,117,77228,1,0,0:0:0:0:
296,247,77416,1,0,0:0:0:0:
434,181,77603,6,0,L|436:234,1,35.6249990487099
379,181,77791,2,0,L|382:131,1,35.6249990487099
324,182,77978,1,0,0:0:0:0:
151,102,78166,5,0,0:0:0:0:
147,169,78353,5,0,0:0:0:0:
151,204,78446,1,0,0:0:0:0:
159,239,78540,1,0,0:0:0:0:
174,271,78634,1,0,0:0:0:0:
196,299,78728,5,0,0:0:0:0:
224,321,78821,1,0,0:0:0:0:
259,314,78915,1,0,0:0:0:0:
276,345,79009,1,0,0:0:0:0:
306,325,79103,5,0,0:0:0:0:
333,346,79196,1,0,0:0:0:0:
357,320,79290,1,0,0:0:0:0:
390,331,79384,1,0,0:0:0:0:
400,296,79478,5,0,0:0:0:0:
435,299,79571,1,0,0:0:0:0:
449,265,79666,1,0,0:0:0:0:
348,185,79853,5,0,0:0:0:0:
220,112,80041,1,0,0:0:0:0:
227,225,80228,1,0,0:0:0:0:
333,69,80416,1,0,0:0:0:0:
284,146,80603,5,0,0:0:0:0:
281,110,80697,1,0,0:0:0:0:
264,78,80791,1,0,0:0:0:0:
237,54,80884,1,0,0:0:0:0:
201,43,80978,5,0,0:0:0:0:
166,50,81072,1,0,0:0:0:0:
133,64,81166,1,0,0:0:0:0:
128,203,81353,6,0,L|126:246,1,24.3749988842011
188,201,81541,2,0,L|190:164,1,24.3749988842011
245,211,81728,2,0,L|245:255,1,24.3749988842011
307,207,81916,5,0,0:0:0:0:
336,294,82103,1,0,0:0:0:0:
284,126,82291,1,0,0:0:0:0:
365,362,82478,1,0,0:0:0:0:
459,90,82666,1,0,0:0:0:0:
352,91,82853,6,0,L|352:63,1,24.3749988842011
294,93,83041,2,0,L|295:135,1,24.3749988842011
234,89,83228,2,0,L|234:58,1,24.3749988842011
175,89,83416,1,0,0:0:0:0:
248,192,83603,5,0,0:0:0:0:
141,24,83791,1,0,0:0:0:0:
299,264,83978,1,0,0:0:0:0:
208,141,84166,1,0,0:0:0:0:
327,81,84353,6,0,L|361:81,1,24.3749988842011
325,143,84541,2,0,L|282:143,1,24.3749988842011
324,205,84728,2,0,L|350:206,1,24.3749988842011
323,264,84916,2,0,L|281:263,1,24.3749988842011
322,324,85103,6,0,L|354:324,1,24.3749988842011
322,384,85291,1,0,0:0:0:0:
210,287,85478,5,0,0:0:0:0:
94,169,85666,1,0,0:0:0:0:
206,168,85853,6,0,L|206:211,1,24.3749988842011
264,168,86041,1,0,0:0:0:0:
373,91,86228,5,0,0:0:0:0:
319,346,86416,1,0,0:0:0:0:
441,310,86791,5,0,0:0:0:0:
443,109,87166,1,0,0:0:0:0:
372,58,87353,5,0,0:0:0:0:
347,30,87446,1,0,0:0:0:0:
313,13,87540,1,0,0:0:0:0:
276,10,87634,1,0,0:0:0:0:
240,21,87728,5,0,0:0:0:0:
211,45,87821,1,0,0:0:0:0:
193,77,87915,1,2,0:0:0:0:
188,114,88009,1,0,0:0:0:0:
197,150,88103,5,8,0:0:0:0:
219,181,88196,1,0,0:0:0:0:
250,201,88290,1,8,0:0:0:0:
287,208,88384,1,0,0:0:0:0:
324,200,88478,5,8,0:0:0:0:
443,190,88666,5,0,0:0:0:0:
427,314,88853,5,0,0:0:0:0:
396,336,88946,1,0,0:0:0:0:
363,352,89040,1,0,0:0:0:0:
327,362,89134,1,0,0:0:0:0:
289,365,89228,5,0,0:0:0:0:
252,361,89321,1,0,0:0:0:0:
216,350,89415,1,2,0:0:0:0:
183,332,89509,1,0,0:0:0:0:
154,309,89603,5,8,0:0:0:0:
130,280,89696,1,0,0:0:0:0:
111,248,89790,1,8,0:0:0:0:
99,213,89884,1,0,0:0:0:0:
94,175,89978,5,8,0:0:0:0:
166,75,90166,5,0,0:0:0:0:
240,43,90353,5,0,0:0:0:0:
270,20,90446,1,0,0:0:0:0:
305,6,90540,1,0,0:0:0:0:
342,2,90634,1,0,0:0:0:0:
379,7,90728,5,0,0:0:0:0:
414,22,90821,1,0,0:0:0:0:
443,46,90915,1,0,0:0:0:0:
465,76,91009,1,0,0:0:0:0:
479,111,91103,5,0,0:0:0:0:
483,148,91196,1,0,0:0:0:0:
477,185,91290,1,0,0:0:0:0:
462,219,91384,1,0,0:0:0:0:
438,248,91478,5,0,0:0:0:0:
408,270,91571,1,0,0:0:0:0:
372,283,91665,1,2,0:0:0:0:
334,283,91759,2,0,L|336:239,1,37.5
281,279,91947,2,0,L|283:318,1,37.5
122,255,92228,5,0,0:0:0:0:
126,159,92416,5,0,0:0:0:0:
142,125,92509,1,0,0:0:0:0:
166,97,92603,1,0,0:0:0:0:
197,76,92697,1,0,0:0:0:0:
233,63,92791,5,0,0:0:0:0:
286,58,92884,2,0,L|288:102,1,37.5
344,54,93072,1,0,0:0:0:0:
379,65,93165,1,0,0:0:0:0:
411,84,93259,1,0,0:0:0:0:
437,111,93353,1,0,0:0:0:0:
456,144,93447,1,0,0:0:0:0:
465,180,93540,1,0,0:0:0:0:
468,242,93634,6,0,L|514:240,1,37.5
458,302,93822,1,0,0:0:0:0:
442,336,93916,1,0,0:0:0:0:
408,353,94009,1,0,0:0:0:0:
373,364,94103,5,0,0:0:0:0:
335,366,94197,1,0,0:0:0:0:
298,361,94291,1,0,0:0:0:0:
245,348,94384,2,0,L|242:303,1,37.5
184,328,94572,1,0,0:0:0:0:
151,307,94665,1,0,0:0:0:0:
130,277,94759,1,0,0:0:0:0:
122,241,94853,1,0,0:0:0:0:
130,205,94947,1,0,0:0:0:0:
152,174,95040,1,0,0:0:0:0:
199,151,95134,2,0,L|199:102,1,37.5
254,164,95322,1,0,0:0:0:0:
316,238,95416,5,0,0:0:0:0:
438,58,96166,6,0,P|394:60|354:77,1,75
270,130,96916,1,0,0:0:0:0:
270,130,97666,6,0,P|314:132|354:149,1,75
438,202,98416,1,0,0:0:0:0:
438,202,99166,6,0,P|394:204|354:221,1,75
270,274,99822,5,0,0:0:0:0:
256,287,99916,1,0,0:0:0:0:
163,63,100291,5,0,0:0:0:0:
137,152,100478,6,0,L|109:151,1,18.75
224,154,100666,1,0,0:0:0:0:
224,154,100853,5,0,0:0:0:0:
198,243,101040,2,0,L|148:244,1,37.5
285,245,101416,1,0,0:0:0:0:
101,97,102166,6,0,P|108:116|101:99,1,150
323,96,103666,1,0,0:0:0:0:
436,157,104041,6,0,P|392:159|352:176,1,75
268,229,104791,1,0,0:0:0:0:
187,310,105166,1,0,0:0:0:0:
55,77,105916,6,0,L|55:158,1,75
119,144,106666,2,0,L|121:61,1,75
306,69,107322,2,0,L|294:72,2,9.375
435,218,107791,1,0,0:0:0:0:
345,301,108166,2,0,L|227:315,1,112.5
206,318,108541,1,0,0:0:0:0:
123,326,108728,6,0,L|106:251,1,75
184,318,109103,2,0,L|163:240,1,75
242,311,109478,2,0,L|221:233,1,75
302,302,109853,2,0,L|281:222,1,75
360,299,110228,1,0,0:0:0:0:
256,192,110416,12,0,115478,0:0:0:0:
