osu file format v14

[General]
AudioFilename: audio.mp3
AudioLeadIn: 0
PreviewTime: 49666
Countdown: 0
SampleSet: Normal
StackLeniency: 0.7
Mode: 0
LetterboxInBreaks: 0
WidescreenStoryboard: 1

[Editor]
Bookmarks: 60935,86435,92248,110436,113436,115478
DistanceSpacing: 0.8
BeatDivisor: 4
GridSize: 8
TimelineZoom: 1

[Metadata]
Title:Lune
TitleUnicode:Lune
Artist:M2U & Nicode
ArtistUnicode:M2U & Nicode
Creator:Helen0903
Version:Hard
Source:Deemo
Tags:rsi m2u nicode jumpstreams jumps spacing
BeatmapID:1265166
BeatmapSetID:598409

[Difficulty]
HPDrainRate:6
CircleSize:4.5
OverallDifficulty:6
ApproachRate:6
SliderMultiplier:1.5
SliderTickRate:1

[Events]
//Background and Video events
0,0,"Konachan.com - 202447 sample.jpg",0,0
//Break Periods
2,64491,69616
//Storyboard Layer 0 (Background)
//Storyboard Layer 1 (Fail)
//Storyboard Layer 2 (Pass)
//Storyboard Layer 3 (Foreground)
//Storyboard Sound Samples

[TimingPoints]
166,375,4,1,0,35,1,0
166,-142.857142857143,4,1,0,35,0,0
21187,-100,4,1,0,40,0,0
28687,-66.6666666666667,4,1,0,40,0,0
28780,-100,4,1,0,40,0,0
31312,-100,4,1,0,50,0,0
31687,-100,4,1,0,40,0,0
32062,-100,4,1,0,30,0,0
32437,-100,4,1,0,20,0,0
32812,-100,4,1,0,25,0,0
33187,-100,4,1,0,25,0,0
34311,-66.6666666666667,4,1,0,10,0,0
34312,-100,4,1,0,20,0,0
34687,-100,4,1,0,20,0,0
39562,-100,4,1,0,30,0,0
41062,-100,4,1,0,35,0,0
43030,-100,4,1,0,40,0,0
43499,-100,4,1,0,50,0,1
49687,-100,4,1,0,30,0,0
56062,-100,4,1,0,40,0,0
60187,-100,4,1,0,45,0,0
62062,-100,4,1,0,30,0,0
62416,-100,4,1,0,79,0,0
62604,-100,4,1,0,25,0,0
62624,-100,4,1,0,25,0,0
63166,-100,4,1,0,79,0,0
63374,-100,4,1,0,15,0,0
64312,-100,4,1,0,10,0,0
64687,-133.333333333333,4,1,0,20,0,0
71437,-200,4,1,0,20,0,0
72187,-105.263157894737,4,1,0,20,0,0
74062,-105.263157894737,4,1,0,25,0,0
74437,-105.263157894737,4,1,0,30,0,0
74812,-105.263157894737,4,1,0,35,0,0
75187,-105.263157894737,4,1,0,40,0,1
81187,-153.846153846154,4,1,0,30,0,0
82124,-66.6666666666667,4,1,0,30,0,0
82312,-37,4,1,0,30,0,0
82687,-153.846153846154,4,1,0,30,0,0
83624,-66.6666666666667,4,1,0,30,0,0
83812,-37,4,1,0,30,0,0
84187,-153.846153846154,4,1,0,30,0,0
86061,-100,4,1,0,35,0,0
86061,-100,4,1,0,35,0,0
93561,-100,4,1,0,45,0,0
95436,-100,4,1,0,35,0,0
96166,-200,4,1,0,10,0,0
107416,375,4,1,0,10,1,0
109311,-100,4,1,0,5,0,0

[Colours]
Combo1 : 255,192,0
Combo2 : 255,255,255
Combo3 : 255,255,128
Combo4 : 255,255,0

[HitObjects]
132,103,166,5,0,0:0:0:0:
256,105,916,1,0,0:0:0:0:
357,195,1666,1,0,0:0:0:0:
306,303,2416,2,0,L|186:298,1,104.999996795654
113,237,3166,1,0,0:0:0:0:
145,69,3916,6,0,L|256:80,1,104.999996795654
368,101,4572,2,0,L|378:138,1,26.2499991989136
431,269,5041,1,0,0:0:0:0:
433,313,5228,2,0,L|391:329,2,26.2499991989136
474,314,5603,1,0,0:0:0:0:
477,358,5791,2,0,L|357:357,1,104.999996795654
167,293,6916,5,0,0:0:0:0:
284,111,7666,1,0,0:0:0:0:
445,264,8416,1,0,0:0:0:0:
438,166,8791,1,0,0:0:0:0:
448,344,9166,1,0,0:0:0:0:
251,202,9916,6,0,L|183:205,1,52.4999983978272
141,209,10291,1,0,0:0:0:0:
57,103,10666,2,0,L|168:60,1,104.999996795654
326,87,11416,1,0,0:0:0:0:
392,208,11791,1,0,0:0:0:0:
256,192,12166,12,0,14416,0:0:0:0:
143,107,14791,6,0,L|250:99,1,104.999996795654
468,194,15916,1,0,0:0:0:0:
386,251,16291,1,0,0:0:0:0:
288,189,16666,1,0,0:0:0:0:
117,69,17416,1,0,0:0:0:0:
66,295,18166,6,0,B|180:264|180:264|249:308|249:308|285:275|285:275|288:317|288:318|350:261|350:261|348:320|348:321|428:212|428:212|432:323|432:323|514:173,1,787.499975967408
485,106,21166,1,0,0:0:0:0:
300,64,21728,6,0,L|223:68,1,75
306,104,22103,2,0,L|230:107,1,75
312,139,22478,2,0,L|229:146,2,75
357,134,23041,1,0,0:0:0:0:
401,129,23228,2,0,L|423:209,1,75
450,121,23603,2,0,L|475:202,1,75
303,276,24166,5,0,0:0:0:0:
431,273,24541,2,0,L|395:182,1,75
487,268,24916,2,0,L|460:193,1,75
454,151,25291,2,0,L|380:165,1,75
445,102,25666,2,0,L|366:113,1,75
316,117,26041,2,0,L|334:193,1,75
267,120,26416,2,0,L|286:197,1,75
297,237,26791,5,0,0:0:0:0:
332,253,26978,1,0,0:0:0:0:
371,273,27166,1,0,0:0:0:0:
478,155,27541,2,0,L|30:63,1,450
52,145,28853,6,0,L|-8:144,2,37.5
83,147,29228,2,0,L|123:145,2,37.5
66,176,29603,2,0,L|65:218,2,37.5
64,132,29978,2,0,L|67:91,2,37.5
207,225,30353,5,0,0:0:0:0:
294,172,30541,1,0,0:0:0:0:
156,139,30728,1,0,0:0:0:0:
249,82,30916,1,0,0:0:0:0:
203,117,31103,5,0,0:0:0:0:
203,117,31291,1,0,0:0:0:0:
202,115,31478,2,0,L|265:188,1,75
188,155,32791,5,0,0:0:0:0:
301,164,33166,2,0,L|229:237,2,75,2|8|8,0:0|0:0|0:0,0:0:0:0:
385,89,33916,1,0,0:0:0:0:
470,158,34291,2,0,L|466:263,1,75,0|4,0:0|0:0,0:0:0:0:
468,300,34666,1,0,0:0:0:0:
321,323,35041,5,0,0:0:0:0:
314,277,35322,2,0,L|272:277,1,37.5
313,202,35791,2,0,L|319:121,1,75
371,131,36166,2,0,L|364:213,1,75
364,311,36541,1,0,0:0:0:0:
287,335,36728,1,0,0:0:0:0:
215,312,36916,1,0,0:0:0:0:
86,209,37291,6,0,L|206:115,1,150
257,93,37853,1,0,0:0:0:0:
321,143,38041,1,0,0:0:0:0:
374,88,38228,1,0,0:0:0:0:
447,89,38416,2,0,L|447:183,1,75
449,204,38791,2,0,L|355:208,1,75
372,153,39166,1,0,0:0:0:0:
120,86,39541,6,0,L|115:129,2,37.5
187,85,39916,6,0,L|188:127,2,37.5
232,38,40291,1,0,0:0:0:0:
277,88,40478,2,0,L|356:81,1,75
403,83,40853,1,0,0:0:0:0:
463,142,41041,1,0,0:0:0:0:
406,215,41228,1,0,0:0:0:0:
461,298,41416,2,0,L|280:310,1,150
256,192,42166,12,0,43666,0:0:0:0:
135,53,44416,6,0,L|214:53,1,75
222,97,44791,2,0,L|303:99,1,75
412,146,45166,1,0,0:0:0:0:
417,239,45353,2,0,L|342:251,2,75
485,163,45916,1,0,0:0:0:0:
151,106,46666,5,0,0:0:0:0:
255,111,47041,2,0,L|252:202,1,75
352,118,47416,2,0,L|348:37,1,75
445,117,47791,2,0,L|459:195,1,75
485,274,48166,2,0,L|317:295,1,150
168,247,48916,5,0,0:0:0:0:
178,173,49103,1,0,0:0:0:0:
241,228,49291,1,0,0:0:0:0:
256,192,49666,12,0,51166,0:0:0:0:
75,122,52666,6,0,P|381:62|510:289,1,600
76,192,54916,5,0,0:0:0:0:
160,145,55291,1,0,0:0:0:0:
241,280,55666,1,0,0:0:0:0:
286,284,55853,2,0,B|308:268|308:268|285:259|285:259|311:251|311:251|283:241|283:241|314:236|314:236|283:231|283:231|313:222|313:222|286:216|286:216|317:209|317:209|290:201|290:201|317:190|317:190|295:182|295:182|316:178|316:178|297:170|297:170|317:163|317:163|302:153|302:153|319:150|319:150|301:142|301:142|319:134|319:134|300:121|300:121|315:116|315:116|315:98|315:98,2,525
282,321,58666,2,0,B|298:343|298:343|307:319|307:319|315:346|315:346|325:318|325:318|330:348|330:348|335:318|335:318|344:348|344:348|350:320|350:320|357:352|357:352|365:325|365:325|376:351|376:351|384:330|384:330|388:351|388:351|396:332|396:332|403:352|403:352|413:337|413:337|415:354|415:354|423:336|423:336|432:354|432:354|445:335|445:335|450:350|450:350|468:349|468:349,2,525
80,266,61666,5,0,0:0:0:0:
235,80,62416,1,0,0:0:0:0:
378,220,63166,1,0,0:0:0:0:
257,298,63916,2,0,L|251:137,1,150
94,122,70666,6,0,L|215:116,1,112.500004291535
353,110,71416,1,0,0:0:0:0:
448,124,71791,2,0,L|457:209,1,75
359,317,72541,1,0,0:0:0:0:
293,279,72728,1,0,0:0:0:0:
234,316,72916,1,0,0:0:0:0:
106,199,73291,5,0,0:0:0:0:
256,192,73666,12,0,75166,0:0:0:0:
146,84,75541,6,0,L|146:177,1,71.2499980974198
207,84,75916,2,0,L|206:162,1,71.2499980974198
263,84,76291,2,0,L|264:164,1,71.2499980974198
313,152,76666,2,0,L|312:81,2,71.2499980974198
316,214,77228,1,0,0:0:0:0:
317,272,77416,1,0,0:0:0:0:
415,340,78166,5,0,0:0:0:0:
282,340,78541,2,0,L|282:268,1,71.2499980974198
216,339,78916,2,0,L|214:267,1,71.2499980974198
149,337,79291,2,0,L|149:265,1,71.2499980974198
83,269,79666,2,0,L|82:340,2,71.2499980974198
83,207,80228,1,0,0:0:0:0:
86,142,80416,1,0,0:0:0:0:
253,56,81166,5,0,0:0:0:0:
316,88,81353,2,0,L|285:122,4,24.3749988842011
385,152,81916,2,0,L|435:184,1,48.7499977684022
317,189,82291,1,0,0:0:0:0:
271,238,82478,1,0,0:0:0:0:
322,284,82666,5,0,0:0:0:0:
271,238,82853,2,0,L|242:217,4,24.3749988842011
337,196,83416,2,0,L|379:148,1,48.7499977684022
267,159,83791,1,0,0:0:0:0:
222,106,83978,1,0,0:0:0:0:
256,192,84166,12,0,86416,0:0:0:0:
126,138,86791,5,0,0:0:0:0:
277,153,87166,2,0,L|192:288,1,150
97,289,87916,1,0,0:0:0:0:
146,239,88103,1,0,0:0:0:0:
91,202,88291,1,0,0:0:0:0:
141,159,88478,1,0,0:0:0:0:
85,120,88666,1,0,0:0:0:0:
272,111,89041,6,0,L|424:9,1,150
470,78,89603,1,0,0:0:0:0:
428,129,89791,1,0,0:0:0:0:
479,176,89978,1,0,0:0:0:0:
426,229,90166,1,0,0:0:0:0:
139,179,90541,6,0,L|140:265,1,75
194,180,90916,2,0,L|195:265,1,75
247,182,91291,2,0,L|246:263,1,75
301,184,91666,1,0,0:0:0:0:
359,240,91853,1,0,0:0:0:0:
423,183,92041,1,0,0:0:0:0:
290,291,92228,1,0,0:0:0:0:
63,126,92416,6,0,L|232:60,1,150
251,128,93166,6,0,L|178:202,1,75
303,171,93541,2,0,L|365:120,1,75
404,244,93916,5,0,0:0:0:0:
330,250,94103,1,0,0:0:0:0:
305,318,94291,1,0,0:0:0:0:
226,299,94478,1,0,0:0:0:0:
176,353,94666,5,0,0:0:0:0:
105,315,94853,1,0,0:0:0:0:
59,369,95041,1,0,0:0:0:0:
19,266,95228,1,0,0:0:0:0:
103,144,95416,5,0,0:0:0:0:
249,98,96166,2,0,P|335:116|388:165,1,150
448,271,97291,1,0,0:0:0:0:
358,355,97666,2,0,L|275:353,1,75
210,295,98416,2,0,L|189:302,1,18.75
305,251,98791,1,0,0:0:0:0:
323,81,99166,5,0,0:0:0:0:
413,186,99541,1,0,0:0:0:0:
323,251,99916,2,0,L|299:251,1,18.75
453,326,100291,1,0,0:0:0:0:
477,250,100478,2,0,L|475:211,1,37.5
451,144,100853,1,0,0:0:0:0:
375,85,101041,5,0,0:0:0:0:
241,29,101228,1,0,0:0:0:0:
108,97,101416,2,0,L|69:177,1,75
35,325,102166,1,0,0:0:0:0:
208,362,102916,1,0,0:0:0:0:
312,342,103666,2,0,L|385:299,1,75
439,227,104416,1,0,0:0:0:0:
398,58,105166,5,0,0:0:0:0:
236,88,105916,1,0,0:0:0:0:
184,125,106291,1,0,0:0:0:0:
239,164,106666,1,0,0:0:0:0:
313,234,107041,2,0,L|230:252,1,75
354,283,107791,1,0,0:0:0:0:
410,321,108166,6,0,L|411:228,1,75
470,255,108541,2,0,L|466:334,2,75
472,196,109103,1,0,0:0:0:0:
464,135,109291,2,0,L|385:145,1,75
414,85,109666,1,0,0:0:0:0:
358,94,109853,2,0,L|329:-2,1,75
406,35,110228,1,0,0:0:0:0:
256,192,110603,12,0,115478,0:0:0:0:
