osu file format v14

[General]
AudioFilename: Myosotis.mp3
AudioLeadIn: 0
PreviewTime: 43429
Countdown: 1
SampleSet: Soft
StackLeniency: 0.7
Mode: 0
LetterboxInBreaks: 1
WidescreenStoryboard: 1

[Editor]
Bookmarks: 78015,94898,118523
DistanceSpacing: 0.8
BeatDivisor: 4
GridSize: 4
TimelineZoom: 1.899999

[Metadata]
Title:Myosotis
TitleUnicode:Myosotis
Artist:M2U & NICODE feat.Guriri & Lucy
ArtistUnicode:M2U & NICODE feat.Guriri & Lucy
Creator:Xilver
Version:Expert
Source:Deemo
Tags:kaoru is a lazy man
BeatmapID:729038
BeatmapSetID:328723

[Difficulty]
HPDrainRate:7
CircleSize:4.5
OverallDifficulty:8
ApproachRate:9.3
SliderMultiplier:1.8
SliderTickRate:1

[Events]
//Background and Video events
0,0,"bg.jpg",0,0
//Break Periods
//Storyboard Layer 0 (Background)
//Storyboard Layer 1 (Fail)
//Storyboard Layer 2 (Pass)
//Storyboard Layer 3 (Foreground)
//Storyboard Sound Samples

[TimingPoints]
1523.34430744471,375,4,1,0,100,1,0
13523,-133.333333333333,4,2,1,40,0,0
17273,-100,4,2,1,40,0,0
19523,-100,4,2,1,40,0,0
30023,-133.333333333333,4,2,1,40,0,0
33023,-100,4,2,1,40,0,0
44273,-133.333333333333,4,2,1,40,0,0
45773,-100,4,2,1,40,0,0
50273,-133.333333333333,4,2,1,40,0,0
51398,-100,4,2,1,40,0,0
54773,-83.3333333333333,4,2,1,40,0,0
55523,-100,4,2,1,40,0,0
56273,-133.333333333333,4,2,1,40,0,0
57023,-100,4,2,1,40,0,0
62273,-133.333333333333,4,2,1,40,0,0
63023,-100,4,2,1,40,0,0
71648,-133.333333333333,4,2,1,40,0,0
72023,-100,4,2,1,40,0,0
75023,-200,4,2,1,40,0,0
78773,-83.3333333333333,4,2,1,40,0,1
84023,-100,4,2,1,40,0,1
84304,-83.3333333333333,4,2,1,40,0,1
87023,-100,4,2,1,40,0,1
87679,-83.3333333333333,4,2,1,40,0,1
90023,-100,4,2,1,40,0,1
90398,-83.3333333333333,4,2,1,40,0,1
96023,-100,4,2,1,40,0,1
96304,-83.3333333333333,4,2,1,40,0,1
101273,-133.333333333333,4,2,1,40,0,1
102023,-100,4,2,1,40,0,0
117023,-133.333333333333,4,2,1,40,0,0
118523,-100,4,2,1,40,0,0

[HitObjects]
436,332,13523,6,0,B|340:328|340:328|288:236|288:236|176:260|136:136,1,405.000015449525
251,291,15023,5,0,0:0:0:0:
256,124,15210,1,0,0:0:0:0:
337,210,15398,1,0,0:3:0:0:
170,205,15585,1,0,0:3:0:0:
367,130,15773,1,0,0:0:0:0:
251,292,15960,1,0,0:0:0:0:
146,126,16148,1,0,0:0:0:0:
296,48,16523,5,0,0:0:0:0:
76,88,16710,1,0,0:0:0:0:
80,120,16804,1,0,0:0:0:0:
84,152,16898,1,0,0:0:0:0:
88,184,16992,1,0,0:0:0:0:
92,216,17085,1,0,0:0:0:0:
100,248,17179,1,0,0:0:0:0:
104,284,17273,6,0,L|112:344,3,45
200,196,17648,2,0,L|208:252,3,45
296,308,18023,5,0,0:0:0:0:
293,263,18116,1,0,0:0:0:0:
313,223,18210,1,0,0:0:0:0:
349,198,18304,1,0,0:0:0:0:
368,160,18398,5,0,0:0:0:0:
329,137,18491,1,0,0:0:0:0:
302,101,18585,1,0,0:0:0:0:
291,58,18679,1,0,0:0:0:0:
260,40,18773,6,0,L|212:16,5,30
156,112,19148,1,0,0:0:0:0:
152,124,19210,1,0,0:0:0:0:
148,136,19273,1,0,0:0:0:0:
144,148,19335,1,0,0:0:0:0:
140,160,19398,1,0,0:0:0:0:
136,172,19460,1,0,0:0:0:0:
132,184,19523,6,0,B|112:216|112:216|128:264|88:288|88:288|88:352,1,180,8|0,0:0|0:0,0:0:0:0:
252,164,20085,1,0,0:0:0:0:
384,344,20273,2,0,B|388:296|376:256|376:256|404:216|400:164,1,180,4|0,0:0|0:0,0:0:0:0:
280,40,20835,1,0,0:0:0:0:
260,264,21023,6,0,P|204:232|184:168,1,135,8|0,0:0|0:0,0:0:0:0:
164,180,21398,2,0,L|76:88,1,90
196,52,21648,1,0,0:0:0:0:
216,52,21710,1,0,0:0:0:0:
236,52,21773,2,0,B|264:56|264:56|292:48|292:48|348:48,1,90,4|0,0:0|0:0,0:0:0:0:
480,200,22148,2,0,B|452:204|452:204|424:196|424:196|391:196,1,90
408,52,22523,5,8,0:0:0:0:
255,228,22710,1,0,0:0:0:0:
227,213,22804,1,0,0:0:0:0:
220,183,22898,1,0,0:0:0:0:
241,158,22992,1,0,0:0:0:0:
272,159,23085,1,0,0:0:0:0:
291,184,23179,1,0,0:0:0:0:
283,215,23273,1,4,0:0:0:0:
220,76,23460,1,0,0:0:0:0:
288,316,23648,1,0,0:0:0:0:
258,71,23835,1,0,0:3:0:0:
88,328,24023,6,0,B|100:284|88:244|88:244|112:196|104:132,1,180,8|0,0:0|0:0,0:0:0:0:
244,40,24585,1,0,0:0:0:0:
312,240,24773,2,0,P|356:264|420:268,1,90,4|0,0:0|0:0,0:0:0:0:
336,88,25054,1,0,0:0:0:0:
336,88,25148,2,0,P|320:60|320:20,1,45
464,128,25335,2,0,P|480:156|480:196,1,45
184,312,25523,6,0,B|192:260|192:260|152:224|172:184|172:184|172:112,1,180,8|0,0:0|0:0,0:0:0:0:
328,56,26085,1,0,0:0:0:0:
448,234,26273,2,0,P|454:279|452:324,1,90,4|0,0:0|0:0,0:0:0:0:
79,183,26648,2,0,P|77:138|83:94,1,90
160,272,27023,1,0,0:0:0:0:
192,96,27210,1,0,0:0:0:0:
276,256,27398,2,0,L|276:156,1,90
328,112,27648,1,0,0:0:0:0:
364,112,27710,1,0,0:0:0:0:
400,112,27773,2,0,P|444:92|476:44,1,90,4|0,0:0|0:0,0:0:0:0:
112,112,28148,2,0,P|68:92|36:44,1,90
256,332,28523,5,8,0:0:0:0:
256,116,28710,1,0,0:0:0:0:
286,130,28804,1,0,0:0:0:0:
294,163,28898,1,0,0:0:0:0:
273,189,28992,1,0,0:0:0:0:
239,189,29085,1,0,0:0:0:0:
218,163,29179,1,0,0:0:0:0:
225,130,29273,1,4,0:0:0:0:
348,320,29460,5,0,0:0:0:0:
304,307,29553,1,0,0:0:0:0:
261,312,29647,1,0,0:0:0:0:
216,318,29741,1,0,0:0:0:0:
171,317,29835,1,0,0:0:0:0:
127,309,29928,1,0,0:0:0:0:
88,308,30023,6,0,B|76:244|76:244|124:180|124:180|72:124|88:36,1,270.000010299683
256,192,30867,12,0,32648,0:0:0:0:
468,112,33023,6,0,P|444:156|440:200,1,90
360,120,33398,2,0,P|336:76|332:32,1,90
268,164,33773,1,0,0:0:0:0:
228,80,33960,1,0,0:0:0:0:
168,156,34148,1,0,0:0:0:0:
128,72,34335,1,0,0:0:0:0:
64,144,34523,2,0,B|76:200|76:200|60:252|60:252|72:276|60:328,1,180
228,144,35085,1,0,0:0:0:0:
396,300,35273,2,0,P|408:252|440:220,1,90
352,136,35648,2,0,P|324:92|336:20,1,90
120,160,36023,6,0,L|84:367,1,180
232,88,36585,1,0,0:0:0:0:
380,192,36773,2,0,P|404:240|456:272,1,90
256,304,37148,1,0,0:0:0:0:
188,136,37335,1,0,0:0:0:0:
64,224,37523,2,0,L|172:224,1,90
436,264,37898,2,0,B|396:260|396:260|364:272|328:264,1,90
324,268,38148,1,0,0:0:0:0:
300,268,38210,1,0,0:0:0:0:
276,268,38273,6,0,P|228:270|172:304,1,90
356,88,38648,2,0,P|403:85|460:52,1,90
108,124,39023,6,0,P|76:92|68:28,1,90
280,244,39398,2,0,L|304:360,1,90
136,200,39773,1,0,0:0:0:0:
232,64,39960,1,0,0:0:0:0:
352,144,40148,2,0,B|384:144|384:144|420:132|420:132|452:132,1,90
136,240,40523,6,0,B|100:236|100:236|76:248|48:236|48:236|16:248,1,90
220,320,40898,2,0,B|241:318|264:324|264:324|292:318|328:320,1,90
480,220,41273,2,0,B|428:212|428:212|388:224|388:224|336:204|284:220,1,180
256,72,41835,1,0,0:0:0:0:
344,312,42023,6,0,P|388:320|452:308,1,90
168,312,42398,2,0,P|124:320|60:308,1,90
324,232,42773,1,0,0:0:0:0:
160,117,42960,1,0,0:0:0:0:
200,233,43148,1,0,0:0:0:0:
359,113,43335,1,0,0:0:0:0:
256,308,43523,6,0,L|256:276,14,22.5,8|0|0|0|0|0|0|0|0|0|0|0|0|0|0,0:0|0:0|0:0|0:0|0:0|0:0|0:0|0:0|0:0|0:0|0:0|0:0|0:0|0:0|0:0,0:0:0:0:
256,240,44273,2,0,B|237:204|261:152|261:152|245:104|245:104|256:44,1,202.500007724762,4|0,0:0|0:0,0:0:0:0:
416,80,45023,1,8,0:0:0:0:
336,244,45210,1,0,0:0:0:0:
96,80,45398,1,0,0:0:0:0:
176,244,45585,1,0,0:0:0:0:
256,124,45773,2,0,L|256:28,1,90,4|0,0:0|0:0,0:0:0:0:
212,336,46148,2,0,P|256:344|320:328,1,90
256,220,46523,5,8,0:0:0:0:
156,98,46710,1,0,3:3:0:0:
115,273,46898,1,0,3:3:0:0:
260,96,47085,1,0,3:3:0:0:
368,272,47273,2,0,P|412:292|464:292,1,90,4|0,0:0|0:0,0:0:0:0:
132,112,47648,2,0,L|32:112,1,90
260,296,48023,5,8,0:0:0:0:
424,168,48210,1,0,0:0:0:0:
379,161,48303,1,0,0:0:0:0:
340,139,48397,1,0,0:0:0:0:
311,105,48491,1,0,0:0:0:0:
296,63,48585,1,0,0:0:0:0:
64,160,48773,5,0,0:0:0:0:
71,204,48866,1,0,0:0:0:0:
79,248,48960,1,0,0:0:0:0:
86,293,49054,1,0,0:0:0:0:
94,337,49148,1,0,0:0:0:0:
208,156,49335,1,0,0:0:0:0:
256,332,49523,6,0,L|256:364,14,22.5,8|0|0|0|0|0|0|0|0|0|0|0|0|0|0,0:0|0:0|0:0|0:0|0:0|0:0|0:0|0:0|0:0|0:0|0:0|0:0|0:0|0:0|0:0,0:0:0:0:
256,284,50273,2,4,B|248:228|272:192|272:192|248:144|256:80,1,202.500007724762,4|0,0:0|0:0,0:0:0:0:
408,228,51023,5,8,0:0:0:0:
256,32,51210,1,0,0:0:0:0:
136,228,51398,2,0,P|92:252|28:256,1,90
356,132,51773,2,0,L|460:132,1,90,4|0,0:0|0:0,0:0:0:0:
244,268,52148,1,0,0:0:0:0:
192,76,52335,1,0,0:0:0:0:
352,292,52523,2,0,P|400:300|460:284,1,90
120,100,52898,2,0,P|72:92|12:108,1,90
376,124,53273,2,0,B|392:92|392:92|416:68|416:68|432:36,1,90,4|0,0:0|0:0,0:0:0:0:
136,248,53648,2,0,B|120:280|120:280|96:304|96:304|80:336,1,90,4|0,0:0|0:0,0:0:0:0:
320,235,54023,5,8,0:0:0:0:
279,44,54210,1,0,0:0:0:0:
230,208,54398,5,8,0:3:0:0:
368,70,54585,1,0,0:3:0:0:
168,320,54773,6,0,P|148:296|140:252,1,53.9999983520508,4|0,0:0|0:0,0:0:0:0:
52,184,54960,1,8,0:0:0:0:
52,184,55054,1,8,0:0:0:0:
52,184,55148,1,4,0:0:0:0:
176,56,55335,1,0,0:0:0:0:
256,280,55523,6,0,L|256:308,14,22.5,8|0|0|0|0|0|0|0|0|0|0|0|0|0|0,0:0|0:0|0:0|0:0|0:0|0:0|0:0|0:0|0:0|0:0|0:0|0:0|0:0|0:0|0:0,0:0:0:0:
256,232,56273,2,0,B|224:148|288:148|256:24,1,202.500007724762,4|0,0:0|0:0,0:0:0:0:
352,264,57023,6,0,P|348:220|360:168,1,90,8|0,0:0|0:0,0:0:0:0:
160,120,57398,6,0,P|164:164|152:216,1,90,8|0,0:0|0:0,0:0:0:0:
368,274,57773,6,0,P|364:225|377:168,1,90,8|0,0:0|0:0,0:0:0:0:
144,110,58148,6,0,P|148:159|135:216,1,90,8|0,0:0|0:0,0:0:0:0:
300,340,58523,5,8,0:0:0:0:
296,142,58710,1,0,0:0:0:0:
215,229,58898,1,0,0:0:0:0:
212,44,59085,1,0,0:0:0:0:
360,240,59273,2,0,B|392:240|392:240|420:252|420:252|460:252,1,90,4|0,0:0|0:0,0:0:0:0:
152,144,59648,2,0,B|120:144|120:144|92:132|92:132|64:132,1,90
256,312,60023,5,8,0:0:0:0:
256,68,60210,1,0,0:0:0:0:
292,93,60304,1,0,0:0:0:0:
279,135,60398,1,0,0:0:0:0:
235,136,60492,1,0,0:0:0:0:
220,94,60585,1,0,0:0:0:0:
144,316,60773,5,4,0:0:0:0:
104,295,60866,1,0,0:0:0:0:
76,260,60960,1,0,0:0:0:0:
65,217,61054,1,0,0:0:0:0:
73,173,61148,1,0,0:0:0:0:
256,68,61335,1,0,0:0:0:0:
356,304,61523,6,0,L|372:320,14,22.5,8|0|0|0|0|0|0|0|0|0|0|0|0|0|0,0:0|0:0|0:0|0:0|0:0|0:0|0:0|0:0|0:0|0:0|0:0|0:0|0:0|0:0|0:0,0:0:0:0:
360,264,62273,2,0,B|352:204|408:164|408:164|340:80,1,202.500007724762,4|0,0:0|0:0,0:0:0:0:
84,220,63023,2,0,P|60:260|60:316,1,90,8|0,0:0|0:0,0:0:0:0:
216,132,63398,2,0,P|240:92|240:36,1,90
188,284,63773,1,4,0:0:0:0:
104,92,63960,1,0,0:0:0:0:
300,240,64148,2,0,B|344:260|396:256,1,90
128,60,64523,6,0,P|76:52|24:60,1,90,8|0,0:0|0:0,0:0:0:0:
356,116,64898,2,0,B|376:88|376:88|396:80|396:80|428:40,1,90
156,268,65273,2,0,B|136:296|136:296|116:304|116:304|94:330,1,90
252,212,65648,1,0,0:0:0:0:
228,56,65835,1,0,0:0:0:0:
328,300,66023,6,0,P|372:312|440:300,1,90,8|0,0:0|0:0,0:0:0:0:
184,300,66398,2,0,P|140:312|72:300,1,90,8|0,0:0|0:0,0:0:0:0:
415,75,66773,2,0,P|371:72|328:83,1,90,8|0,0:0|0:0,0:0:0:0:
96,75,67148,2,0,P|140:72|183:83,1,90,8|0,0:0|0:0,0:0:0:0:
280,248,67523,6,0,P|256:292|212:328,1,90,8|0,0:0|0:0,0:0:0:0:
408,244,67898,2,0,P|428:204|460:173,1,90,8|0,0:0|0:0,0:0:0:0:
265,248,68273,2,0,P|235:303|180:348,1,90,8|0,0:0|0:0,0:0:0:0:
424,243,68648,2,0,P|450:195|489:156,1,90,8|0,0:0|0:0,0:0:0:0:
256,115,69023,5,8,0:0:0:0:
256,268,69210,1,8,0:0:0:0:
371,188,69398,1,8,0:0:0:0:
140,188,69585,1,8,0:0:0:0:
387,280,69773,5,8,0:0:0:0:
294,64,69960,1,8,0:0:0:0:
191,307,70148,1,8,0:0:0:0:
425,169,70335,1,8,0:0:0:0:
104,340,70523,5,8,0:0:0:0:
104,317,70616,1,8,0:0:0:0:
104,294,70710,1,8,0:0:0:0:
104,272,70804,1,8,0:0:0:0:
104,248,70898,5,8,0:0:0:0:
146,232,70991,1,8,0:0:0:0:
176,199,71085,1,8,0:0:0:0:
185,155,71179,1,8,0:0:0:0:
164,112,71273,5,8,0:0:0:0:
213,92,71366,1,8,0:0:0:0:
262,72,71460,1,8,0:0:0:0:
311,52,71554,1,8,0:0:0:0:
360,28,71648,2,0,P|388:72|440:92,1,101.250003862381,4|0,0:0|0:0,0:0:0:0:
424,140,72023,6,0,B|440:192|440:192|420:240|420:240|440:276|424:324,1,180,8|0,0:0|0:0,0:0:0:0:
260,128,72585,1,0,0:0:0:0:
156,238,72773,2,0,L|156:328,1,90,4|0,0:0|0:0,0:0:0:0:
88,112,73148,2,0,P|48:72|44:8,1,90
356,238,73523,2,0,L|356:328,1,90,8|0,0:0|0:0,0:0:0:0:
424,112,73898,2,0,P|464:72|468:8,1,90
256,224,74273,2,0,L|256:328,1,90,4|0,0:0|0:0,0:0:0:0:
300,40,74648,2,0,P|252:36|188:48,1,90
24,304,75023,2,0,B|52:328|92:288|92:288|168:344|240:292|240:292|288:336|316:308,1,315
392,244,76523,2,0,P|360:128|448:212,1,315
395,183,78023,6,0,P|323:159|287:83,1,157.5
208,140,78773,2,0,L|208:176,6,26.9999991760254
148,68,79148,2,0,P|120:48|108:8,1,53.9999983520508
292,212,79335,1,0,0:0:0:0:
336,236,79429,2,0,P|360:248|388:248,1,53.9999983520508
180,280,79617,1,0,0:0:0:0:
136,304,79711,2,0,P|112:316|84:316,1,53.9999983520508
268,72,79898,6,0,L|320:32,1,53.9999983520508
92,128,80085,1,0,0:0:0:0:
92,128,80179,1,0,0:0:0:0:
92,128,80273,2,0,P|64:112|44:72,1,53.9999983520508
332,144,80460,2,0,P|360:160|380:200,1,53.9999983520508
200,180,80648,2,0,B|196:224|196:224|172:244|184:284|184:284|152:300|160:344,1,161.999995056153
424,232,81023,6,0,B|442:171|442:171|431:144|431:144|450:89|450:89|407:113,1,161.999995056153
344,68,81398,2,0,L|328:36,6,26.9999991760254
96,104,81773,2,0,P|72:84|60:52,1,53.9999983520508
264,168,81960,2,0,P|288:188|300:220,1,53.9999983520508
200,92,82148,2,0,L|212:20,1,53.9999983520508
120,248,82335,2,0,L|112:284,4,26.9999991760254
296,308,82617,5,0,0:0:0:0:
332,312,82710,2,0,L|400:320,1,53.9999983520508
224,200,82898,2,0,L|170:193,1,53.9999983520508
396,148,83085,2,0,P|420:160|464:156,1,53.9999983520508
160,72,83273,2,0,P|136:48|132:4,1,53.9999983520508
408,232,83460,1,0,0:0:0:0:
408,232,83554,2,0,L|428:292,1,53.9999983520508
284,88,83742,1,0,0:0:0:0:
284,88,83835,2,0,P|284:52|308:16,1,53.9999983520508
192,164,84023,6,0,P|148:158|118:125,1,90
52,164,84304,6,0,B|56:200|56:200|32:232|48:296,1,107.999996704102
216,68,84585,2,0,L|240:12,1,53.9999983520508
228,288,84773,2,0,P|204:316|168:336,1,53.9999983520508
384,96,84960,2,0,L|472:96,1,53.9999983520508
376,240,85148,5,0,0:0:0:0:
324,225,85241,1,0,0:0:0:0:
288,185,85335,1,0,0:0:0:0:
278,133,85429,2,0,P|268:108|280:72,1,53.9999983520508
136,248,85617,1,0,0:0:0:0:
112,296,85710,2,0,P|80:336|44:348,1,53.9999983520508
76,92,85898,6,0,P|56:60|60:20,1,53.9999983520508
272,280,86085,1,0,0:0:0:0:
272,280,86179,1,0,0:0:0:0:
272,280,86273,2,0,L|276:356,1,53.9999983520508
196,80,86460,2,0,P|176:48|180:8,1,53.9999983520508
441,174,86648,2,0,B|400:180|400:180|348:160|348:160|320:184|288:168,1,161.999995056153
196,272,87023,6,0,B|160:296|128:296|128:296|112:332|80:356,1,135
64,196,87398,5,0,0:0:0:0:
115,181,87491,1,0,0:0:0:0:
151,141,87585,1,0,0:0:0:0:
161,89,87679,2,0,P|168:48|144:0,1,53.9999983520508
264,256,87960,2,0,B|288:280|288:280|328:272|380:312|380:312|392:252,1,161.999995056153
376,104,88335,2,0,P|400:84|444:76,1,53.9999983520508
460,188,88523,1,0,0:0:0:0:
196,200,88710,6,0,B|136:256|136:256|108:260|108:260|52:300|52:300|56:256,1,215.999993408203
360,104,89273,2,0,P|376:80|380:20,1,53.9999983520508
280,288,89460,2,0,L|280:344,1,53.9999983520508
164,128,89648,2,0,P|88:104|72:8,1,161.999995056153
88,216,90023,6,0,B|44:272|88:356,1,135
192,320,90398,2,0,P|140:276|203:252,1,161.999995056153
392,256,90773,1,0,0:0:0:0:
392,256,90867,1,0,0:0:0:0:
392,256,90960,2,0,P|408:284|408:324,1,53.9999983520508
232,192,91148,5,0,0:0:0:0:
180,177,91241,1,0,0:0:0:0:
144,137,91335,1,0,0:0:0:0:
134,85,91429,2,0,P|124:60|136:24,1,53.9999983520508
368,132,91617,1,0,0:0:0:0:
400,92,91710,2,0,P|416:68|420:8,1,53.9999983520508
292,272,91898,6,0,L|292:336,1,53.9999983520508
264,88,92085,1,0,0:0:0:0:
264,88,92179,1,0,0:0:0:0:
264,88,92273,2,0,P|244:48|248:12,1,53.9999983520508
156,288,92460,2,0,P|132:316|100:328,1,53.9999983520508
56,208,92648,2,0,B|72:164|72:164|52:116|52:116|72:80|56:32,1,161.999995056153
236,232,93023,6,0,B|260:252|260:252|280:300|328:304|328:304|372:324,1,161.999995056153
424,168,93398,1,0,0:0:0:0:
424,168,93492,1,0,0:0:0:0:
424,168,93585,2,0,P|444:136|448:100,1,53.9999983520508
232,128,93773,1,0,0:0:0:0:
178,131,93866,1,0,0:0:0:0:
126,117,93960,1,0,0:0:0:0:
81,86,94054,2,0,P|55:71|43:47,1,53.9999983520508
272,52,94242,2,0,L|324:44,6,26.9999991760254
140,248,94617,5,0,0:0:0:0:
140,248,94710,2,0,P|131:287|99:325,1,53.9999983520508
364,172,94898,2,0,P|355:211|323:249,1,53.9999983520508
256,272,95085,2,0,B|256:304|256:304|296:349,1,53.9999983520508
136,60,95273,2,0,L|52:36,1,53.9999983520508
256,156,95460,1,0,0:0:0:0:
256,156,95554,2,0,L|172:132,1,53.9999983520508
400,52,95742,1,0,0:0:0:0:
400,52,95835,2,0,L|316:28,1,53.9999983520508
448,260,96023,6,0,P|440:216|480:208,1,90
448,260,96304,6,0,B|388:288|388:240|304:264,1,107.999996704102
96,268,96585,2,0,B|83:291|83:291|51:307,1,53.9999983520508
220,96,96773,2,0,L|276:64,1,53.9999983520508
224,296,96960,2,0,P|244:320|248:356,1,53.9999983520508
152,192,97148,5,0,0:0:0:0:
100,177,97241,1,0,0:0:0:0:
64,137,97335,1,0,0:0:0:0:
54,85,97429,2,0,P|44:60|56:24,1,53.9999983520508
280,204,97617,1,0,0:0:0:0:
304,252,97710,2,0,P|336:292|372:304,1,53.9999983520508
368,100,97898,6,0,P|384:84|392:48,1,53.9999983520508
184,272,98085,1,0,0:0:0:0:
184,272,98179,1,0,0:0:0:0:
184,272,98273,2,0,L|192:328,2,53.9999983520508
100,212,98554,1,0,0:0:0:0:
144,144,98648,2,0,B|164:104|164:104|208:104|232:60|232:60|272:36,1,161.999995056153
376,88,99023,6,0,B|348:160|348:160|432:136,1,161.999995056153
352,268,99398,2,0,L|352:300,1,26.9999991760254
264,88,99585,2,0,L|264:61,1,26.9999991760254
196,284,99773,2,0,P|168:304|136:312,1,53.9999983520508
68,176,99960,2,0,B|84:140|64:100|64:100|68:64,1,107.999996704102
208,144,100242,1,0,0:0:0:0:
208,144,100335,2,0,L|272:172,1,53.9999983520508
416,128,100523,6,0,P|436:112|452:76,1,53.9999983520508
360,216,100710,2,0,B|315:265|315:265|271:253|215:285|215:285|243:208,1,215.999993408203
132,156,101179,1,0,0:0:0:0:
132,156,101273,2,0,P|160:68|92:120,1,236.250009012223
256,64,102023,6,0,P|304:104|376:100,1,135
448,136,102398,2,0,L|448:260,1,90
368,276,102679,1,0,0:0:0:0:
323,281,102772,5,0,0:0:0:0:
278,277,102866,1,0,0:0:0:0:
235,266,102960,1,0,0:0:0:0:
190,264,103054,1,0,0:0:0:0:
146,273,103147,1,0,0:0:0:0:
136,84,103335,1,0,0:0:0:0:
344,100,103523,6,0,B|384:124|384:124|432:124,1,90
160,168,103898,2,0,L|56:168,1,90
336,208,104273,1,0,0:0:0:0:
192,76,104460,1,0,0:0:0:0:
216,260,104648,1,0,0:0:0:0:
264,40,104835,1,0,0:0:0:0:
428,292,105023,6,0,B|440:236|420:196|420:196|444:156|440:108,1,180
136,168,105585,1,0,0:0:0:0:
136,168,105679,1,0,0:0:0:0:
136,168,105773,2,0,P|108:136|100:88,1,90
292,264,106148,2,0,L|284:356,1,90
416,128,106523,6,0,P|444:96|452:48,1,90
160,224,106898,2,0,B|148:252|148:252|156:296|152:324,1,90
336,328,107273,2,0,B|318:273|318:273|327:204|327:204|301:118,1,180
228,328,107835,1,0,0:0:0:0:
80,96,108023,6,0,B|76:134|100:174|100:174|80:214|92:270,1,180
172,68,108585,1,0,0:0:0:0:
348,248,108773,1,0,0:0:0:0:
316,48,108960,1,0,0:0:0:0:
160,216,109148,1,0,0:0:0:0:
408,152,109335,1,0,0:0:0:0:
244,36,109523,6,0,B|228:96|228:96|252:148|252:148|232:192|244:228,1,180
304,308,110085,1,0,0:0:0:0:
304,308,110179,1,0,0:0:0:0:
304,308,110273,1,0,0:0:0:0:
112,240,110460,1,0,0:0:0:0:
324,144,110648,1,0,0:0:0:0:
424,296,110835,1,0,0:0:0:0:
164,144,111023,6,0,P|152:100|168:48,1,90
472,204,111398,2,0,L|472:312,1,90
184,272,111773,1,0,0:0:0:0:
368,144,111960,1,0,0:0:0:0:
308,296,112148,1,0,0:0:0:0:
192,100,112335,1,0,0:0:0:0:
68,148,112523,6,0,B|52:228|52:228|72:284|68:352,1,180
268,272,113085,1,0,0:0:0:0:
268,272,113179,1,0,0:0:0:0:
268,272,113273,2,0,P|296:240|312:184,1,90
324,148,113507,2,0,L|356:132,3,22.5
164,52,113835,1,0,0:0:0:0:
104,152,114023,6,0,P|100:196|116:240,1,90
440,124,114398,2,0,P|455:81|451:37,1,90
364,176,114773,2,0,P|360:220|376:264,1,90
320,316,115054,1,0,0:0:0:0:
277,330,115147,1,0,0:0:0:0:
233,338,115241,1,0,0:0:0:0:
188,339,115335,1,0,0:0:0:0:
144,332,115429,1,0,0:0:0:0:
101,318,115523,6,0,P|124:248|108:156,1,135
200,172,115898,5,0,0:0:0:0:
242,157,115991,1,0,0:0:0:0:
285,142,116085,1,0,0:0:0:0:
327,127,116179,1,0,0:0:0:0:
368,112,116273,2,0,P|360:156|367:200,1,90
92,204,116648,2,0,P|99:160|90:116,1,90
260,312,117023,6,0,B|300:192|220:192|264:92,1,202.500007724762
140,116,117773,2,0,P|256:152|376:116,1,236.250009012223
428,167,118523,6,0,P|431:211|424:256,1,90
312,336,118898,2,0,P|304:288|312:228,1,90
188,276,119273,1,0,0:0:0:0:
124,168,119460,1,0,0:0:0:0:
64,232,119648,1,0,0:0:0:0:
76,64,119835,1,0,0:0:0:0:
196,96,120023,6,0,P|280:124|380:108,1,180
364,36,120585,1,0,0:0:0:0:
408,236,120773,2,0,L|408:344,1,90
104,132,121148,2,0,L|104:24,1,90
256,296,121523,6,0,B|248:232|248:232|272:192|272:192|252:148|264:100,1,180
256,40,122085,1,0,0:0:0:0:
424,228,122273,2,0,P|448:184|456:136,1,90
56,145,122648,2,0,P|65:189|87:228,1,90
304,84,123023,6,0,B|256:76|256:76|204:84,1,90
215,301,123398,2,0,B|256:308|256:308|304:300,1,90
256,208,123773,1,0,0:0:0:0:
263,212,123961,1,0,0:0:0:0:
261,221,124148,1,0,0:0:0:0:
252,222,124335,1,0,0:0:0:0:
255,213,124523,6,0,B|288:124|232:124|255:29,1,180
256,328,125085,1,0,0:0:0:0:
368,248,125273,2,0,L|406:329,1,90
144,136,125648,2,0,L|100:44,1,90
400,152,126023,6,0,P|424:108|424:56,1,90
112,232,126398,2,0,P|88:276|88:328,1,90
256,124,126773,2,0,L|256:28,1,90
208,336,127148,2,0,B|256:344|256:344|324:332,1,90
256,196,127523,5,0,0:0:0:0:
256,192,127710,12,0,130523,0:0:0:0:
