osu file format v14

[General]
AudioFilename: Myosotis.mp3
AudioLeadIn: 0
PreviewTime: 72000
Countdown: 0
SampleSet: Normal
StackLeniency: 0.5
Mode: 0
LetterboxInBreaks: 0
WidescreenStoryboard: 0

[Editor]
Bookmarks: 19500,33000
DistanceSpacing: 0.7
BeatDivisor: 4
GridSize: 4
TimelineZoom: 1.200001

[Metadata]
Title:Myosotis
TitleUnicode:Myosotis
Artist:M2U & NICODE feat. Guriri & Lucy
ArtistUnicode:M2U & NICODE feat. Guriri & Lucy
Creator:sullywally
Version:Beginner
Source:Deemo
Tags:piano symphonic dubstep rayark alice magnolia newtoniorock8 ghostshipcrowie lidahapi [-chocola-] chocola bank78952 AlisceaSparku Professor Gila
BeatmapID:880223
BeatmapSetID:404801

[Difficulty]
HPDrainRate:2
CircleSize:3
OverallDifficulty:2
ApproachRate:3
SliderMultiplier:0.800000005960464
SliderTickRate:1

[Events]
//Background and Video events
0,0,"BG.jpg",0,0
//Break Periods
//Storyboard Layer 0 (Background)
//Storyboard Layer 1 (Fail)
//Storyboard Layer 2 (Pass)
//Storyboard Layer 3 (Foreground)
//Storyboard Sound Samples

[TimingPoints]
0,375,4,1,3,70,1,0
25875,-100,4,1,3,25,0,0
26250,-100,4,1,3,70,0,0
26625,-100,4,1,3,25,0,0
27000,-100,4,1,3,70,0,0
33750,-100,4,2,5,40,0,0
43500,-100,4,1,3,40,0,0
72000,-100,4,1,3,70,0,0
75093,-100,4,1,3,30,0,0
75750,-100,4,1,3,50,0,0
78000,-100,4,1,3,70,0,0
78750,-100,4,1,3,70,0,1
81000,-100,4,1,3,40,0,1
81750,-100,4,1,3,70,0,1
87375,-100,4,1,3,50,0,1
88125,-100,4,1,3,70,0,1
90000,-100,4,1,3,40,0,1
90750,-100,4,1,3,70,0,1
101250,-100,4,1,3,70,0,0
102750,-100,4,2,5,70,0,0
110250,-100,4,1,3,70,0,0
117375,-100,4,1,3,30,0,0
117750,-100,4,1,3,50,0,0
118125,-100,4,1,3,30,0,0
118500,-100,4,2,5,70,0,0
119250,-100,4,2,5,50,0,0
124500,-100,4,2,5,60,0,0
128625,-100,4,2,5,40,0,0
129000,-100,4,2,5,45,0,0
129375,-100,4,2,5,50,0,0
129750,-100,4,2,5,55,0,0
130125,-100,4,2,5,60,0,0
130500,-100,4,2,5,70,0,0

[Colours]
Combo1 : 193,0,68
Combo2 : 52,65,184

[HitObjects]
64,72,19500,6,0,L|64:240,1,160.000001192093,0|2,0:0|0:0,0:0:0:0:
64,344,21000,2,0,B|144:344|144:344|160:296|216:280,1,160.000001192093,0|2,0:0|0:0,0:0:0:0:
324,260,22500,6,0,L|488:252,1,160.000001192093,0|2,0:0|0:0,0:0:0:0:
428,156,24000,1,0,0:0:0:0:
316,156,24750,1,2,0:0:0:0:
376,60,25500,6,0,B|284:32|228:88|228:88|156:28|64:72,1,320.000002384186
104,176,27750,1,2,0:0:0:0:
80,284,28500,2,0,P|156:264|212:192,1,160.000001192093,2|2,0:0|0:0,0:0:0:0:
256,192,30000,8,0,33000,0:0:0:0:
444,60,33750,6,0,B|408:48|368:84|368:84|336:52|280:52,1,160.000001192093,0|2,0:0|0:0,0:0:0:0:
220,132,35250,2,0,P|168:128|128:36,1,160.000001192093,0|2,0:0|0:0,0:0:0:0:
56,128,36750,2,0,P|76:164|56:220,2,80.0000005960464,0|0|2,0:0|0:0|0:0,0:0:0:0:
52,132,38250,2,0,P|128:128|200:180,1,160.000001192093,2|8,0:0|0:0,0:0:0:0:
268,256,39750,6,0,P|308:300|416:252,1,160.000001192093,8|2,0:0|0:0,0:0:0:0:
328,192,41250,1,2,0:0:0:0:
416,124,42000,1,0,0:0:0:0:
332,48,42750,1,0,0:0:0:0:
224,52,43500,6,0,B|176:48|176:48|124:68|124:68|40:56,2,160.000001192093,0|2|0,0:0|0:0|0:0,0:0:0:0:
336,68,45750,1,2,0:0:0:0:
448,68,46500,2,0,B|436:148|436:148|464:172|476:232,1,160.000001192093,0|2,0:0|0:0,0:0:0:0:
448,328,48000,2,0,P|380:284|376:200,1,160.000001192093,0|2,0:0|0:0,0:0:0:0:
444,124,49500,5,0,0:0:0:0:
336,92,50250,1,2,0:0:0:0:
236,140,51000,2,0,B|152:128|152:128|124:144|68:148,1,160.000001192093,0|2,0:0|0:0,0:0:0:0:
72,260,52500,2,0,B|120:260|148:280|148:280|184:256|248:264,1,160.000001192093,0|2,0:0|0:0,0:0:0:0:
332,300,54000,2,0,P|368:320|440:304,2,80.0000005960464,2|2|2,0:0|0:0|0:0,0:0:0:0:
384,200,55500,6,0,B|404:120|404:120|380:96|368:44,1,160.000001192093,0|2,0:0|0:0,0:0:0:0:
304,144,57000,2,0,B|288:116|280:68|280:68|176:68,1,160.000001192093,0|2,0:0|0:0,0:0:0:0:
108,128,58500,1,0,0:0:0:0:
208,176,59250,1,2,0:0:0:0:
108,228,60000,1,0,0:0:0:0:
208,276,60750,2,0,B|264:284|264:284|292:320|292:320|352:324,1,160.000001192093,2|0,0:0|0:0,0:0:0:0:
404,228,62250,6,0,B|348:220|348:220|320:184|320:184|260:180,1,160.000001192093,2|0,0:0|0:0,0:0:0:0:
268,292,63750,1,2,0:0:0:0:
168,340,64500,1,0,0:0:0:0:
64,300,65250,1,2,0:0:0:0:
40,192,66000,6,0,P|36:156|56:100,2,80.0000005960464,2|2|2,0:0|0:0|0:0,0:0:0:0:
84,228,67125,2,0,B|148:228|148:228|176:252|176:252|256:252,1,160.000001192093,2|0,0:0|0:0,0:0:0:0:
292,256,68250,1,2,0:0:0:0:
348,252,68625,2,0,P|372:280|424:296,2,80.0000005960464,2|2|2,0:0|0:0|0:0,0:0:0:0:
344,140,70125,1,0,0:0:0:0:
316,92,70500,2,0,L|200:92,3,80.0000005960464,2|2|2|6,0:0|0:0|0:0|0:0,0:0:0:0:
180,92,72000,6,0,B|140:92|140:92|148:140|136:224,1,160.000001192093,0|2,0:0|0:0,0:0:0:0:
140,324,73500,2,0,B|220:324|220:324|252:284|304:276,1,160.000001192093,0|2,0:0|0:0,0:0:0:0:
340,288,74625,1,0,0:0:0:0:
392,308,75000,2,0,B|440:240|364:224|364:224|392:148|328:100|280:136|252:180|252:180|220:136|168:100|112:144|136:228|136:228|56:240|116:316,1,640.000004768371,2|2,0:0|0:0,0:0:0:0:
105,301,78750,5,0,0:0:0:0:
228,292,79500,1,0,0:0:0:0:
280,312,79875,2,0,P|336:328|376:324,2,80.0000005960464,2|2|2,0:0|0:0|0:0,0:0:0:0:
232,284,81000,6,0,B|212:172|212:172|268:192,1,160.000001192093
396,184,82687,2,0,L|456:192,2,40.0000002980232,0|2|0,0:0|0:0|0:0,0:0:0:0:
348,112,83625,2,0,L|232:100,1,80.0000005960464,0|2,0:0|0:0,0:0:0:0:
156,88,84750,6,0,P|88:108|60:192,1,160.000001192093,2|0,0:0|0:0,0:0:0:0:
72,240,85875,2,0,L|184:256,1,80.0000005960464,2|0,0:0|0:0,0:0:0:0:
192,292,86625,2,0,L|284:268,1,80.0000005960464,2|0,0:0|0:0,0:0:0:0:
320,244,87375,2,0,L|376:248,2,40.0000002980232,2|0|2,0:0|0:0|0:0,0:0:0:0:
264,180,88312,1,0,0:0:0:0:
232,132,88687,2,0,P|272:88|400:128,1,200.000001490116,2|0,0:0|0:0,0:0:0:0:
408,172,90000,6,0,P|400:228|420:264,2,80.0000005960464
436,124,91125,2,0,P|356:88|288:140,1,160.000001192093,2|2,0:0|0:0,0:0:0:0:
264,164,92250,2,0,L|280:256,1,80.0000005960464,2|0,0:0|0:0,0:0:0:0:
284,300,93000,6,0,B|204:316|204:316|172:280|116:260,1,160.000001192093,2|0,0:0|0:0,0:0:0:0:
76,148,94687,2,0,L|60:92,2,40.0000002980232,0|2|0,0:0|0:0|0:0,0:0:0:0:
156,172,95625,2,0,B|232:168|232:168|260:156,1,80.0000005960464,2|0,0:0|0:0,0:0:0:0:
348,180,96750,6,0,B|392:176|428:256|428:256|480:280,1,160.000001192093,2|0,0:0|0:0,0:0:0:0:
428,312,97875,2,0,P|368:324|340:308,1,80.0000005960464,2|0,0:0|0:0,0:0:0:0:
320,272,98625,2,0,P|264:264|240:284,1,80.0000005960464,2|0,0:0|0:0,0:0:0:0:
248,272,99750,2,0,P|176:252|120:284,1,120.00000089407,2|0,0:0|0:0,0:0:0:0:
112,320,100687,1,2,0:0:0:0:
192,348,101250,2,0,L|356:336,1,160.000001192093,4|0,0:0|0:0,0:0:0:0:
396,232,102750,6,0,P|376:180|384:152,1,80.0000005960464,0|4,0:0|0:0,0:0:0:0:
420,116,103500,1,0,0:0:0:0:
344,36,104250,6,0,P|292:64|204:16,1,160.000001192093,2|0,0:0|0:0,0:0:0:0:
140,112,105750,2,0,B|184:152|216:160|216:160|208:232,1,160.000001192093,2|0,0:0|0:0,0:0:0:0:
96,232,107250,6,0,B|80:312|80:312|128:308|184:336,1,160.000001192093,2|2,0:0|0:0,0:0:0:0:
212,336,108375,2,0,P|256:348|296:336,3,80.0000005960464,2|2|2|2,0:0|0:0|0:0|0:0,0:0:0:0:
392,300,110250,6,0,B|432:232|432:232|416:208|424:148,1,160.000001192093,2|0,0:0|0:0,0:0:0:0:
460,108,111375,2,0,P|488:68|488:32,2,80.0000005960464,2|0|0,0:0|0:0|0:0,0:0:0:0:
408,124,112500,6,0,B|352:124|352:124|308:84|308:84|240:80,1,160.000001192093,2|0,0:0|0:0,0:0:0:0:
152,96,114000,1,2,0:0:0:0:
96,192,114750,1,0,0:0:0:0:
132,300,115500,2,0,B|192:344|192:344|236:308|300:308,1,160.000001192093,2|0,0:0|0:0,0:0:0:0:
324,320,116625,1,0,0:0:0:0:
376,340,117000,2,0,B|408:256|352:224|352:224|376:208|376:208|352:176|352:176|384:112|344:44,1,320.000002384186,2|4,0:0|0:0,0:0:0:0:
244,32,119250,6,0,P|168:20|108:96,2,160.000001192093,2|0|0,0:0|0:0|0:0,0:0:0:0:
280,76,121125,1,0,0:0:0:0:
304,128,121500,2,0,B|384:136|384:136|392:176|416:208,1,160.000001192093,2|2,0:0|0:0,0:0:0:0:
412,320,123000,1,0,0:0:0:0:
300,340,123750,1,2,0:0:0:0:
192,308,124500,6,0,B|128:308|128:308|100:284|100:284|24:284,1,160.000001192093,4|2,0:0|0:0,0:0:0:0:
24,172,126000,2,0,P|20:112|108:56,1,160.000001192093,0|2,0:0|0:0,0:0:0:0:
148,52,127125,1,2,0:0:0:0:
200,68,127500,2,0,P|256:80|288:72,1,80.0000005960464,2|0,0:0|0:0,0:0:0:0:
332,60,128250,2,0,B|384:48|420:64|464:80|488:132|472:204|420:252|380:252|312:240|312:240|300:228|300:228|284:240|284:240|268:220|208:240,1,480.000003576278,2|4,0:0|0:0,0:0:0:0:
