osu file format v14

[General]
AudioFilename: audio.mp3
AudioLeadIn: 0
PreviewTime: 43515
Countdown: 0
SampleSet: Soft
StackLeniency: 0.7
Mode: 0
LetterboxInBreaks: 0
WidescreenStoryboard: 0

[Editor]
Bookmarks: 54015
DistanceSpacing: 0.8
BeatDivisor: 1
GridSize: 4
TimelineZoom: 1

[Metadata]
Title:Myosotis
TitleUnicode:Myosotis
Artist:M2U & NICODE feat. Guriri & Lucy
ArtistUnicode:M2U & NICODE feat. Guriri & Lucy
Creator:Asserin
Version:Collab Normal
Source:Deemo
Tags:Voli Krfawy ZLOdeuka- Ambient Symphonic Dubstep
BeatmapID:1084783
BeatmapSetID:434443

[Difficulty]
HPDrainRate:4
CircleSize:4
OverallDifficulty:5.3
ApproachRate:5.3
SliderMultiplier:0.99
SliderTickRate:1

[Events]
//Background and Video events
0,0,"BG.jpg",0,0
//Break Periods
2,15015,18361
2,30215,31861
2,75964,76861
//Storyboard Layer 0 (Background)
//Storyboard Layer 1 (Fail)
//Storyboard Layer 2 (Pass)
//Storyboard Layer 3 (Foreground)
//Storyboard Sound Samples

[TimingPoints]
1515,375,4,2,1,75,1,0
13515,-100,4,3,1,75,0,0
19515,-100,4,3,10,100,0,0
27577,-100,4,3,10,100,0,0
33015,-100,4,2,1,100,0,0
33202,-100,4,2,1,50,0,0
38077,-100,4,2,1,5,0,0
38265,-100,4,2,1,50,0,0
43140,-100,4,2,1,100,0,0
43327,-100,4,2,1,50,0,0
43515,-100,4,3,10,50,0,0
55515,-100,4,3,10,75,0,0
66015,-100,4,3,10,75,0,0
66202,-100,4,3,20,75,0,0
71640,-100,4,3,10,75,0,0
75015,-100,4,3,10,75,0,0
75765,-100,4,2,0,50,0,0
78015,-100,4,3,10,100,0,1
78765,-100,4,3,50,100,0,1
79140,-100,4,3,50,50,0,1
79327,-100,4,3,50,50,0,1
79515,-100,4,3,50,100,0,1
80640,-100,4,3,50,100,0,1
81015,-100,4,3,50,100,0,1
81390,-100,4,3,50,100,0,1
81765,-100,4,3,50,100,0,1
84015,-100,4,3,50,100,0,1
84296,-100,4,3,50,100,0,1
84577,-100,4,3,50,100,0,1
86640,-100,4,3,50,100,0,1
87015,-100,4,3,50,100,0,1
87390,-100,4,3,50,100,0,1
87952,-100,4,3,50,100,0,1
88327,-100,4,3,50,100,0,1
88515,-100,4,3,50,100,0,0
90015,-100,4,3,50,100,0,1
90390,-100,4,3,50,100,0,1
90765,-100,4,3,50,100,0,1
92640,-100,4,3,50,100,0,1
93015,-100,4,3,50,100,0,1
93390,-100,4,3,50,100,0,1
93765,-100,4,3,50,100,0,1
96015,-100,4,3,50,100,0,1
96296,-100,4,3,50,100,0,1
96577,-100,4,3,50,100,0,1
98265,-100,4,3,50,100,0,1
98640,-100,4,3,50,100,0,1
99015,-100,4,3,50,100,0,1
99390,-100,4,3,50,100,0,1
100702,-100,4,3,50,100,0,1
101077,-100,4,3,50,100,0,1
101265,-100,4,3,50,100,0,1
102015,-100,4,2,0,100,0,0
103140,-100,4,2,6,100,0,0
103515,-100,4,2,7,50,0,0
109515,-100,4,3,5,75,0,0
113452,-100,4,3,5,75,0,0
113640,-100,4,3,5,75,0,0
118515,-100,4,2,1,100,0,0
124515,-100,4,3,5,100,0,0
124890,-100,4,2,1,100,0,0
128265,-100,4,2,1,100,0,0

[Colours]
Combo1 : 200,194,193
Combo2 : 83,116,119
Combo3 : 86,143,186
Combo4 : 172,94,115

[HitObjects]
194,84,1515,6,0,P|145:77|102:100,1,99,2|0,0:0|0:0,0:0:0:0:
114,178,2265,2,0,B|140:190|168:194|196:186|208:170|220:154|248:146|276:150|302:162,1,198,8|4,0:0|0:0,0:0:0:0:
381,160,3390,1,8,0:0:0:0:
414,231,3765,2,0,P|412:279|382:318,1,99,8|0,0:0|0:0,0:0:0:0:
302,338,4515,2,0,B|294:282|335:250|335:250|294:218|302:162,1,198,2|8,0:0|0:0,0:0:0:0:
337,91,5640,1,0,0:0:0:0:
414,73,6015,1,2,0:0:0:0:
476,122,6390,1,8,0:0:0:0:
476,201,6765,1,8,0:0:0:0:
414,251,7140,1,8,0:0:0:0:
336,233,7515,6,0,P|287:239|251:272,2,99,4|8|8,0:0|0:0|0:0,0:0:0:0:
414,251,8640,1,8,0:0:0:0:
376,320,9015,2,0,P|340:353|291:359,1,99,4|8,0:0|0:0,0:0:0:0:
214,340,9765,1,8,0:0:0:0:
134,340,10140,1,8,0:0:0:0:
56,359,10515,2,0,P|62:310|46:263,1,99,2|0,0:0|0:0,0:0:0:0:
4,195,11265,1,8,0:0:0:0:
55,134,11640,1,8,0:0:0:0:
129,164,12015,2,0,P|177:154|216:125,1,99,2|8,0:0|0:0,0:0:0:0:
228,46,12765,2,0,P|179:55|140:84,1,99,4|8,0:0|0:0,0:0:0:0:
129,164,13515,5,0,0:0:0:0:
129,164,19515,6,0,P|112:210|117:259,1,99,4|2,0:1|0:0,0:0:0:0:
138,292,20077,1,0,0:0:0:0:
169,316,20265,2,0,B|191:308|216:319|216:319|242:330|264:323,1,99,4|2,0:0|0:0,0:0:0:0:
334,284,21015,2,0,B|354:273|365:247|365:247|375:221|396:210,1,99,8|2,0:0|0:0,0:0:0:0:
434,197,21577,1,0,0:0:0:0:
464,171,21765,1,4,0:0:0:0:
489,95,22140,1,2,0:0:0:0:
443,30,22515,6,0,B|371:26|371:26|315:38,1,99,8|2,0:0|0:0,0:0:0:0:
308,47,23077,1,0,0:0:0:0:
272,64,23265,2,0,P|233:151|271:239,2,198,4|8|4,0:0|0:0|0:0,0:0:0:0:
308,47,24952,1,0,0:0:0:0:
344,31,25140,1,2,0:0:0:0:
423,32,25515,6,0,B|444:62|444:62|451:86|451:86|472:116,1,99,4|2,0:1|0:0,0:0:0:0:
495,148,26077,1,0,0:0:0:0:
498,186,26265,2,0,P|486:237|442:270,1,99,4|2,0:0|0:0,0:0:0:0:
375,288,27015,2,0,B|355:292|339:288|327:280|327:280|315:288|299:292|279:288,1,99,8|2,0:0|0:0,0:0:0:0:
241,276,27577,1,0,0:0:0:0:
208,253,27765,2,0,P|193:232|184:210,1,49.5,4|0,0:0|0:0,0:0:0:0:
184,170,28140,2,0,P|181:145|184:120,1,49.5,2|0,0:0|0:0,0:0:0:0:
204,86,28515,6,0,B|236:82|256:54|256:12|256:12|256:54|276:82|306:85,2,198,8|4|8,0:0|0:0|0:0,0:0:0:0:
204,86,33015,5,2,0:0:0:0:
200,165,33390,1,8,0:0:0:0:
216,242,33765,2,0,P|220:266|231:288,1,49.5,2|0,0:0|0:0,0:0:0:0:
268,303,34140,2,0,P|288:316|311:324,1,49.5,8|0,0:0|0:0,0:0:0:0:
347,309,34515,1,2,0:0:0:0:
407,257,34890,2,0,P|420:236|428:213,1,49.5,8|0,0:0|0:0,0:0:0:0:
413,177,35265,2,0,B|425:142|425:142|426:117|426:117|438:83,2,99,2|8|2,0:0|0:0|0:0,0:0:0:0:
407,257,36390,5,8,0:0:0:0:
347,309,36765,1,2,0:0:0:0:
268,303,37140,2,0,P|243:300|219:302,1,49.5,8|0,0:0|0:0,0:0:0:0:
185,324,37515,2,0,B|105:328|105:328|85:324,1,99,2|8,0:0|0:0,0:0:0:0:
53,301,38077,1,2,0:0:0:0:
19,278,38265,2,0,P|19:206|35:177,1,99,8|8,0:0|0:0,0:0:0:0:
101,147,39015,6,0,P|163:183|180:211,1,99,4|8,0:0|0:0,0:0:0:0:
207,277,39765,1,2,0:0:0:0:
234,304,39952,1,0,0:0:0:0:
271,318,40140,2,0,P|295:312|316:301,1,49.5,8|0,0:0|0:0,0:0:0:0:
350,279,40515,2,0,B|380:267|380:267|404:243|404:243|420:247|436:247,2,99,2|8|2,0:0|0:0|0:0,0:0:0:0:
271,318,41640,2,0,P|246:312|225:301,1,49.5,8|0,0:0|0:0,0:0:0:0:
193,276,42015,2,0,B|159:260|159:260|134:257|134:257|101:242,1,99,2|8,0:0|0:0,0:0:0:0:
69,216,42577,1,0,0:0:0:0:
61,176,42765,2,0,P|96:115|154:90,1,99,2|8,0:0|0:0,0:0:0:0:
196,115,43515,6,0,B|214:132|216:155|216:155|240:163|256:188|256:188|272:163|296:155|296:155|298:132|316:115,1,198,4|4,0:1|0:0,0:0:0:0:
393,100,44640,1,2,0:0:0:0:
455,149,45015,2,0,B|455:189|439:213|439:213|423:237|427:273|427:273|394:261|361:278,1,198,8|4,0:0|0:0,0:0:0:0:
296,324,46140,1,2,0:0:0:0:
216,324,46515,2,0,B|164:324|164:324|120:308,1,99,8|2,0:0|0:0,0:0:0:0:
56,259,47265,2,0,B|40:215|40:215|40:163,1,99,4|2,0:0|0:0,0:0:0:0:
43,83,48015,2,0,P|119:29|214:73,1,198,8|4,0:0|0:0,0:0:0:0:
256,128,49140,1,2,0:0:0:0:
297,195,49515,6,0,B|318:211|350:214|375:202|400:190|400:190|480:153,1,198,8|4,0:0|0:0,0:0:0:0:
497,228,50640,1,2,0:0:0:0:
449,289,51015,2,0,P|404:308|358:291,1,99,8|2,0:0|0:0,0:0:0:0:
308,230,51765,1,4,0:0:0:0:
317,151,52140,1,2,0:0:0:0:
256,100,52515,2,0,B|208:88|208:88|160:100,1,99,8|2,0:0|0:0,0:0:0:0:
151,178,53265,2,0,B|199:190|199:190|247:178,1,99,4|2,0:0|0:0,0:0:0:0:
317,151,54015,2,0,B|341:163|357:191|357:219|357:247|357:247|357:278,1,99,8|10,0:0|0:0,0:0:0:0:
349,275,54577,1,8,0:0:0:0:
328,309,54765,1,4,0:0:0:0:
256,343,55140,1,6,0:0:0:0:
184,309,55515,6,0,B|176:322|176:322|164:282|164:282|176:242|176:242|124:235|105:182,1,198,4|4,0:1|0:0,0:0:0:0:
96,102,56640,1,2,0:0:0:0:
146,39,57015,2,0,B|186:27|210:35|210:35|234:43|274:31|274:31|270:75|294:92,1,198,8|4,0:0|0:0,0:0:0:0:
367,122,58140,1,2,0:0:0:0:
425,175,58515,2,0,B|441:207|441:207|425:283,1,99,8|2,0:0|0:0,0:0:0:0:
418,307,59077,1,0,0:0:0:0:
403,344,59265,2,0,P|371:372|307:372,1,99,4|2,0:0|0:0,0:0:0:0:
256,324,60015,2,0,B|244:298|240:270|248:242|264:230|280:218|288:190|284:162|272:136,1,198,8|4,0:0|0:0,0:0:0:0:
229,68,61140,1,2,0:0:0:0:
150,74,61515,6,0,P|121:147|201:243,1,198,8|4,0:0|0:0,0:0:0:0:
256,270,62640,1,2,0:0:0:0:
327,237,63015,2,0,P|375:228|426:240,1,99,8|2,0:0|0:0,0:0:0:0:
475,298,63765,1,4,0:0:0:0:
441,369,64140,1,2,0:0:0:0:
361,373,64515,2,0,L|249:369,1,99,8|2,0:0|0:0,0:0:0:0:
192,330,65265,2,0,L|80:326,1,99,4|2,0:0|0:0,0:0:0:0:
23,287,66015,6,0,P|3:242|4:190,3,99,4|2|8|2,0:1|0:0|0:0|0:0,0:0:0:0:
17,155,67327,1,0,0:0:0:0:
50,133,67515,2,0,L|162:129,3,99,8|2|8|2,0:0|0:0|0:0|0:0,0:0:0:0:
223,103,69015,2,0,L|312:99,3,49.5,8|8|8|8,0:0|0:0|0:0|0:0,0:0:0:0:
307,82,69765,2,0,L|396:78,3,49.5,8|8|8|8,0:0|0:0|0:0|0:0,0:0:0:0:
391,61,70515,2,0,L|435:59,12,24.75,8|0|8|0|8|0|8|0|8|0|0|0|4,0:0|0:0|0:0|0:0|0:0|0:0|0:0|0:0|0:0|0:0|0:0|0:0|0:0,0:0:0:0:
307,82,72015,6,0,B|303:123|335:152|335:152|329:184|341:210|341:210|352:237|347:268,1,198,4|4,0:1|0:0,0:0:0:0:
336,348,73140,1,2,0:0:0:0:
256,346,73515,2,0,P|184:346|155:330,1,99,8|2,0:0|0:0,0:0:0:0:
175,256,74265,2,0,P|247:256|276:272,1,99,4|2,0:0|0:0,0:0:0:0:
330,317,75015,2,0,B|366:268|408:259|408:259|417:218|465:181,1,198,4|2,0:1|0:0,0:0:0:0:
465,181,78015,5,8,0:0:0:0:
465,181,78765,6,0,P|408:160|347:172,1,99,6|10,0:0|0:0,0:0:0:0:
338,185,79327,1,8,0:0:0:0:
309,213,79515,2,0,L|227:205,1,49.5,8|2,0:0|0:0,0:0:0:0:
224,227,79890,2,0,B|198:242|198:242|157:226|157:226|126:248,2,99,6|6|6,0:0|0:0|0:0,0:0:0:0:
181,160,81015,6,0,B|147:149|147:149|87:188,2,99,8|0|6,0:0|0:0|0:0,0:0:0:0:
219,170,81952,2,0,P|247:176|283:165,1,49.5,8|0,0:0|0:0,0:0:0:0:
303,156,82327,1,10,0:0:0:0:
371,116,82702,6,0,P|354:96|314:78,2,49.5,6|4|8,0:0|0:0|0:0,0:0:0:0:
390,150,83265,2,0,L|381:250,1,99,6|6,0:0|0:0,0:0:0:0:
324,303,84015,6,0,L|231:294,2,74.25,8|2|2,0:0|0:0|0:0,0:0:0:0:
362,310,84765,2,0,P|369:339|356:375,2,49.5,6|2|2,0:0|0:0|0:0,0:0:0:0:
340,276,85327,1,8,0:0:0:0:
316,243,85515,6,0,P|310:206|325:176,1,49.5,8|8,0:0|0:0,0:0:0:0:
328,158,85890,2,0,P|276:167|216:151,2,99,10|4|6,0:0|0:0|0:0,0:0:0:0:
328,78,87015,6,0,P|279:68|231:78,1,99,8|8,0:0|0:0,0:0:0:0:
194,92,87577,1,2,0:0:0:0:
167,121,87765,1,6,0:0:0:0:
150,157,87952,2,0,B|140:188|140:188|151:254,1,99,8|4,0:0|0:0,0:0:0:0:
161,292,88515,5,8,0:0:0:0:
187,321,88702,2,0,P|237:336|291:313,1,99,6|0,0:0|0:0,0:0:0:0:
308,293,89265,2,0,L|380:299,2,49.5,6|8|6,0:0|0:0|0:0,0:0:0:0:
235,260,90015,6,0,B|218:210|218:210|246:158,1,99,8|8,0:0|0:0,0:0:0:0:
311,135,90765,2,0,B|356:155|356:155|407:132,1,99,6|0,0:0|0:0,0:0:0:0:
438,121,91327,1,8,0:0:0:0:
475,108,91515,6,0,P|493:124|499:160,1,49.5,8|8,0:0|0:0,0:0:0:0:
484,184,91890,2,0,L|377:234,2,99,6|4|4,0:0|0:0|0:0,0:0:0:0:
489,263,93015,6,0,L|382:313,1,99,8|2,0:0|0:0,0:0:0:0:
326,336,93765,2,0,P|342:362|363:377,2,49.5,6|8|2,0:0|0:0|0:0,0:0:0:0:
307,301,94327,1,10,0:0:0:0:
309,221,94702,1,4,0:0:0:0:
290,186,94889,2,0,P|277:164|259:148,2,49.5,8|8|6,0:0|0:0|0:0,0:0:0:0:
217,218,95640,1,6,0:0:0:0:
147,256,96015,6,0,P|103:263|56:249,2,74.25,8|8|6,0:0|0:0|0:0,0:0:0:0:
183,240,96765,2,0,P|179:209|190:179,1,49.5,6|8,0:0|0:0,0:0:0:0:
205,158,97140,1,2,0:0:0:0:
233,130,97327,1,8,0:0:0:0:
270,117,97515,2,0,L|341:117,1,49.5,0|8,0:0|0:0,0:0:0:0:
359,114,97890,2,0,P|400:78|410:30,2,99,6|6|4,0:0|0:0|0:0,0:0:0:0:
317,181,99015,6,0,B|306:212|306:212|323:248|301:292,1,99,8|2,0:0|0:0,0:0:0:0:
255,335,99765,1,4,0:0:0:0:
219,318,99952,2,0,L|219:268,2,49.5,0|8|8,0:0|0:0|0:0,0:0:0:0:
183,335,100515,5,8,0:0:0:0:
145,347,100702,2,0,P|98:340|63:300,1,99,4|8,0:0|0:0,0:0:0:0:
47,267,101265,2,0,P|41:219|71:175,1,99,6|0,0:0|0:0,0:0:0:0:
147,181,102015,6,0,P|197:193|259:173,2,99,4|2|2,0:1|0:0|0:0,0:0:0:0:
68,176,103140,1,2,0:0:0:0:
112,110,103515,6,0,L|216:74,1,99,4|2,0:0|0:0,0:0:0:0:
280,54,104265,2,0,B|288:110|247:142|247:142|288:174|280:230,1,198,8|4,0:0|0:0,0:0:0:0:
245,301,105390,1,2,0:0:0:0:
168,319,105765,1,8,0:0:0:0:
106,270,106140,1,2,0:0:0:0:
106,191,106515,2,0,B|115:164|132:141|158:127|178:130|197:133|223:118|240:96|250:69,2,198,4|8|2,0:0|0:0|0:0,0:0:0:0:
106,270,108390,2,0,P|144:304|165:327,1,49.5,8|2,0:0|0:0,0:0:0:0:
171,330,108765,2,0,P|215:342|271:338,1,99,8|2,0:0|0:0,0:0:0:0:
304,324,109327,1,0,0:0:0:0:
336,301,109515,6,0,B|362:205|362:205|312:189|300:133,1,198,4|2,0:0|0:0,0:0:0:0:
256,68,110640,1,8,0:0:0:0:
211,134,111015,2,0,B|200:189|150:205|150:205|176:301,1,198,2|2,0:0|0:0,0:0:0:0:
199,376,112140,2,0,P|223:375|247:380,1,49.5,8|2,0:0|0:0,0:0:0:0:
287,377,112515,2,0,B|295:341|295:341|287:229,1,148.5,2|2,0:0|0:0,0:0:0:0:
289,190,113265,2,0,B|283:113|283:113|289:89,1,99,2|8,0:0|0:0,0:0:0:0:
309,58,113827,1,2,0:0:0:0:
339,32,114015,2,0,P|386:44|433:32,2,99,2|8|2,0:0|0:0|0:0,0:0:0:0:
288,91,115140,2,0,B|283:113|283:113|289:185,1,49.5,8|2,0:0|0:0,0:0:0:0:
288,179,115515,6,0,P|281:228|255:270,1,99,2|2,0:0|0:0,0:0:0:0:
218,283,116077,1,0,0:0:0:0:
179,290,116265,2,0,P|131:276|82:282,1,99,2|8,0:0|0:0,0:0:0:0:
47,300,116827,1,0,0:0:0:0:
18,328,117015,1,4,0:0:0:0:
37,170,117765,1,2,0:0:0:0:
120,34,118515,6,0,B|168:22|168:22|216:34|216:34|265:22|312:42,1,198,10|4,0:0|0:0,0:0:0:0:
382,79,119640,1,0,0:0:0:0:
434,138,120015,2,0,P|452:232|367:275,1,198,2|10,0:0|0:0,0:0:0:0:
296,260,121140,1,2,0:0:0:0:
221,288,121515,2,0,P|154:283|125:267,1,99,2|2,0:0|0:0,0:0:0:0:
172,203,122265,2,0,B|163:274|85:295|39:245|39:245|40:234|40:234|21:193|46:163|31:124|31:124|25:117|14:91|11:63|22:44|41:35|59:26|67:8|65:-6|65:-6|68:20|76:40|97:43|97:43|109:85|153:98,1,594,14|6,0:0|0:0,0:0:0:0:
152,98,125265,6,0,P|191:134|241:141,1,99,10|10,0:0|0:0,0:0:0:0:
313,124,126015,1,2,0:0:0:0:
345,52,126390,1,0,0:0:0:0:
277,10,126765,2,0,P|213:34|162:26,1,99,8|0,0:0|0:0,0:0:0:0:
104,23,127515,6,0,B|52:2|-22:54|-10:146|65:197|145:151|150:97|150:97|162:103|162:103|166:138|196:157|196:157|191:208|225:247|225:247|191:208|154:217|154:217|108:249|19:240|19:240|61:250|78:278,1,792,10|4,0:0|0:0,0:0:0:0:
