osu file format v14

[General]
AudioFilename: audio.mp3
AudioLeadIn: 0
PreviewTime: 43515
Countdown: 0
SampleSet: None
StackLeniency: 0.7
Mode: 0
LetterboxInBreaks: 0
WidescreenStoryboard: 0

[Editor]
Bookmarks: 54015
DistanceSpacing: 1
BeatDivisor: 4
GridSize: 8
TimelineZoom: 1

[Metadata]
Title:Myosotis
TitleUnicode:Myosotis
Artist:M2U & NICODE feat. Guriri & Lucy
ArtistUnicode:M2U & NICODE feat. Guriri & Lucy
Creator:Asserin
Version:Advanced
Source:Deemo
Tags:Voli Krfawy ZLOdeuka- Ambient Symphonic Dubstep
BeatmapID:936108
BeatmapSetID:434443

[Difficulty]
HPDrainRate:5
CircleSize:4
OverallDifficulty:6
ApproachRate:6
SliderMultiplier:1.1
SliderTickRate:1

[Events]
//Background and Video events
0,0,"BG.jpg",0,0
//Break Periods
//Storyboard Layer 0 (Background)
//Storyboard Layer 1 (Fail)
//Storyboard Layer 2 (Pass)
//Storyboard Layer 3 (Foreground)
//Storyboard Sound Samples

[TimingPoints]
1515,375,4,2,1,75,1,0
13515,-100,4,2,0,35,0,0
19515,-100,4,3,10,100,0,0
27577,-100,4,3,10,100,0,0
33015,-100,4,2,1,100,0,0
38077,-100,4,2,1,5,0,0
38265,-100,4,2,1,50,0,0
43140,-100,4,2,1,100,0,0
43327,-100,4,2,1,50,0,0
43515,-100,4,3,10,50,0,0
55515,-100,4,3,10,75,0,0
66015,-100,4,3,10,75,0,0
66202,-100,4,3,20,75,0,0
71640,-100,4,3,10,75,0,0
75015,-100,4,3,10,75,0,0
75765,-100,4,2,0,50,0,0
78015,-100,4,3,10,100,0,1
78765,-100,4,3,50,100,0,1
79140,-100,4,3,50,50,0,1
79327,-100,4,3,50,50,0,1
79515,-100,4,3,50,100,0,1
80640,-100,4,3,50,100,0,1
81015,-100,4,3,50,100,0,1
81390,-100,4,3,50,100,0,1
81765,-100,4,3,50,100,0,1
84015,-100,4,3,50,100,0,1
84296,-100,4,3,50,100,0,1
84577,-100,4,3,50,100,0,1
86640,-100,4,3,50,100,0,1
87015,-100,4,3,50,100,0,1
87390,-100,4,3,50,100,0,1
87952,-100,4,3,50,100,0,1
88327,-100,4,3,50,100,0,1
88515,-100,4,3,50,100,0,0
90015,-100,4,3,50,100,0,0
90390,-100,4,3,50,100,0,0
90765,-100,4,3,50,100,0,1
92640,-100,4,3,50,100,0,1
93015,-100,4,3,50,100,0,1
93390,-100,4,3,50,100,0,1
93765,-100,4,3,50,100,0,1
96015,-100,4,3,50,100,0,1
96296,-100,4,3,50,100,0,1
96577,-100,4,3,50,100,0,1
98265,-100,4,3,50,100,0,1
98640,-100,4,3,50,100,0,1
99015,-100,4,3,50,100,0,1
99390,-100,4,3,50,100,0,1
100702,-100,4,3,50,100,0,1
101077,-100,4,3,50,100,0,1
101265,-100,4,3,50,100,0,1
102015,-100,4,2,0,100,0,0
103140,-100,4,2,6,100,0,0
103515,-100,4,2,7,50,0,0
109515,-100,4,3,5,75,0,0
113452,-100,4,3,5,75,0,0
113640,-100,4,3,5,75,0,0
118515,-100,4,2,1,100,0,0
124515,-100,4,3,5,100,0,0
124890,-100,4,2,1,100,0,0
128265,-100,4,2,1,100,0,0

[Colours]
Combo1 : 200,194,193
Combo2 : 83,116,119
Combo3 : 86,143,186
Combo4 : 172,94,115

[HitObjects]
44,124,1515,6,0,P|97:135|168:116,1,110,2|0,0:0|0:0,0:0:0:0:
247,70,2265,2,0,P|300:59|354:70,1,110,8|0,0:0|0:0,0:0:0:0:
451,120,3015,1,4,0:0:0:0:
510,212,3390,1,8,0:0:0:0:
451,304,3765,2,0,P|425:314|397:315,1,55,8|0,0:0|0:0,0:0:0:0:
348,290,4140,2,0,P|322:279|295:278,1,55
255,315,4515,6,0,P|190:308|163:254,1,110,2|0,0:0|0:0,0:0:0:0:
140,167,5265,1,8,0:0:0:0:
166,60,5640,1,0,0:0:0:0:
258,0,6015,2,0,L|392:6,1,110,2|8,0:0|0:0,0:0:0:0:
466,53,6765,2,0,P|480:87|481:118,1,55,8|0,0:0|0:0,0:0:0:0:
434,133,7140,2,0,P|420:167|420:190,1,55,8|0,0:0|0:0,0:0:0:0:
437,236,7515,6,0,P|383:245|341:279,1,110,4|8,0:0|0:0,0:0:0:0:
285,375,8265,2,0,P|240:340|238:271,1,110,8|8,0:0|0:0,0:0:0:0:
259,183,9015,2,0,P|263:119|224:73,1,110,4|0,0:0|0:0,0:0:0:0:
128,82,9765,2,0,P|102:104|86:137,1,55,8|0,0:0|0:0,0:0:0:0:
90,176,10140,2,0,P|105:204|130:224,1,55
175,234,10515,6,0,P|179:298|140:344,1,110,2|0,0:0|0:0,0:0:0:0:
44,334,11265,2,0,P|18:312|2:279,1,55,8|0,0:0|0:0,0:0:0:0:
7,239,11640,2,0,P|22:211|47:191,1,55,8|0,0:0|0:0,0:0:0:0:
88,171,12015,2,0,L|218:178,1,110,2|0,0:0|0:0,0:0:0:0:
307,185,12765,6,0,P|358:202|386:257,1,110,4|0,0:0|0:0,0:0:0:0:
256,192,13515,12,2,18015,0:0:0:0:
54,153,19515,6,0,P|108:168|174:141,1,110,4|2,0:1|0:0,0:0:0:0:
202,120,20077,1,0,0:0:0:0:
252,97,20265,2,0,P|291:92|330:101,1,55,4|0,0:0|0:0,0:0:0:0:
354,120,20640,2,0,P|359:155|349:195,1,55,2|0,0:0|0:0,0:0:0:0:
325,220,21015,6,0,P|383:234|416:287,1,110,8|2,0:0|0:0,0:0:0:0:
427,324,21577,1,0,0:0:0:0:
401,373,21765,2,0,L|328:365,1,55,4|0,0:0|0:0,0:0:0:0:
310,324,22140,2,0,L|246:329,1,55,2|0,0:0|0:0,0:0:0:0:
206,353,22515,6,0,B|143:327|78:355|78:355|36:320|60:257,1,220,8|4,0:0|0:0,0:0:0:0:
222,133,24015,2,0,B|289:144|346:102|346:102|395:126|385:193,1,220,8|4,0:0|0:0,0:0:0:0:
344,276,25140,1,8,0:1:0:0:
248,220,25515,6,0,P|192:206|127:226,1,110,4|2,0:1|0:0,0:0:0:0:
94,245,26077,1,0,0:0:0:0:
51,279,26265,2,0,P|44:315|56:346,1,55,4|0,0:0|0:0,0:0:0:0:
94,362,26640,2,0,P|125:353|155:361,1,55,2|0,0:0|0:0,0:0:0:0:
195,383,27015,6,0,L|312:376,1,110,8|2,0:0|0:0,0:0:0:0:
336,331,27577,1,0,0:0:0:0:
376,293,27765,2,0,P|414:286|444:296,1,55,4|0,0:0|0:0,0:0:0:0:
475,320,28140,2,0,P|484:282|504:259,1,55,2|0,0:0|0:0,0:0:0:0:
511,217,28515,2,0,B|529:172|487:137|487:137|422:165|359:139,1,220,8|4,0:0|0:0,0:0:0:0:
165,37,30015,5,4,3:0:0:0:
213,24,33015,6,0,P|216:75|184:131,1,110,2|8,0:0|0:0,0:0:0:0:
103,193,33765,2,0,L|107:271,1,55,2|0,0:0|0:0,0:0:0:0:
150,280,34140,2,0,L|229:275,1,55,8|0,0:0|0:0,0:0:0:0:
249,308,34515,6,0,L|380:299,1,110,2|8,0:0|0:0,0:0:0:0:
459,267,35265,2,0,P|468:228|454:193,1,55,2|0,0:0|0:0,0:0:0:0:
413,194,35640,2,0,P|407:162|414:136,1,55,8|0,0:0|0:0,0:0:0:0:
434,90,36015,6,0,P|368:82|323:44,1,110,2|8,0:0|0:0,0:0:0:0:
292,20,36577,1,0,0:0:0:0:
292,20,36765,1,2,0:0:0:0:
142,49,37140,2,0,L|62:46,1,55,8|0,0:0|0:0,0:0:0:0:
31,49,37515,6,0,P|54:100|26:166,1,110,2|8,0:0|0:0,0:0:0:0:
11,196,38077,1,2,0:0:0:0:
0,250,38265,2,0,P|9:287|39:313,1,55,8|0,0:0|0:0,0:0:0:0:
67,327,38640,2,0,P|91:305|115:300,1,55,8|0,0:0|0:0,0:0:0:0:
166,307,39015,6,0,P|209:268|201:197,1,110,4|8,0:0|0:0,0:0:0:0:
183,112,39765,1,2,0:0:0:0:
128,104,39952,1,0,0:0:0:0:
74,90,40140,2,0,P|84:57|111:40,1,55,8|0,0:0|0:0,0:0:0:0:
150,24,40515,6,0,P|213:16|277:34,2,110,2|8|2,0:0|0:0|0:0,0:0:0:0:
95,119,41640,2,0,P|61:132|22:119,1,55,8|0,0:0|0:0,0:0:0:0:
3,167,42015,2,0,P|-10:229|5:286,1,110,2|8,0:0|0:0,0:0:0:0:
77,345,42765,2,0,P|104:343|126:325,1,55,2|0,0:0|0:0,0:0:0:0:
152,278,43140,2,0,P|157:251|145:225,1,55,8|0,0:0|0:0,0:0:0:0:
109,185,43515,6,0,L|241:196,1,110,4|2,0:1|0:0,0:0:0:0:
324,216,44265,2,0,B|364:257|364:257|368:309,1,110,4|2,0:0|0:0,0:0:0:0:
409,346,44827,1,0,0:0:0:0:
450,309,45015,2,0,B|454:256|454:256|494:215,1,110,8|2,0:0|0:0,0:0:0:0:
471,118,45765,2,0,P|453:96|431:80,1,55,4|0,0:0|0:0,0:0:0:0:
378,94,46140,2,0,P|340:73|322:42,1,55,2|0,0:0|0:0,0:0:0:0:
289,30,46515,6,0,P|230:19|164:38,1,110,8|2,0:0|0:0,0:0:0:0:
105,107,47265,2,0,P|96:150|109:183,1,55,4|0,0:0|0:0,0:0:0:0:
138,197,47640,2,0,P|143:228|134:256,1,55,2|0,0:0|0:0,0:0:0:0:
98,289,48015,6,0,P|166:291|211:338,1,110,8|2,0:0|0:0,0:0:0:0:
282,383,48765,2,0,L|416:375,1,110,4|2,0:0|0:0,0:0:0:0:
468,298,49515,6,0,L|460:163,1,110,8|2,0:0|0:0,0:0:0:0:
372,189,50265,2,0,P|314:177|331:131,1,110,4|2,0:0|0:0,0:0:0:0:
354,95,50827,1,0,0:0:0:0:
395,58,51015,6,0,L|462:62,1,55,8|0,0:0|0:0,0:0:0:0:
494,93,51390,2,0,P|511:125|509:158,1,55,2|0,0:0|0:0,0:0:0:0:
468,177,51765,2,0,P|450:209|452:242,1,55,4|0,0:0|0:0,0:0:0:0:
494,258,52140,2,0,P|511:290|509:323,1,55,2|0,0:0|0:0,0:0:0:0:
475,349,52515,6,0,L|345:343,1,110,8|2,0:0|0:0,0:0:0:0:
259,365,53265,2,0,P|223:369|186:357,1,55,4|0,0:0|0:0,0:0:0:0:
179,316,53640,2,0,P|170:284|152:260,1,55,2|0,0:0|0:0,0:0:0:0:
108,241,54015,6,0,P|76:235|46:242,1,55,8|0,0:0|0:0,0:0:0:0:
5,212,54390,2,0,P|-5:179|2:151,1,55,10|8,0:0|0:0,0:0:0:0:
26,111,54765,2,0,P|71:77|139:77,1,110,4|6,0:0|0:0,0:0:0:0:
174,92,55327,1,8,0:0:0:0:
207,135,55515,6,0,L|329:141,1,110,4|2,0:1|0:0,0:0:0:0:
425,153,56265,2,0,P|442:210|409:274,1,110,4|2,0:0|0:0,0:0:0:0:
387,295,56827,1,0,0:0:0:0:
339,322,57015,6,0,L|213:315,1,110,8|2,0:0|0:0,0:0:0:0:
134,258,57765,2,0,P|100:255|65:262,1,55,4|0,0:0|0:0,0:0:0:0:
28,235,58140,2,0,P|31:201|24:166,1,55,2|0,0:0|0:0,0:0:0:0:
79,159,58515,6,0,P|135:142|171:90,1,110,8|2,0:0|0:0,0:0:0:0:
239,20,59265,2,0,P|271:14|308:26,1,55,4|0,0:0|0:0,0:0:0:0:
334,55,59640,2,0,P|360:60|387:55,1,55,2|0,0:0|0:0,0:0:0:0:
438,33,60015,6,0,P|427:93|460:149,1,110,8|2,0:0|0:0,0:0:0:0:
505,227,60765,2,0,P|525:277|513:329,1,110,4|2,0:0|0:0,0:0:0:0:
411,286,61515,6,0,L|290:279,1,110,8|2,0:0|0:0,0:0:0:0:
202,326,62265,2,0,P|139:330|80:313,1,110,4|2,0:0|0:0,0:0:0:0:
44,294,62827,1,0,0:0:0:0:
78,250,63015,6,0,P|104:198|75:136,1,110,8|2,0:0|0:0,0:0:0:0:
44,119,63577,1,0,0:0:0:0:
0,84,63765,2,0,P|11:57|41:40,1,55,4|0,0:0|0:0,0:0:0:0:
87,53,64140,2,0,L|148:49,1,55,2|0,0:0|0:0,0:0:0:0:
190,75,64515,6,0,L|306:81,1,110,8|2,0:0|0:0,0:0:0:0:
401,40,65265,2,0,P|416:69|410:114,1,55,4|0,0:0|0:0,0:0:0:0:
443,139,65640,2,0,P|431:162|431:190,1,55,2|0,0:0|0:0,0:0:0:0:
401,237,66015,6,0,P|437:243|463:266,1,55,4|0,0:1|0:0,0:0:0:0:
491,291,66390,1,2,0:0:0:0:
451,383,66765,2,0,L|324:376,1,110,8|2,0:0|0:0,0:0:0:0:
293,350,67327,1,0,0:0:0:0:
244,324,67515,6,0,L|121:317,1,110,8|2,0:0|0:0,0:0:0:0:
54,243,68265,2,0,P|49:209|58:169,1,55,8|0,0:0|0:0,0:0:0:0:
87,146,68640,2,0,P|121:141|161:150,1,55,2|0,0:0|0:0,0:0:0:0:
181,181,69015,6,0,L|213:250,1,55,8|8,0:0|0:0,0:0:0:0:
258,241,69390,2,0,L|281:290,1,55,8|8,0:0|0:0,0:0:0:0:
313,335,69765,2,0,P|348:340|370:333,1,55,8|8,0:0|0:0,0:0:0:0:
386,283,70140,2,0,P|412:277|439:282,1,55,8|8,0:0|0:0,0:0:0:0:
452,335,70515,6,0,P|487:340|509:333,1,55,8|8,0:0|0:0,0:0:0:0:
511,279,70890,2,0,P|505:252|511:225,1,55,8|8,0:0|0:0,0:0:0:0:
511,170,71265,2,0,P|460:150|426:100,1,110,8|4,0:0|0:0,0:0:0:0:
442,1,72015,6,0,L|319:7,1,110,4|2,0:1|0:0,0:0:0:0:
245,72,72765,2,0,P|238:102|251:140,1,55,4|0,0:0|0:0,0:0:0:0:
282,163,73140,2,0,P|286:189|279:216,1,55,2|0,0:0|0:0,0:0:0:0:
245,260,73515,6,0,P|297:279|315:335,1,110,8|2,0:0|0:0,0:0:0:0:
392,326,74265,2,0,P|402:288|424:270,1,55,4|0,0:0|0:0,0:0:0:0:
459,249,74640,2,0,P|449:211|427:193,1,55,2|0,0:0|0:0,0:0:0:0:
386,182,75015,5,4,0:1:0:0:
227,334,75765,2,0,B|149:387|82:335|82:335|144:240|104:188|104:188|30:89|134:23|134:23|182:23|211:57|203:109|149:112,1,660,2|8,0:0|0:0,0:0:0:0:
353,19,78765,6,0,P|369:47|396:66,1,55,6|0,0:0|0:0,0:0:0:0:
385,116,79140,2,0,P|364:134|351:158,1,55,6|8,0:0|0:0,0:0:0:0:
344,212,79515,1,8,0:0:0:0:
394,233,79702,1,2,0:0:0:0:
444,254,79890,6,0,P|449:286|444:315,1,55,6|0,0:0|0:0,0:0:0:0:
402,342,80265,2,0,P|375:339|348:344,1,55,6|0,0:0|0:0,0:0:0:0:
296,364,80640,2,0,L|300:302,1,55,6|0,0:0|0:0,0:0:0:0:
299,253,81015,6,0,B|229:252|223:191|223:191|240:159|223:120,1,165,8|0,0:0|0:0,0:0:0:0:
201,89,81765,2,0,P|196:56|206:14,1,55,6|8,0:0|0:0,0:0:0:0:
244,3,82140,1,0,0:0:0:0:
292,28,82327,2,0,P|319:33|354:29,1,55,10|0,0:0|0:0,0:0:0:0:
396,9,82702,5,6,0:0:0:0:
438,44,82890,2,0,P|434:77|441:115,1,55,4|8,0:0|0:0,0:0:0:0:
457,149,83265,2,0,P|398:177|387:236,1,110,6|6,0:0|0:0,0:0:0:0:
382,270,83827,1,4,0:0:0:0:
416,312,84015,6,0,P|453:308|503:313,2,82.5,8|2|2,0:0|0:0|0:0,0:0:0:0:
382,355,84765,2,0,L|318:349,1,55,6|2,3:0|3:0,3:0:0:0:
286,312,85140,2,0,L|222:317,1,55,2|8,0:0|0:0,0:0:0:0:
190,353,85515,5,8,0:0:0:0:
135,355,85702,1,8,0:0:0:0:
79,355,85890,2,0,P|73:319|84:284,1,55,10|8,0:0|0:0,0:0:0:0:
114,261,86265,2,0,P|117:233|111:207,1,55,4|8,0:0|0:0,0:0:0:0:
79,162,86640,6,0,P|129:135|164:92,1,110,6|8,0:0|0:0,0:0:0:0:
251,29,87390,2,0,L|322:32,1,55,8|2,0:0|0:0,0:0:0:0:
354,57,87765,1,6,0:0:0:0:
394,94,87952,2,0,B|411:147|411:147|393:225,1,110,8|4,0:0|0:0,0:0:0:0:
367,245,88515,5,8,0:0:0:0:
335,289,88702,2,0,P|270:278|210:298,1,110,6|0,0:0|0:0,0:0:0:0:
195,333,89265,2,0,P|159:346|122:341,1,55,6|8,0:0|0:0,0:0:0:0:
91,325,89640,2,0,P|69:293|64:256,1,55,6|0,0:0|0:0,0:0:0:0:
67,222,90015,6,0,B|67:195|67:195|97:146|97:146|97:106,1,110,8|8,0:0|0:0,0:0:0:0:
112,11,90765,2,0,P|144:18|175:43,1,55,6|8,0:0|0:0,0:0:0:0:
180,81,91140,2,0,L|257:76,1,55,0|8,0:0|0:0,0:0:0:0:
289,81,91515,1,8,0:0:0:0:
339,102,91702,1,8,0:0:0:0:
375,143,91890,2,0,P|396:171|402:197,1,55,6|8,0:0|0:0,0:0:0:0:
437,231,92265,2,0,P|416:259|410:285,1,55,4|8,0:0|0:0,0:0:0:0:
408,333,92640,6,0,L|353:327,1,55,4|0,0:0|0:0,0:0:0:0:
309,360,93015,2,0,P|291:333|211:337,1,110,8|2,0:0|0:0,0:0:0:0:
135,258,93765,2,0,P|153:231|156:198,1,55,6|8,0:0|0:0,0:0:0:0:
157,154,94140,1,2,0:0:0:0:
158,99,94327,6,0,P|163:72|179:50,1,55,10|2,0:0|0:0,0:0:0:0:
232,37,94702,1,4,0:0:0:0:
285,50,94890,2,0,P|301:72|306:98,1,55,8|8,0:0|0:0,0:0:0:0:
295,153,95265,2,0,P|324:199|382:211,1,110,6|6,0:0|0:0,0:0:0:0:
429,202,95827,1,8,0:0:0:0:
479,179,96015,6,0,P|492:216|481:272,2,82.5,8|8|6,0:0|0:0|0:0,0:0:0:0:
442,137,96765,2,0,P|436:97|447:61,1,55,6|8,0:0|0:0,0:0:0:0:
453,30,97140,2,0,L|398:27,1,55,2|8,0:0|0:0,0:0:0:0:
343,37,97515,5,0,0:0:0:0:
299,69,97702,1,8,0:0:0:0:
269,115,97890,2,0,L|202:118,1,55,6|8,0:0|0:0,0:0:0:0:
180,73,98265,2,0,L|113:76,1,55,6|8,0:0|0:0,0:0:0:0:
78,45,98640,6,0,P|31:55|44:108,1,110,4|8,0:0|0:0,0:0:0:0:
108,192,99390,2,0,P|140:186|179:188,1,55,2|2,0:0|0:0,0:0:0:0:
217,190,99765,2,0,P|258:225|332:222,1,110,4|8,0:0|0:0,0:0:0:0:
349,188,100327,2,0,L|424:191,1,55,8|8,0:0|0:0,0:0:0:0:
458,195,100702,6,0,P|468:253|450:310,1,110,4|8,0:0|0:0,0:0:0:0:
422,346,101265,2,0,P|343:302|258:316,1,165,6|0,0:0|0:0,0:0:0:0:
233,350,102015,6,0,L|112:347,1,110,4|2,0:1|0:0,0:0:0:0:
69,337,102577,1,2,0:0:0:0:
18,315,102765,2,0,P|12:283|20:257,1,55,2|0,0:0|0:0,0:0:0:0:
61,227,103140,2,0,P|67:195|59:169,1,55,2|0,0:0|0:0,0:0:0:0:
35,124,103515,6,0,P|91:139|153:115,1,110,4|2,0:0|0:0,0:0:0:0:
221,197,104265,2,0,P|274:182|326:197,1,110,8|2,0:0|0:0,0:0:0:0:
418,257,105015,2,0,P|444:206|426:154,1,110,4|2,0:0|0:0,0:0:0:0:
388,120,105577,1,2,0:0:0:0:
336,100,105765,2,0,L|267:103,1,55,8|0,0:0|0:0,0:0:0:0:
237,68,106140,2,0,L|168:64,1,55,2|0,0:0|0:0,0:0:0:0:
131,42,106515,6,0,P|111:101|56:131,1,110,4|2,0:0|0:0,0:0:0:0:
74,236,107265,2,0,P|125:270|140:331,1,110,8|2,0:0|0:0,0:0:0:0:
157,366,107827,1,2,0:0:0:0:
209,348,108015,2,0,P|265:331|323:341,1,110,2|8,0:0|0:0,0:0:0:0:
366,356,108577,1,2,0:0:0:0:
414,329,108765,2,0,P|448:326|476:329,1,55,8|0,0:0|0:0,0:0:0:0:
511,292,109140,2,0,P|508:258|511:230,1,55,2|0,0:0|0:0,0:0:0:0:
510,182,109515,6,0,P|514:124|464:126,1,110,4|0,0:0|0:0,0:0:0:0:
428,149,110077,1,0,0:0:0:0:
385,183,110265,2,0,L|304:178,1,55,2|0,0:0|0:0,0:0:0:0:
283,209,110640,2,0,L|228:211,1,55,8|0,0:0|0:0,0:0:0:0:
172,213,111015,6,0,P|159:177|134:162,1,55,2|0,0:0|0:0,0:0:0:0:
94,150,111390,2,0,P|85:113|98:87,1,55,2|0,0:0|0:0,0:0:0:0:
120,52,111765,2,0,P|153:34|181:40,1,55,2|0,0:0|0:0,0:0:0:0:
220,54,112140,2,0,L|285:50,1,55,8|0,0:0|0:0,0:0:0:0:
315,88,112515,6,0,L|432:94,1,110,2|0,0:0|0:0,0:0:0:0:
475,114,113077,1,2,0:0:0:0:
508,158,113265,2,0,P|516:192|502:231,1,55,2|2,0:0|0:0,0:0:0:0:
474,251,113640,2,0,P|440:259|401:245,1,55,8|2,0:0|0:0,0:0:0:0:
371,230,114015,5,2,0:0:0:0:
324,201,114202,1,2,0:0:0:0:
268,201,114390,2,0,P|240:221|226:249,1,55,8|2,0:0|0:0,0:0:0:0:
229,293,114765,2,0,P|244:315|267:330,1,55,2|2,0:0|0:0,0:0:0:0:
309,365,115140,6,0,P|348:335|411:345,1,110,8|2,0:0|0:0,0:0:0:0:
470,253,115890,2,0,P|451:207|478:148,1,110,2|2,0:0|0:0,0:0:0:0:
417,58,116640,1,8,0:0:0:0:
348,144,117015,6,0,P|295:157|249:130,1,110,4|0,0:0|0:0,0:0:0:0:
215,87,117577,1,0,0:0:0:0:
190,37,117765,2,0,P|163:9|123:88,1,165
154,127,118515,6,0,P|140:176|160:243,1,110,10|2,0:0|0:0,0:0:0:0:
191,271,119077,1,0,0:0:0:0:
243,286,119265,2,0,P|296:276|339:243,1,110,4|0,0:0|0:0,0:0:0:0:
363,193,119827,1,0,0:0:0:0:
412,168,120015,6,0,P|457:136|480:86,1,110,2|2,0:0|0:0,0:0:0:0:
477,32,120577,1,0,0:0:0:0:
423,24,120765,2,0,P|368:33|326:69,1,110,10|2,0:0|0:0,0:0:0:0:
312,121,121327,1,0,0:0:0:0:
293,173,121515,6,0,P|251:207|197:217,1,110,2|2,0:0|0:0,0:0:0:0:
96,173,122265,2,0,B|53:248|76:317|76:317|183:298|267:375|267:375|315:384|349:369|378:335|377:290|337:251|301:267,1,550,14|2,0:0|0:0,0:0:0:0:
403,186,124515,6,0,P|444:224|463:282,1,110,6|2,0:0|0:0,0:0:0:0:
443,325,125077,1,0,0:0:0:0:
398,357,125265,2,0,L|324:353,1,55,10|0,0:0|0:0,0:0:0:0:
291,335,125640,2,0,L|217:338,1,55,10|0,0:0|0:0,0:0:0:0:
184,357,126015,6,0,P|161:299|103:282,1,110,2|0,0:0|0:0,0:0:0:0:
65,286,126577,1,0,0:0:0:0:
11,299,126765,2,0,P|4:272|5:245,1,55,8|0,0:0|0:0,0:0:0:0:
31,196,127140,2,0,P|54:181|81:175,1,55,2|0,0:0|0:0,0:0:0:0:
134,188,127515,6,0,P|163:143|232:143,1,110,4|0,0:0|0:0,0:0:0:0:
256,192,128265,12,4,130515,0:0:0:0:
