osu file format v14

[General]
AudioFilename: audio.mp3
AudioLeadIn: 0
PreviewTime: 32913
Countdown: 0
SampleSet: Soft
StackLeniency: 0.7
Mode: 0
LetterboxInBreaks: 0
WidescreenStoryboard: 0

[Editor]
Bookmarks: 19507,33007,43507,66007,75007,78007,102007,118507,130507
DistanceSpacing: 1.1
BeatDivisor: 4
GridSize: 32
TimelineZoom: 1.6

[Metadata]
Title:Myosotis
TitleUnicode:Myosotis
Artist:M2U & NICODE feat. Guriri & Lucy
ArtistUnicode:M2U & NICODE feat. Guriri & Lucy
Creator:Alvieee
Version:Towards The Stars
Source:
Tags:
BeatmapID:2086891
BeatmapSetID:997724

[Difficulty]
HPDrainRate:5
CircleSize:4.4
OverallDifficulty:8.5
ApproachRate:9.8
SliderMultiplier:1.7
SliderTickRate:1

[Events]
//Background and Video events
0,0,"kiujuzzhrtrgstgrrdt.jpg",0,0
//Break Periods
//Storyboard Layer 0 (Background)
//Storyboard Layer 1 (Fail)
//Storyboard Layer 2 (Pass)
//Storyboard Layer 3 (Foreground)
//Storyboard Sound Samples

[TimingPoints]
1507,375,4,2,1,20,1,0
1507,-333.333333333333,4,2,1,20,0,0
2069,-333.333333333333,4,2,1,5,0,0
2257,-333.333333333333,4,2,1,20,0,0
2819,-333.333333333333,4,2,1,5,0,0
3007,-333.333333333333,4,2,1,20,0,0
4882,-333.333333333333,4,2,1,5,0,0
5257,-333.333333333333,4,2,1,20,0,0
9569,-333.333333333333,4,2,1,5,0,0
9757,-333.333333333333,4,2,1,20,0,0
10882,-333.333333333333,4,2,1,5,0,0
11257,-333.333333333333,4,2,1,20,0,0
12382,-333.333333333333,4,2,1,5,0,0
12757,-333.333333333333,4,2,1,20,0,0
13132,-333.333333333333,4,2,1,5,0,0
13507,-333.333333333333,4,2,1,20,0,0
14069,-333.333333333333,4,2,1,5,0,0
14257,-333.333333333333,4,2,1,20,0,0
19507,-100,4,2,1,40,0,0
19788,-100,4,2,1,5,0,0
19882,-66.6666666666667,4,2,1,40,0,0
21288,-66.6666666666667,4,2,1,5,0,0
21382,-66.6666666666667,4,2,1,40,0,0
23538,-66.6666666666667,4,2,1,5,0,0
23632,-66.6666666666667,4,2,1,40,0,0
25507,-100,4,2,1,40,0,0
25788,-100,4,2,1,5,0,0
25882,-66.6666666666667,4,2,1,40,0,0
26163,-66.6666666666667,4,2,1,5,0,0
26257,-66.6666666666667,4,2,1,40,0,0
26444,-66.6666666666667,4,2,1,20,0,0
26632,-66.6666666666667,4,2,1,40,0,0
26819,-66.6666666666667,4,2,1,5,0,0
27007,-58.8235294117647,4,2,1,40,0,0
27288,-58.8235294117647,4,2,1,5,0,0
27382,-58.8235294117647,4,2,1,40,0,0
27757,-66.6666666666667,4,2,1,40,0,0
27850,-66.6666666666667,4,2,1,5,0,0
27944,-66.6666666666667,4,2,1,40,0,0
28038,-66.6666666666667,4,2,1,5,0,0
28132,-66.6666666666667,4,2,1,40,0,0
28225,-66.6666666666667,4,2,1,5,0,0
28319,-66.6666666666667,4,2,1,40,0,0
29538,-66.6666666666667,4,2,1,5,0,0
29632,-66.6666666666667,4,2,1,40,0,0
30007,-100,4,2,1,40,0,0
30663,-100,4,2,1,20,0,0
31319,-133.333333333333,4,2,1,20,0,0
33007,-250,4,2,1,20,0,0
36757,-200,4,2,1,20,0,0
37038,-200,4,2,1,5,0,0
37132,-200,4,2,1,20,0,0
37788,-200,4,2,1,5,0,0
37882,-200,4,2,1,20,0,0
39007,-142.857142857143,4,2,1,20,0,0
40507,-125,4,2,1,20,0,0
40788,-125,4,2,1,5,0,0
40882,-125,4,2,1,20,0,0
41163,-125,4,2,1,5,0,0
41257,-125,4,2,1,20,0,0
42288,-125,4,2,1,5,0,0
42382,-125,4,2,1,20,0,0
43507,-76.9230769230769,4,2,1,40,0,0
44163,-76.9230769230769,4,2,1,5,0,0
44257,-76.9230769230769,4,2,1,40,0,0
45757,-83.3333333333333,4,2,1,40,0,0
45944,-83.3333333333333,4,2,1,5,0,0
46132,-90.9090909090909,4,2,1,40,0,0
46319,-90.9090909090909,4,2,1,20,0,0
46507,-66.6666666666667,4,2,1,40,0,0
46788,-66.6666666666667,4,2,1,5,0,0
46882,-68.9655172413793,4,2,1,40,0,0
47163,-68.9655172413793,4,2,1,5,0,0
47257,-74.0740740740741,4,2,1,40,0,0
47444,-74.0740740740741,4,2,1,5,0,0
47632,-80,4,2,1,40,0,0
47819,-80,4,2,1,20,0,0
48007,-74.0740740740741,4,2,1,40,0,0
48757,-80,4,2,1,40,0,0
49413,-80,4,2,1,20,0,0
49507,-80,4,2,1,40,0,0
50257,-76.9230769230769,4,2,1,40,0,0
51194,-76.9230769230769,4,2,1,5,0,0
51382,-58.8235294117647,4,2,1,40,0,0
51663,-58.8235294117647,4,2,1,5,0,0
51757,-60.6060606060606,4,2,1,40,0,0
52038,-60.6060606060606,4,2,1,5,0,0
52132,-64.5161290322581,4,2,1,40,0,0
52319,-64.5161290322581,4,2,1,5,0,0
52507,-68.9655172413793,4,2,1,40,0,0
52694,-68.9655172413793,4,2,1,20,0,0
52882,-74.0740740740741,4,2,1,40,0,0
53069,-74.0740740740741,4,2,1,20,0,0
53257,-80,4,2,1,40,0,0
53538,-80,4,2,1,5,0,0
53632,-86.9565217391304,4,2,1,40,0,0
53913,-86.9565217391304,4,2,1,5,0,0
54007,-86.9565217391304,4,2,1,40,0,0
56257,-76.9230769230769,4,2,1,40,0,0
57757,-83.3333333333333,4,2,1,40,0,0
57944,-83.3333333333333,4,2,1,20,0,0
58132,-90.9090909090909,4,2,1,40,0,0
58319,-90.9090909090909,4,2,1,20,0,0
58507,-66.6666666666667,4,2,1,40,0,0
58788,-66.6666666666667,4,2,1,5,0,0
58882,-71.4285714285714,4,2,1,40,0,0
59163,-71.4285714285714,4,2,1,5,0,0
59257,-74.0740740740741,4,2,1,40,0,0
59444,-74.0740740740741,4,2,1,20,0,0
59632,-80,4,2,1,40,0,0
59819,-80,4,2,1,20,0,0
60007,-74.0740740740741,4,2,1,40,0,0
60757,-80,4,2,1,40,0,0
61413,-80,4,2,1,5,0,0
61507,-80,4,2,1,40,0,0
63382,-58.8235294117647,4,2,1,40,0,0
63663,-58.8235294117647,4,2,1,5,0,0
63757,-60.6060606060606,4,2,1,40,0,0
64038,-60.6060606060606,4,2,1,5,0,0
64132,-64.5161290322581,4,2,1,40,0,0
64507,-68.9655172413793,4,2,1,40,0,0
64882,-74.0740740740741,4,2,1,40,0,0
65257,-80,4,2,1,40,0,0
65538,-80,4,2,1,5,0,0
65632,-86.9565217391304,4,2,1,40,0,0
72007,-55.5555555555556,4,2,1,40,0,0
72757,-58.8235294117647,4,2,1,40,0,0
73038,-58.8235294117647,4,2,1,5,0,0
73132,-62.5,4,2,1,40,0,0
73319,-62.5,4,2,1,20,0,0
73507,-66.6666666666667,4,2,1,40,0,0
73694,-66.6666666666667,4,2,1,20,0,0
73882,-62.5,4,2,1,40,0,0
74069,-62.5,4,2,1,20,0,0
74257,-58.8235294117647,4,2,1,40,0,0
77632,-58.8235294117647,4,2,1,5,0,0
78007,-333.333333333333,4,2,1,40,0,0
78663,-333.333333333333,4,2,1,5,0,0
78757,-40,4,2,1,50,0,1
79647,-40,4,2,1,5,0,1
79694,-40,4,2,1,50,0,1
80163,-40,4,2,1,5,0,1
80257,-40,4,2,1,50,0,1
80913,-40,4,2,1,5,0,1
81007,-333.333333333333,4,2,1,50,0,1
81241,-333.333333333333,4,2,1,30,0,1
81382,-40,4,2,1,50,0,1
81663,-40,4,2,1,5,0,1
81757,-40,4,2,1,50,0,1
81991,-40,4,2,1,5,0,1
82038,-40,4,2,1,50,0,1
82272,-40,4,2,1,5,0,1
82319,-34.4827586206897,4,2,1,50,0,1
82553,-34.4827586206897,4,2,1,5,0,1
82600,-34.4827586206897,4,2,1,50,0,1
82647,-34.4827586206897,4,2,1,5,0,1
82694,-34.4827586206897,4,2,1,50,0,1
83491,-34.4827586206897,4,2,1,5,0,1
83538,-34.4827586206897,4,2,1,50,0,1
83772,-34.4827586206897,4,2,1,5,0,1
83819,-34.4827586206897,4,2,1,50,0,1
84007,-333.333333333333,4,2,1,50,0,1
84194,-333.333333333333,4,2,1,5,0,1
84288,-40,4,2,1,50,0,1
85366,-40,4,2,1,5,0,1
85413,-40,4,2,1,50,0,1
85647,-40,4,2,1,5,0,1
85694,-40,4,2,1,50,0,1
86913,-40,4,2,1,5,0,1
87007,-333.333333333333,4,2,1,50,0,1
87288,-333.333333333333,4,2,1,5,0,1
87382,-40,4,2,1,50,0,1
88225,-40,4,2,1,5,0,1
88319,-40,4,2,1,50,0,1
89257,-27.027027027027,4,2,1,50,0,1
89397,-27.027027027027,4,2,1,5,0,1
89444,-27.027027027027,4,2,1,50,0,1
89585,-27.027027027027,4,2,1,5,0,1
89632,-27.027027027027,4,2,1,50,0,1
90007,-333.333333333333,4,2,1,50,0,1
90382,-142.857142857143,4,2,1,50,0,1
90757,-40,4,2,1,50,0,1
91647,-40,4,2,1,5,0,1
91694,-40,4,2,1,50,0,1
92913,-40,4,2,1,5,0,1
93007,-333.333333333333,4,2,1,50,0,1
93382,-40,4,2,1,50,0,1
94319,-34.4827586206897,4,2,1,50,0,1
94553,-34.4827586206897,4,2,1,5,0,1
94600,-34.4827586206897,4,2,1,50,0,1
94647,-34.4827586206897,4,2,1,5,0,1
94694,-34.4827586206897,4,2,1,50,0,1
95491,-34.4827586206897,4,2,1,5,0,1
95538,-34.4827586206897,4,2,1,50,0,1
95772,-34.4827586206897,4,2,1,5,0,1
95819,-34.4827586206897,4,2,1,50,0,1
96007,-333.333333333333,4,2,1,50,0,1
96194,-333.333333333333,4,2,1,20,0,1
96288,-40,4,2,1,50,0,1
97647,-40,4,2,1,5,0,1
97694,-40,4,2,1,50,0,1
98913,-40,4,2,1,5,0,1
99007,-40,4,2,1,50,0,1
99475,-40,4,2,1,5,0,1
99569,-40,4,2,1,50,0,1
99663,-40,4,2,1,5,0,1
99757,-40,4,2,1,50,0,1
100694,-37.037037037037,4,2,1,50,0,1
101257,-66.6666666666667,4,2,1,30,0,1
101350,-66.6666666666667,4,2,1,5,0,1
101444,-66.6666666666667,4,2,1,30,0,1
101538,-66.6666666666667,4,2,1,5,0,1
101632,-66.6666666666667,4,2,1,30,0,1
101725,-66.6666666666667,4,2,1,5,0,1
101819,-66.6666666666667,4,2,1,30,0,1
101913,-66.6666666666667,4,2,1,5,0,1
102007,-66.6666666666667,4,2,1,40,0,0
102757,-100,4,2,1,30,0,0
103413,-100,4,2,1,5,0,0
103507,-100,4,2,1,30,0,0
105944,-100,4,2,1,5,0,0
106132,-100,4,2,1,30,0,0
106413,-100,4,2,1,5,0,0
106507,-100,4,2,1,30,0,0
106694,-100,4,2,1,5,0,0
106882,-100,4,2,1,30,0,0
107069,-100,4,2,1,5,0,0
107257,-100,4,2,1,30,0,0
108007,-100,4,2,1,40,0,0
108288,-100,4,2,1,5,0,0
108382,-100,4,2,1,40,0,0
109507,-100,4,2,1,50,0,0
112507,-76.9230769230769,4,2,1,50,0,0
113350,-76.9230769230769,4,2,1,5,0,0
113444,-76.9230769230769,4,2,1,50,0,0
117007,-133.333333333333,4,2,1,50,0,0
118507,-71.4285714285714,4,2,1,50,0,0
125257,-83.3333333333333,4,2,1,50,0,0
125632,-90.9090909090909,4,2,1,50,0,0
126007,-100,4,2,1,50,0,0
126382,-90.9090909090909,4,2,1,50,0,0
126757,-83.3333333333333,4,2,1,50,0,0
127132,-90.9090909090909,4,2,1,50,0,0
127507,-166.666666666667,4,2,1,50,0,0
128163,-166.666666666667,4,2,1,5,0,0
128257,-100,4,2,1,50,0,0

[Colours]
Combo1 : 0,106,213
Combo2 : 0,85,170
Combo3 : 0,106,213
Combo4 : 0,128,255
Combo5 : 43,149,255
Combo6 : 85,170,255
Combo7 : 43,149,255
Combo8 : 0,128,255

[HitObjects]
126,82,1507,6,0,P|115:128|114:159,1,76.4999976654053,0|0,0:0|0:0,0:0:0:0:
127,198,2257,2,0,P|136:234|139:273,1,76.4999976654053,0|0,0:0|0:0,0:0:0:0:
128,315,3007,5,0,0:0:0:0:
33,316,3382,1,0,0:0:0:0:
0,237,3757,1,0,0:0:0:0:
46,177,4132,1,0,0:0:0:0:
119,186,4507,6,0,P|156:193|178:193,1,50.9999984436036,0|0,0:0|0:0,0:0:0:0:
263,168,5257,1,0,0:0:0:0:
239,72,5632,1,0,0:0:0:0:
326,0,6007,5,0,0:0:0:0:
281,81,6382,1,0,0:0:0:0:
336,147,6757,1,0,0:0:0:0:
406,147,7132,1,0,0:0:0:0:
436,46,7507,5,0,0:0:0:0:
395,122,7882,1,0,0:0:0:0:
433,216,8257,1,0,0:0:0:0:
397,311,8632,1,0,0:0:0:0:
495,384,9007,6,0,P|507:325|504:303,1,76.4999976654053,0|0,0:0|0:0,0:0:0:0:
488,269,9757,2,0,P|476:229|475:218,1,50.9999984436036,0|0,0:0|0:0,0:0:0:0:
489,134,10507,6,0,P|501:94|502:83,1,50.9999984436036,0|0,0:0|0:0,0:0:0:0:
476,0,11257,1,0,0:0:0:0:
414,71,11632,1,0,0:0:0:0:
336,32,12007,6,0,P|298:33|277:37,1,50.9999984436036,0|0,0:0|0:0,0:0:0:0:
204,67,12757,2,0,P|166:66|145:62,1,50.9999984436036,0|0,0:0|0:0,0:0:0:0:
70,37,13507,6,0,P|79:82|78:118,1,76.4999976654053,0|0,0:0|0:0,0:0:0:0:
70,155,14257,6,0,P|66:170|65:182,1,25.4999992218018,0|0,0:0|0:0,0:0:0:0:
146,205,14632,2,0,P|144:192|141:180,1,25.4999992218018,0|0,0:0|0:0,0:0:0:0:
53,144,15007,5,0,0:0:0:0:
40,216,15194,1,0,0:0:0:0:
57,273,15382,1,0,0:0:0:0:
89,304,15569,1,0,0:0:0:0:
123,317,15757,1,0,0:0:0:0:
155,318,15944,1,0,0:0:0:0:
182,310,16132,1,0,0:0:0:0:
336,123,16507,5,0,0:0:0:0:
330,224,16694,1,0,0:0:0:0:
350,233,16788,1,0,0:0:0:0:
370,236,16882,1,0,0:0:0:0:
388,234,16975,1,0,0:0:0:0:
402,228,17069,1,0,0:0:0:0:
413,221,17163,1,0,0:0:0:0:
420,213,17257,1,0,0:0:0:0:
426,206,17350,1,0,0:0:0:0:
430,199,17444,1,0,0:0:0:0:
432,193,17538,1,0,0:0:0:0:
427,168,17632,5,0,0:0:0:0:
402,183,17725,1,0,0:0:0:0:
384,212,17819,1,0,0:0:0:0:
378,248,17913,1,0,0:0:0:0:
382,287,18007,1,0,0:0:0:0:
405,327,18100,1,0,0:0:0:0:
443,357,18194,1,0,0:0:0:0:
512,379,18288,1,0,0:0:0:0:
495,311,18382,1,0,0:0:0:0:
440,276,18475,1,0,0:0:0:0:
377,273,18569,1,0,0:0:0:0:
318,257,18663,1,0,0:0:0:0:
278,215,18757,5,0,0:0:0:0:
273,203,18819,1,0,0:0:0:0:
271,191,18882,1,0,0:0:0:0:
271,180,18944,1,0,0:0:0:0:
272,169,19007,1,0,0:0:0:0:
274,160,19069,1,0,0:0:0:0:
277,152,19132,1,0,0:0:0:0:
280,145,19194,1,0,0:0:0:0:
282,138,19257,1,0,0:0:0:0:
283,132,19319,1,0,0:0:0:0:
283,126,19382,1,0,0:0:0:0:
283,121,19444,1,0,0:0:0:0:
282,117,19507,6,0,P|209:155|148:151,1,127.5,2|0,0:0|0:0,0:0:0:0:
141,138,19882,2,0,P|232:135|310:45,1,191.250007295609,0|0,0:0|0:0,0:0:0:0:
303,39,20257,6,0,P|306:90|351:150,1,127.500004863739,8|0,0:0|0:0,0:0:0:0:
512,0,20632,2,0,P|439:22|393:73,1,127.500004863739,0|0,0:0|0:0,0:0:0:0:
482,278,21007,6,0,B|461:227|416:214|416:214|368:198|348:144,1,191.250007295609,2|0,0:0|0:0,0:0:0:0:
348,119,21382,2,0,P|344:180|304:232,1,127.500004863739,0|0,0:0|0:0,0:0:0:0:
278,243,21663,1,0,0:0:0:0:
257,169,21757,6,0,P|258:149|274:102,1,63.7500024318696,8|0,0:0|0:0,0:0:0:0:
482,278,21944,2,0,P|449:294|422:298,1,63.7500024318696,0|0,0:0|0:0,0:0:0:0:
323,44,22132,1,0,0:0:0:0:
196,317,22319,1,0,0:0:0:0:
180,282,22413,1,0,0:0:0:0:
177,241,22507,6,0,P|190:176|214:140,1,63.7500024318696,2|0,0:0|0:0,0:0:0:0:
188,0,22694,1,0,0:0:0:0:
132,43,22788,1,0,0:0:0:0:
112,97,22882,1,0,0:0:0:0:
116,141,22975,1,0,0:0:0:0:
129,176,23069,1,0,0:0:0:0:
147,202,23163,1,0,0:0:0:0:
172,220,23257,6,0,B|211:254|263:244|263:244|319:235|355:267,1,191.250007295609,8|0,0:0|0:0,0:0:0:0:
278,335,23632,1,0,0:0:0:0:
262,300,23725,1,0,0:0:0:0:
259,262,23819,1,0,0:0:0:0:
264,230,23913,1,0,0:0:0:0:
281,203,24007,6,0,P|310:127|269:19,1,191.250007295609,2|0,0:0|0:0,0:0:0:0:
188,99,24382,1,0,0:0:0:0:
156,120,24475,1,0,0:0:0:0:
122,129,24569,1,0,0:0:0:0:
90,131,24663,1,0,0:0:0:0:
58,124,24757,6,0,B|17:113|-5:77,1,63.7500024318696,8|0,0:0|0:0,0:0:0:0:
209,175,24944,2,0,B|224:210|222:247,1,63.7500024318696,0|0,0:0|0:0,0:0:0:0:
89,61,25132,2,0,B|87:34|102:0,1,63.7500024318696,0|0,0:0|0:0,0:0:0:0:
148,216,25319,2,0,P|121:247|70:263,1,63.7500024318696,0|0,0:0|0:0,0:0:0:0:
255,26,25507,6,0,B|290:37|305:64|305:64|320:91|355:101,1,127.5,2|0,0:0|0:0,0:0:0:0:
376,119,25882,2,0,B|315:109|293:70|293:70|283:53|253:26|202:28,1,191.250007295609,0|0,0:0|0:0,0:0:0:0:
185,29,26257,6,0,P|189:97|236:153,1,127.500004863739,8|0,0:0|0:0,0:0:0:0:
497,122,26632,2,0,P|416:105|354:134,1,127.500004863739,0|0,0:0|0:0,0:0:0:0:
245,384,27007,6,0,B|264:335|321:311|321:311|372:288|379:222,1,216.750004134178,2|0,0:0|0:0,0:0:0:0:
229,190,27382,1,0,0:0:0:0:
223,219,27475,1,0,0:0:0:0:
226,247,27569,1,0,0:0:0:0:
451,384,27757,6,0,P|440:338|417:309,1,63.7500024318696,8|0,0:0|0:0,0:0:0:0:
169,297,27944,2,0,P|202:318|245:317,1,63.7500024318696,0|0,0:0|0:0,0:0:0:0:
484,273,28132,2,0,P|438:253|406:252,1,63.7500024318696,0|0,0:0|0:0,0:0:0:0:
263,384,28319,1,0,0:0:0:0:
404,87,28507,6,0,P|428:190|386:283,1,191.250007295609,2|0,0:0|0:0,0:0:0:0:
298,337,28882,1,0,0:0:0:0:
282,302,28975,1,0,0:0:0:0:
279,264,29069,1,0,0:0:0:0:
284,232,29163,1,0,0:0:0:0:
301,205,29257,6,0,P|345:163|498:168,1,191.250007295609,8|0,0:0|0:0,0:0:0:0:
460,253,29632,1,0,0:0:0:0:
421,256,29725,1,0,0:0:0:0:
384,245,29819,1,0,0:0:0:0:
356,230,29913,1,0,0:0:0:0:
336,205,30007,6,0,B|281:123|330:45|330:45|337:140|280:159,1,297.5,2|0,0:0|0:0,0:0:0:0:
200,162,30757,5,0,0:0:0:0:
179,157,30850,1,0,0:0:0:0:
159,148,30944,1,0,0:0:0:0:
140,134,31038,1,0,0:0:0:0:
121,123,31132,1,0,0:0:0:0:
100,118,31225,1,0,0:0:0:0:
78,118,31319,2,0,B|143:164|138:256|138:256|136:323|176:373|176:373|171:277|235:227,1,446.250017023087,0|0,0:0|0:0,0:0:0:0:
25,384,33007,6,0,P|7:355|0:322,1,68,0|0,0:0|0:0,0:0:0:0:
78,118,33757,6,0,P|78:143|74:159,1,34,0|0,0:0|0:0,0:0:0:0:
4,231,34132,2,0,P|20:221|38:217,1,34,0|0,0:0|0:0,0:0:0:0:
147,221,34507,2,0,P|187:228|214:241,1,68,0|0,0:0|0:0,0:0:0:0:
211,239,35069,1,0,0:0:0:0:
285,310,35257,6,0,P|322:303|359:285,1,68,0|0,0:0|0:0,0:0:0:0:
349,290,35819,1,0,0:0:0:0:
425,226,36007,6,0,P|458:231|489:245,1,68,0|0,0:0|0:0,0:0:0:0:
489,245,36569,1,0,0:0:0:0:
383,152,36757,6,0,P|378:102|383:73,1,63.75,0|0,0:0|0:0,0:0:0:0:
385,69,37132,2,0,P|389:55|405:28,1,42.5,0|0,0:0|0:0,0:0:0:0:
512,75,37507,6,0,P|483:90|449:98,1,63.75,0|0,0:0|0:0,0:0:0:0:
434,99,37882,1,0,0:0:0:0:
324,97,38069,1,0,0:0:0:0:
331,92,38131,1,0,0:0:0:0:
338,88,38194,1,0,0:0:0:0:
346,86,38257,6,0,P|303:73|259:75,1,85,0|0,0:0|0:0,0:0:0:0:
36,181,39007,6,0,P|52:137|37:54,1,118.999996368408,0|0,0:0|0:0,0:0:0:0:
212,224,39757,5,0,0:0:0:0:
151,167,39944,1,0,0:0:0:0:
67,278,40132,5,0,0:0:0:0:
139,253,40319,1,0,0:0:0:0:
162,88,40507,6,0,P|96:117|74:154,1,102,0|0,0:0|0:0,0:0:0:0:
74,158,40882,2,0,P|119:174|183:161,1,102,0|0,0:0|0:0,0:0:0:0:
190,157,41257,1,0,0:0:0:0:
32,0,41632,5,0,0:0:0:0:
88,63,41819,1,0,0:0:0:0:
22,139,42007,6,0,P|9:189|20:260,1,102,0|0,0:0|0:0,0:0:0:0:
20,256,42382,1,0,0:0:0:0:
78,207,42569,1,0,0:0:0:0:
2,272,42757,6,0,P|7:299|33:340,1,68,0|0,0:0|0:0,0:0:0:0:
168,240,43132,2,0,P|128:265|106:294,1,68,0|0,0:0|0:0,0:0:0:0:
210,384,43507,6,0,B|265:309|228:195|228:195|213:154|210:104|257:84|311:106|298:164,1,386.749982295991,2|0,0:0|0:0,0:0:0:0:
291,177,44257,2,0,P|248:239|97:277,1,220.999989883423,8|0,0:0|0:0,0:0:0:0:
14,241,44819,1,0,0:0:0:0:
291,304,45007,6,0,P|219:278|144:142,1,220.999989883423,2|0,0:0|0:0,0:0:0:0:
257,181,45569,1,0,0:0:0:0:
274,0,45757,6,0,P|284:59|275:104,1,101.999996887207,8|0,0:0|0:0,0:0:0:0:
65,150,46132,2,0,P|90:107|132:78,1,93.5000028533936,0|0,0:0|0:0,0:0:0:0:
417,82,46507,6,0,P|467:43|379:31,1,191.250007295609,2|0,0:0|0:0,0:0:0:0:
376,29,46882,2,0,B|400:75|381:125|381:125|366:166|394:215,1,184.875005641937
400,224,47257,6,0,P|339:192|282:191,1,114.750000437737,8|0,0:0|0:0,0:0:0:0:
422,374,47632,2,0,P|490:341|515:308,1,106.25,0|0,0:0|0:0,0:0:0:0:
264,115,48007,6,0,B|211:154|213:221|213:221|216:281|168:317,1,229.500000875473,2|0,0:0|0:0,0:0:0:0:
55,343,48569,1,0,0:0:0:0:
93,135,48757,6,0,P|125:184|133:239,1,106.25,8|0,0:0|0:0,0:0:0:0:
135,258,49038,1,0,0:0:0:0:
135,258,49132,2,0,P|72:250|5:178,1,159.375,0|0,0:0|0:0,0:0:0:0:
1,165,49507,6,0,B|33:118|99:111|99:111|165:103|186:42|186:42|130:56|85:34,1,318.75,2|0,0:0|0:0,0:0:0:0:
183,184,50257,6,0,P|271:199|364:297,1,220.999989883423,8|0,0:0|0:0,0:0:0:0:
297,384,50819,1,0,0:0:0:0:
421,222,51007,6,0,P|442:282|440:343,1,110.499994941712,2|0,0:0|0:0,0:0:0:0:
183,184,51382,2,0,B|183:108|254:72|254:72|279:107|270:155,1,216.750004134178,0|0,0:0|0:0,0:0:0:0:
266,161,51757,6,0,B|321:191|374:166|374:166|425:142|483:172,1,210.375002006292,8|0,0:0|0:0,0:0:0:0:
485,174,52132,2,0,P|418:169|354:202,1,131.750001005173,0|0,0:0|0:0,0:0:0:0:
397,384,52507,6,0,P|435:322|443:262,1,123.250003761292,2|0,0:0|0:0,0:0:0:0:
226,173,52882,2,0,P|236:237|273:291,1,114.750000437737,0|0,0:0|0:0,0:0:0:0:
395,163,53257,6,0,P|334:186|269:273,1,159.375,8|0,0:0|0:0,0:0:0:0:
277,279,53632,2,0,P|320:213|388:177,1,146.62500279665,0|0,0:0|0:0,0:0:0:0:
394,190,54007,6,0,P|405:245|396:299,1,97.7500018644333,2|0,0:0|0:0,0:0:0:0:
244,384,54382,5,2,0:0:0:0:
244,384,54569,1,2,0:0:0:0:
366,72,54757,5,8,0:0:0:0:
166,309,54944,1,2,0:0:0:0:
191,307,55038,1,2,0:0:0:0:
216,305,55132,1,8,0:0:0:0:
38,231,55319,1,2,0:0:0:0:
337,292,55507,6,0,B|338:238|299:207|299:207|256:170|265:104,1,195.500003728867,2|0,0:0|0:0,0:0:0:0:
275,0,56069,1,0,0:0:0:0:
365,141,56257,6,0,P|330:202|190:263,1,220.999989883423,8|0,0:0|0:0,0:0:0:0:
320,69,56819,1,0,0:0:0:0:
386,263,57007,6,0,P|282:228|218:140,1,220.999989883423,2|0,0:0|0:0,0:0:0:0:
189,0,57569,1,0,0:0:0:0:
161,208,57757,6,0,P|109:237|57:238,1,101.999996887207,8|0,0:0|0:0,0:0:0:0:
0,58,58132,2,0,P|52:83|79:118,1,93.5000028533936,0|0,0:0|0:0,0:0:0:0:
15,360,58507,6,0,B|14:306|53:275|53:275|96:238|87:171,1,191.250007295609,2|0,0:0|0:0,0:0:0:0:
85,171,58882,2,0,P|19:203|93:230,1,178.499994552612,0|0,0:0|0:0,0:0:0:0:
101,240,59257,6,0,P|43:256|5:204,1,114.750000437737,8|0,0:0|0:0,0:0:0:0:
85,67,59632,2,0,P|95:126|79:183,1,106.25,0|0,0:0|0:0,0:0:0:0:
0,0,60007,6,0,B|60:4|97:51|97:51|138:98|205:83,1,229.500000875473,2|0,0:0|0:0,0:0:0:0:
310,39,60569,1,0,0:0:0:0:
151,162,60757,6,0,P|145:236|163:276,1,106.25,8|0,0:0|0:0,0:0:0:0:
170,284,61038,1,0,0:0:0:0:
170,284,61132,2,0,P|233:239|252:134,1,159.375,0|0,0:0|0:0,0:0:0:0:
257,144,61507,6,0,B|253:215|304:248|304:248|362:143|303:43,1,318.75,2|0,0:0|0:0,0:0:0:0:
362,296,62257,6,0,P|400:207|401:84,1,212.5,8|0,0:0|0:0,0:0:0:0:
252,0,62819,1,0,0:0:0:0:
495,45,63007,6,0,P|445:81|383:93,1,106.25,2|0,0:0|0:0,0:0:0:0:
169,0,63382,2,0,P|253:36|304:149,1,216.750004134178,0|0,0:0|0:0,0:0:0:0:
302,164,63757,6,0,B|242:170|213:216|213:216|184:268|119:267,1,210.375002006292,8|0,0:0|0:0,0:0:0:0:
107,268,64132,2,0,P|173:237|206:184,1,131.750001005173,0|0,0:0|0:0,0:0:0:0:
78,0,64507,6,0,P|71:70|94:127,1,123.250003761292,2|0,0:0|0:0,0:0:0:0:
279,151,64882,2,0,P|231:119|172:113,1,114.750000437737,0|0,0:0|0:0,0:0:0:0:
149,339,65257,6,0,P|228:332|297:272,1,159.375,8|0,0:0|0:0,0:0:0:0:
291,264,65632,2,0,P|234:316|159:331,1,146.62500279665,0|0,0:0|0:0,0:0:0:0:
147,318,66007,5,2,0:0:0:0:
365,66,66382,1,2,0:0:0:0:
32,192,66757,1,2,0:0:0:0:
480,192,67132,1,2,0:0:0:0:
96,96,67507,5,2,0:0:0:0:
416,288,67882,1,2,0:0:0:0:
160,0,68257,1,2,0:0:0:0:
352,384,68632,1,2,0:0:0:0:
190,67,69007,5,2,0:0:0:0:
323,311,69194,1,2,0:0:0:0:
181,46,69382,1,2,0:0:0:0:
241,341,69569,1,2,0:0:0:0:
404,62,69757,5,2,0:0:0:0:
33,275,69944,1,2,0:0:0:0:
427,50,70132,1,2,0:0:0:0:
0,192,70319,1,2,0:0:0:0:
465,127,70507,1,2,0:0:0:0:
469,148,70600,1,2,0:0:0:0:
471,170,70694,1,2,0:0:0:0:
470,192,70788,1,2,0:0:0:0:
465,214,70882,1,2,0:0:0:0:
456,234,70975,1,2,0:0:0:0:
444,253,71069,1,2,0:0:0:0:
434,273,71163,1,2,0:0:0:0:
427,294,71257,1,2,0:0:0:0:
423,315,71350,1,2,0:0:0:0:
423,338,71444,1,2,0:0:0:0:
426,360,71538,1,2,0:0:0:0:
431,380,71632,6,0,B|386:376|386:376|368:382|368:382|312:376,1,97.7500018644333,8|0,0:0|0:0,0:0:0:0:
256,32,72007,6,0,B|277:96|256:160|256:160|233:224|256:288|256:288|274:223|327:192|327:192|358:224|367:264,1,458.999985992432,2|0,0:0|0:0,0:0:0:0:
225,384,72757,6,0,P|183:296|179:166,1,216.750004134178,8|0,0:0|0:0,0:0:0:0:
183,161,73132,2,0,P|139:230|85:259,1,136,0|0,0:0|0:0,0:0:0:0:
6,0,73507,6,0,P|62:36|91:88,1,127.500004863739,2|0,0:0|0:0,0:0:0:0:
3,272,73882,2,0,P|23:211|80:169,1,136,0|0,0:0|0:0,0:0:0:0:
360,243,74257,6,0,B|302:235|265:277|265:277|230:324|175:315|175:315|204:283|210:236,1,289.000005512238,8|0,0:0|0:0,0:0:0:0:
209,244,75007,5,2,0:0:0:0:
256,192,75100,12,0,77632,0:0:0:0:
243,66,78007,6,0,P|234:111|239:157,1,89.2499972763062,2|0,0:0|0:0,0:0:0:0:
245,175,78757,6,0,B|380:180|380:180|410:191|410:191|520:197|520:197|497:157|497:157|491:134|491:134|472:96|472:96|430:138,1,425,8|0,0:0|0:0,0:0:0:0:
336,328,79319,5,0,0:0:0:0:
321,308,79413,2,0,B|323:260|323:260|329:244|329:244|332:184,1,106.25,0|2,0:0|0:0,0:0:0:0:
269,48,79600,6,0,L|265:109,1,53.125,0|0,0:0|0:0,0:0:0:0:
256,69,79694,2,0,B|254:117|254:117|248:133|248:133|245:193,1,106.25,0|0,0:0|0:0,0:0:0:0:
169,309,79882,6,0,B|312:302|312:302|349:284|349:284|496:275,1,318.75,8|0,0:0|0:0,0:0:0:0:
323,136,80257,6,0,B|325:184|325:184|331:200|331:200|334:260,1,106.25,8|0,0:0|0:0,0:0:0:0:
502,384,80444,2,0,B|504:342|504:342|510:326|510:326|512:278,1,106.25,2|0,0:0|0:0,0:0:0:0:
304,54,80632,6,0,B|259:86|201:68|201:68|222:87|251:94|251:94|231:130|249:172|249:172|263:213|243:267,1,318.75,8|0,0:0|0:0,0:0:0:0:
244,262,81007,6,0,P|225:264|210:261,1,31.8749990272522,2|0,0:0|0:0,0:0:0:0:
97,310,81382,2,0,B|194:358|281:372|311:330|318:253|236:221|197:278,1,318.75,0|0,0:0|0:0,0:0:0:0:
197,273,81757,6,0,B|195:225|195:225|189:209|189:209|186:149,1,106.25,8|0,0:0|0:0,0:0:0:0:
373,89,81944,6,0,L|431:94,1,53.125,0|0,0:0|0:0,0:0:0:0:
371,112,82038,2,0,B|369:160|369:160|363:176|363:176|360:236,1,106.25,2|0,0:0|0:0,0:0:0:0:
256,116,82225,6,0,L|198:121,1,53.125,0|0,0:0|0:0,0:0:0:0:
258,137,82319,2,0,B|260:185|260:185|266:201|266:201|269:282|269:282|276:301|276:301|280:371|280:371|180:352|180:352|195:332,1,308.125009403229,2|0,0:0|0:0,0:0:0:0:
190,352,82600,2,0,L|121:361,1,61.6250018806458,0|0,0:0|0:0,0:0:0:0:
129,214,82694,6,0,B|190:221|190:221|211:229|211:229|263:234,1,123.250003761292,8|0,0:0|0:0,0:0:0:0:
512,326,82882,2,0,B|451:333|451:333|430:341|430:341|378:346,1,123.250003761292,2|0,0:0|0:0,0:0:0:0:
85,375,83069,5,2,0:0:0:0:
95,289,83163,1,2,0:0:0:0:
105,202,83257,2,0,B|166:195|166:195|187:187|187:187|226:183,1,123.250003761292,8|0,0:0|0:0,0:0:0:0:
61,114,83444,6,0,L|125:107,1,61.6250018806458,2|0,0:0|0:0,0:0:0:0:
84,125,83538,2,0,B|145:118|145:118|166:110|166:110|218:105,1,123.250003761292,2|8,0:0|0:0,0:0:0:0:
421,7,83725,6,0,L|357:0,1,61.6250018806458,0|0,0:0|0:0,0:0:0:0:
398,18,83819,2,0,B|337:11|337:11|316:3|316:3|264:-2,1,123.250003761292,2|0,0:0|0:0,0:0:0:0:
19,26,84007,6,0,P|20:31|19:58,1,25.4999992218018,2|0,0:0|0:0,0:0:0:0:
25,145,84288,2,0,B|43:150|59:159|59:159|75:155|90:146|90:146|111:149|131:160|131:160|157:163|183:157|183:157|210:156|232:164,1,212.5,2|0,0:0|0:0,0:0:0:0:
490,165,84569,2,0,B|492:131|501:111|501:111|501:82|492:60,1,106.25,0|0,0:0|0:0,0:0:0:0:
333,255,84757,5,8,0:0:0:0:
417,265,84850,1,0,0:0:0:0:
500,270,84944,2,0,B|498:222|498:222|492:206|492:206|489:146,1,106.25,0|0,0:0|0:0,0:0:0:0:
306,0,85132,2,0,B|304:48|304:48|298:64|298:64|295:124,1,106.25,0|0,0:0|0:0,0:0:0:0:
251,235,85319,6,0,L|308:243,1,53.125,0|0,0:0|0:0,0:0:0:0:
252,261,85413,2,0,B|254:309|254:309|260:325|260:325|263:385,1,106.25,0|2,0:0|0:0,0:0:0:0:
150,131,85600,6,0,L|207:123,1,53.125,0|0,0:0|0:0,0:0:0:0:
151,105,85694,2,0,B|153:57|153:57|159:41|159:41|162:-19,1,106.25,2|2,0:0|0:0,0:0:0:0:
0,0,85882,6,0,B|4:46|4:46|11:62|11:62|22:234,1,212.5,8|0,0:0|0:0,0:0:0:0:
23,232,86163,1,2,0:0:0:0:
33,334,86257,5,8,0:0:0:0:
116,323,86350,1,2,0:0:0:0:
200,312,86444,1,2,0:0:0:0:
284,302,86538,1,2,0:0:0:0:
368,292,86632,6,0,B|413:226|427:122|394:71|293:81|274:169|345:199,1,318.75,8|0,0:0|0:0,0:0:0:0:
328,210,87007,6,0,P|306:212|289:218,1,38.2499988327027,2|0,0:0|0:0,0:0:0:0:
240,302,87382,2,0,B|288:304|288:304|304:310|304:310|364:313,1,106.25,0|0,0:0|0:0,0:0:0:0:
512,384,87569,5,0,0:0:0:0:
503,299,87663,1,0,0:0:0:0:
494,213,87757,2,0,B|491:171|491:171|485:155|485:155|483:107,1,106.25,8|0,0:0|0:0,0:0:0:0:
329,384,87944,6,0,B|287:381|287:381|271:375|271:375|226:374|226:374|162:353|134:295|169:234|252:238|269:311|226:335,1,318.75,2|0,0:0|0:0,0:0:0:0:
329,384,88319,2,0,B|328:359|342:326|342:326|342:297|330:268,1,106.25,0|0,0:0|0:0,0:0:0:0:
229,48,88507,5,2,0:0:0:0:
229,48,88694,6,0,B|227:96|227:96|221:112|221:112|218:153,1,106.25,8|0,0:0|0:0,0:0:0:0:
430,317,88882,2,0,B|428:269|428:269|422:253|422:253|419:212,1,106.25,2|0,0:0|0:0,0:0:0:0:
145,59,89069,5,2,0:0:0:0:
229,48,89163,1,2,0:0:0:0:
313,38,89257,6,0,B|200:31|200:31|169:37|169:37|66:29,1,235.874999100208,8|0,0:0|0:0,0:0:0:0:
0,119,89444,2,0,B|113:112|113:112|144:118|144:118|247:110,1,235.874999100208,2|0,0:0|0:0,0:0:0:0:
346,187,89632,6,0,B|292:183|292:183|241:194|241:194|213:189|213:189|160:198|160:198|113:193|113:193|121:247|121:247|117:267|117:267|128:332|128:332|191:289|191:289|185:244,1,471.749998200417,8|0,0:0|0:0,0:0:0:0:
206,263,90007,6,0,P|206:283|210:301,1,38.2499988327027,2|0,0:0|0:0,0:0:0:0:
228,318,90382,6,0,P|227:271|216:227,1,89.2499972763062,2|0,0:0|0:0,0:0:0:0:
331,95,90757,5,8,0:0:0:0:
325,179,90850,1,0,0:0:0:0:
319,264,90944,2,0,B|367:266|367:266|383:272|383:272|443:275,1,106.25,0|0,0:0|0:0,0:0:0:0:
417,65,91132,5,0,0:0:0:0:
333,71,91225,1,0,0:0:0:0:
248,77,91319,1,0,0:0:0:0:
162,82,91413,1,0,0:0:0:0:
253,384,91600,6,0,L|256:330,1,53.125,0|0,0:0|0:0,0:0:0:0:
235,370,91694,2,0,B|237:322|237:322|243:306|243:306|246:246,1,106.25,2|2,0:0|0:0,0:0:0:0:
125,20,91882,6,0,B|132:133|132:133|126:164|126:164|133:261,1,212.5,8|2,0:0|0:0,0:0:0:0:
132,254,92163,1,2,0:0:0:0:
9,339,92257,5,8,0:0:0:0:
19,255,92350,1,2,0:0:0:0:
30,170,92444,1,2,0:0:0:0:
41,85,92538,1,2,0:0:0:0:
53,0,92632,6,0,B|98:32|156:14|156:14|135:33|106:40|106:40|126:76|108:118|108:118|94:159|114:213,1,318.75,8|0,0:0|0:0,0:0:0:0:
115,209,93007,6,0,P|116:189|119:171,1,38.2499988327027,2|0,0:0|0:0,0:0:0:0:
206,80,93382,5,0,0:0:0:0:
212,164,93475,1,0,0:0:0:0:
219,248,93569,2,0,B|267:250|267:250|283:256|283:256|343:259,1,106.25,0|0,0:0|0:0,0:0:0:0:
479,58,93757,5,8,0:0:0:0:
395,64,93850,1,0,0:0:0:0:
311,71,93944,1,0,0:0:0:0:
227,78,94038,1,2,0:0:0:0:
141,82,94132,6,0,B|143:130|143:130|149:146|149:146|152:206,1,106.25,0|0,0:0|0:0,0:0:0:0:
289,325,94319,6,0,B|291:277|291:277|297:261|297:261|300:180|300:180|307:161|307:161|311:91|311:91|211:110,1,308.125009403229,2|0,0:0|0:0,0:0:0:0:
219,109,94600,2,0,L|149:101,1,61.6250018806458,0|0,0:0|0:0,0:0:0:0:
110,218,94694,6,0,B|158:216|158:216|174:210|174:210|238:206,1,123.250003761292,8|0,0:0|0:0,0:0:0:0:
472,342,94882,2,0,B|424:340|424:340|408:334|408:334|343:330,1,123.250003761292,2|0,0:0|0:0,0:0:0:0:
27,309,95069,5,2,0:0:0:0:
113,299,95163,1,2,0:0:0:0:
200,289,95257,2,0,B|207:228|207:228|215:207|215:207|219:168,1,123.250003761292,8|0,0:0|0:0,0:0:0:0:
106,0,95444,6,0,L|113:64,1,61.6250018806458,2|0,0:0|0:0,0:0:0:0:
95,23,95538,2,0,B|102:84|102:84|110:105|110:105|115:157,1,123.250003761292,2|8,0:0|0:0,0:0:0:0:
220,332,95725,6,0,L|227:268,1,61.6250018806458,0|0,0:0|0:0,0:0:0:0:
209,309,95819,2,0,B|216:248|216:248|224:227|224:227|229:175,1,123.250003761292,2|0,0:0|0:0,0:0:0:0:
26,70,96007,6,0,P|24:85|24:101,1,25.4999992218018,2|0,0:0|0:0,0:0:0:0:
43,229,96288,2,0,B|70:221|94:221|94:221|111:214|111:214|135:213|161:204|161:204|150:240|152:281|152:281|137:267|110:257,1,212.5,2|0,0:0|0:0,0:0:0:0:
217,384,96569,6,0,B|219:336|219:336|225:320|225:320|228:260,1,106.25,8|0,0:0|0:0,0:0:0:0:
412,100,96757,5,8,0:0:0:0:
418,184,96850,1,0,0:0:0:0:
424,269,96944,2,0,B|376:271|376:271|360:277|360:277|300:280,1,106.25,0|2,0:0|0:0,0:0:0:0:
157,58,97132,5,0,0:0:0:0:
241,64,97225,1,0,0:0:0:0:
325,71,97319,1,2,0:0:0:0:
409,78,97413,1,0,0:0:0:0:
259,384,97600,6,0,L|256:330,1,53.125,0|0,0:0|0:0,0:0:0:0:
277,370,97694,2,0,B|275:322|275:322|269:306|269:306|266:246,1,106.25,2|2,0:0|0:0,0:0:0:0:
387,20,97882,6,0,B|380:133|380:133|386:164|386:164|379:261,1,212.5,8|2,0:0|0:0,0:0:0:0:
380,254,98163,1,2,0:0:0:0:
503,339,98257,5,8,0:0:0:0:
493,255,98350,1,2,0:0:0:0:
482,170,98444,1,2,0:0:0:0:
471,85,98538,1,2,0:0:0:0:
454,3,98632,6,0,B|374:-2|277:36|249:90|308:173|394:145|384:69,1,318.75,8|0,0:0|0:0,0:0:0:0:
200,59,99007,2,0,B|226:83|228:105|228:105|210:128|207:150|207:150|219:179|219:206|219:206|219:236|226:265,1,212.5,2|0,0:0|0:0,0:0:0:0:
34,0,99382,6,2,B|32:19|38:35|38:35|32:43|23:51|23:51|28:83|20:111,1,106.25,2|2,0:0|0:0,0:0:0:0:
115,30,99569,2,0,B|113:49|119:65|119:65|113:73|104:81|104:81|109:113|101:141,1,106.25,2|0,0:0|0:0,0:0:0:0:
200,59,99757,1,8,0:0:0:0:
0,274,99944,6,0,B|48:272|48:272|64:266|64:266|124:263,1,106.25,0|0,0:0|0:0,0:0:0:0:
352,384,100132,5,0,0:0:0:0:
268,378,100225,1,0,0:0:0:0:
184,371,100319,1,2,0:0:0:0:
208,367,100413,1,2,0:0:0:0:
231,363,100507,1,2,0:0:0:0:
473,297,100694,6,0,B|477:243|477:243|466:192|466:192|471:164|471:164|462:111|462:111|467:64|467:64|403:88|403:88|374:89|374:89|307:111|307:111|390:205|390:205|400:155,1,573.750002188683,8|2,0:0|0:0,0:0:0:0:
320,29,101257,6,0,L|255:49,1,63.7500024318696,8|0,0:0|0:0,0:0:0:0:
115,88,101444,2,0,L|180:108,1,63.7500024318696,0|0,0:0|0:0,0:0:0:0:
342,40,101632,2,0,L|277:60,1,63.7500024318696,0|0,0:0|0:0,0:0:0:0:
97,103,101819,2,0,L|162:123,1,63.7500024318696,0|0,0:0|0:0,0:0:0:0:
346,183,102007,5,0,0:0:0:0:
0,71,102382,1,0,0:0:0:0:
236,148,102663,1,0,0:0:0:0:
240,170,102757,2,0,L|232:227,1,42.5,0|0,0:0|0:0,0:0:0:0:
324,314,102944,2,0,L|314:255,1,42.5
213,86,103132,6,0,L|238:233,1,127.5
238,232,103507,5,2,0:0:0:0:
0,384,103882,2,0,B|-18:338|0:302|0:302|21:258|-2:205,1,170,0|8,0:0|0:0,0:0:0:0:
3,218,104632,2,0,P|57:210|89:183,1,85,0|0,0:0|0:0,0:0:0:0:
93,0,105007,6,0,P|53:36|28:154,1,170,2|0,0:0|0:0,0:0:0:0:
162,211,105569,1,0,0:0:0:0:
162,211,105663,1,0,0:0:0:0:
162,211,105757,2,0,P|153:163|121:122,1,85,8|0,0:0|0:0,0:0:0:0:
105,296,106132,2,0,P|162:316|230:295,1,127.5,0|0,0:0|0:0,0:0:0:0:
243,287,106507,6,0,P|300:268|346:278,1,85,2|0,0:0|0:0,0:0:0:0:
462,384,106882,2,0,P|419:384|381:367,1,85,0|0,0:0|0:0,0:0:0:0:
432,181,107257,2,0,B|450:135|432:99|432:99|411:55|434:2,1,170,8|0,0:0|0:0,0:0:0:0:
310,79,107819,1,0,0:0:0:0:
512,252,108007,6,0,L|370:268,1,127.5,2|0,0:0|0:0,0:0:0:0:
364,269,108382,1,0,0:0:0:0:
310,79,108569,1,0,0:0:0:0:
332,81,108663,1,0,0:0:0:0:
353,83,108757,6,0,L|406:86,1,42.5,8|0,0:0|0:0,0:0:0:0:
309,159,108944,2,0,L|362:162,1,42.5,0|0,0:0|0:0,0:0:0:0:
165,0,109132,2,0,L|112:3,1,42.5,0|0,0:0|0:0,0:0:0:0:
209,76,109319,2,0,L|156:79,1,42.5,0|0,0:0|0:0,0:0:0:0:
398,11,109507,6,0,B|457:14|457:14|479:45|464:79|464:79|452:108|462:135,1,170,10|0,0:0|0:0,0:0:0:0:
499,311,110069,1,8,0:0:0:0:
501,289,110163,1,0,0:0:0:0:
503,268,110257,6,0,L|506:215,1,42.5,0|0,0:0|0:0,0:0:0:0:
380,123,110444,1,8,0:0:0:0:
507,203,110632,1,8,0:0:0:0:
273,172,110819,1,8,0:0:0:0:
512,60,111007,5,10,0:0:0:0:
198,202,111194,1,8,0:0:0:0:
491,68,111382,1,0,0:0:0:0:
123,168,111569,1,8,0:0:0:0:
410,297,111757,5,0,0:0:0:0:
47,134,111944,1,8,0:0:0:0:
389,289,112132,1,8,0:0:0:0:
57,48,112319,1,8,0:0:0:0:
377,366,112507,6,0,B|387:340|419:326|419:326|378:343|342:325|342:325|298:304|245:327,1,220.999989883423,10|0,0:0|0:0,0:0:0:0:
23,384,113069,1,8,0:0:0:0:
21,362,113163,1,0,0:0:0:0:
19,341,113257,2,0,L|14:279,1,55.2499974708558
0,125,113444,1,8,0:0:0:0:
105,333,113632,5,0,0:0:0:0:
70,36,113819,1,8,0:0:0:0:
109,355,114007,5,10,0:0:0:0:
0,102,114194,1,0,0:0:0:0:
169,281,114382,6,0,P|223:283|283:262,1,110.499994941712,0|8,0:0|0:0,0:0:0:0:
66,196,114757,1,0,0:0:0:0:
343,217,114944,5,8,0:0:0:0:
363,208,115038,1,0,0:0:0:0:
396,204,115132,1,0,0:0:0:0:
433,211,115225,1,0,0:0:0:0:
477,212,115319,1,10,0:0:0:0:
511,175,115413,1,0,0:0:0:0:
510,119,115507,6,0,B|490:156|504:200|504:200|518:242|496:285|496:285|492:255|475:226,1,220.999989883423,2|0,0:0|0:0,0:0:0:0:
222,287,116070,1,8,0:0:0:0:
265,245,116163,1,0,0:0:0:0:
325,236,116257,6,0,P|381:251|422:286,1,110.499994941712,0|8,0:0|0:0,0:0:0:0:
348,80,116632,1,8,0:0:0:0:
502,384,116819,1,8,0:0:0:0:
221,142,117007,6,0,B|175:160|139:142|139:142|95:121|37:148|37:148|68:125|80:95,1,255.000009727478,2|0,0:0|0:0,0:0:0:0:
440,138,118507,6,0,B|451:88|413:64|379:96|417:165|417:165|446:215|415:263,1,237.999992736817,2|0,0:0|0:0,0:0:0:0:
89,250,119257,6,0,B|66:215|95:165|95:165|133:96|99:64|61:88|72:138,1,237.999992736817,2|0,0:0|0:0,0:0:0:0:
422,250,120007,6,0,B|421:287|378:318|337:310|337:310|346:294|350:278|350:278|292:284|253:240,1,237.999992736817,2|0,0:0|0:0,0:0:0:0:
90,134,120757,6,0,B|91:97|134:66|175:74|175:74|166:90|162:106|162:106|220:100|259:144,1,237.999992736817,2|0,0:0|0:0,0:0:0:0:
241,384,121507,6,0,B|231:368|213:357|213:357|234:334|237:297|237:297|183:252|186:170,1,237.999992736817,2|0,0:0|0:0,0:0:0:0:
271,0,122257,6,0,B|280:15|298:26|298:26|277:49|274:86|274:86|328:131|325:213,1,237.999992736817,2|0,0:0|0:0,0:0:0:0:
56,166,123007,6,0,B|130:117|216:143|216:143|172:141|136:171,1,237.999992736817,2|0,0:0|0:0,0:0:0:0:
456,218,123757,6,0,B|382:267|295:240|295:240|340:243|376:213,1,237.999992736817,2|0,0:0|0:0,0:0:0:0:
256,32,124507,6,0,B|281:89|256:150|256:150|229:211|259:267,1,237.999992736817,2|0,0:0|0:0,0:0:0:0:
512,278,125257,2,0,P|449:252|402:256,1,101.999996887207
355,371,125632,2,0,P|403:359|439:325,1,93.5000028533936,0|0,0:0|0:0,0:0:0:0:
416,252,126007,6,0,P|421:308|445:340,1,85,2|0,0:0|0:0,0:0:0:0:
436,331,126382,2,0,P|388:343|352:377,1,93.5000028533936,0|0,0:0|0:0,0:0:0:0:
236,384,126757,6,0,P|174:380|132:354,1,101.999996887207,0|0,0:0|0:0,0:0:0:0:
162,198,127132,2,0,P|189:225|210:289,1,93.5000028533936,0|0,0:0|0:0,0:0:0:0:
70,339,127507,6,0,P|94:254|168:195,1,178.499994552612,2|0,0:0|0:0,0:0:0:0:
181,192,128257,6,0,B|121:197|81:241|81:241|163:201|259:235|259:235|369:273|426:245|426:245|346:177|361:89|361:89|350:151|318:177|318:177|286:119|301:26|301:26|286:113|237:137,1,1020,0|0,0:0|0:0,0:0:0:0:
