osu file format v14

[General]
AudioFilename: audio.mp3
AudioLeadIn: 0
PreviewTime: 42555
Countdown: 0
SampleSet: Soft
StackLeniency: 0.4
Mode: 0
LetterboxInBreaks: 0
EpilepsyWarning: 1
WidescreenStoryboard: 1

[Editor]
DistanceSpacing: 0.9
BeatDivisor: 8
GridSize: 4
TimelineZoom: 3.299999

[Metadata]
Title:Myosotis (feat. Guriri, Lucy) (Full Mix)
TitleUnicode:Myosotis (feat. グリリ, Lucy) (Full Mix)
Artist:M2U & NICODE
ArtistUnicode:M2U & NICODE
Creator:Minorsonek
Version:Per Ardua Ad Astra
Source:Deemo
Tags:DIVERSITY. rhythm video game electronic latin english vip remix DTM9_Nowa DTM9 Nowa RVMathew Ambrew Seulgij Erasome
BeatmapID:1950026
BeatmapSetID:934061

[Difficulty]
HPDrainRate:5
CircleSize:4.4
OverallDifficulty:8.8
ApproachRate:9.4
SliderMultiplier:2
SliderTickRate:1

[Events]
//Background and Video events
0,0,"Konachan.com - 254149 bow brown_hair dress instrument long_hair moryapanima original pantyhose paper piano ribbons signed wings.jpg",0,0
//Break Periods
//Storyboard Layer 0 (Background)
//Storyboard Layer 1 (Fail)
//Storyboard Layer 2 (Pass)
//Storyboard Layer 3 (Foreground)
Sprite,Foreground,Centre,"sb\ring.png",0,0 M,0,12558,,474,241 F,0,12558,12933,0.5,0 S,0,12558,12933,0.25,0.4
Sprite,Foreground,Centre,"sb\ring.png",0,0 M,0,13120,,490,353 F,0,13120,13495,0.5,0 S,0,13120,13495,0.25,0.4
Sprite,Foreground,Centre,"sb\ring.png",0,0 M,0,13495,,199,424 F,0,13495,13870,0.5,0 S,0,13495,13870,0.25,0.4
Sprite,Foreground,Centre,"sb\ring.png",0,0 M,0,13683,,188,343 F,0,13683,14058,0.5,0 S,0,13683,14058,0.25,0.4
Sprite,Foreground,Centre,"sb\ring.png",0,0 M,0,13870,,230,275 F,0,13870,14245,0.5,0 S,0,13870,14245,0.25,0.4
Sprite,Foreground,Centre,"sb\ring.png",0,0 M,0,14058,,379,317 F,0,14058,14433,0.5,0 S,0,14058,14433,0.25,0.4
Sprite,Foreground,Centre,"sb\ring.png",0,0 M,0,14245,,268,345 F,0,14245,14620,0.5,0 S,0,14245,14620,0.25,0.4
Sprite,Foreground,Centre,"sb\ring.png",0,0 M,0,14433,,440,367 F,0,14433,14808,0.5,0 S,0,14433,14808,0.25,0.4
Sprite,Foreground,Centre,"sb\ring.png",0,0 M,0,14620,,312,275 F,0,14620,14995,0.5,0 S,0,14620,14995,0.25,0.4
Sprite,Foreground,Centre,"sb\ring.png",0,0 M,0,14808,,363,396 F,0,14808,15183,0.5,0 S,0,14808,15183,0.25,0.4
Sprite,Foreground,Centre,"sb\ring.png",0,0 M,0,14995,,380,240 F,0,14995,15370,0.5,0 S,0,14995,15370,0.25,0.4
Sprite,Foreground,Centre,"sb\ring.png",0,0 M,0,15183,,288,416 F,0,15183,15558,0.5,0 S,0,15183,15558,0.25,0.4
Sprite,Foreground,Centre,"sb\ring.png",0,0 M,0,15558,,532,100 F,0,15558,15933,0.5,0 S,0,15558,15933,0.25,0.4
Sprite,Foreground,Centre,"sb\ring.png",0,0 M,0,15745,,504,231 F,0,15745,16120,0.5,0 S,0,15745,16120,0.25,0.4
Sprite,Foreground,Centre,"sb\ring.png",0,0 M,0,15839,,506,245 F,0,15839,16214,0.5,0 S,0,15839,16214,0.25,0.4
Sprite,Foreground,Centre,"sb\ring.png",0,0 M,0,15933,,482,269 F,0,15933,16308,0.5,0 S,0,15933,16308,0.25,0.4
Sprite,Foreground,Centre,"sb\ring.png",0,0 M,0,16026,,480,283 F,0,16026,16401,0.5,0 S,0,16026,16401,0.25,0.4
Sprite,Foreground,Centre,"sb\ring.png",0,0 M,0,16120,,501,312 F,0,16120,16495,0.5,0 S,0,16120,16495,0.25,0.4
Sprite,Foreground,Centre,"sb\ring.png",0,0 M,0,16214,,503,326 F,0,16214,16589,0.5,0 S,0,16214,16589,0.25,0.4
Sprite,Foreground,Centre,"sb\ring.png",0,0 M,0,16308,,480,352 F,0,16308,16683,0.5,0 S,0,16308,16683,0.25,0.4
Sprite,Foreground,Centre,"sb\ring.png",0,0 M,0,16495,,323,405 F,0,16495,16870,0.5,0 S,0,16495,16870,0.25,0.4
Sprite,Foreground,Centre,"sb\ring.png",0,0 M,0,16683,,151,350 F,0,16683,17058,0.5,0 S,0,16683,17058,0.25,0.4
Sprite,Foreground,Centre,"sb\ring.png",0,0 M,0,16776,,142,308 F,0,16776,17151,0.5,0 S,0,16776,17151,0.25,0.4
Sprite,Foreground,Centre,"sb\ring.png",0,0 M,0,16870,,177,288 F,0,16870,17245,0.5,0 S,0,16870,17245,0.25,0.4
Sprite,Foreground,Centre,"sb\ring.png",0,0 M,0,16964,,209,316 F,0,16964,17339,0.5,0 S,0,16964,17339,0.25,0.4
Sprite,Foreground,Centre,"sb\ring.png",0,0 M,0,17058,,192,353 F,0,17058,17433,0.5,0 S,0,17058,17433,0.25,0.4
Sprite,Foreground,Centre,"sb\ring.png",0,0 M,0,17151,,151,350 F,0,17151,17526,0.5,0 S,0,17151,17526,0.25,0.4
Sprite,Foreground,Centre,"sb\ring.png",0,0 M,0,17245,,129,283 F,0,17245,17620,0.5,0 S,0,17245,17620,0.25,0.4
Sprite,Foreground,Centre,"sb\ring.png",0,0 M,0,17339,,178,215 F,0,17339,17714,0.5,0 S,0,17339,17714,0.25,0.4
Sprite,Foreground,Centre,"sb\ring.png",0,0 M,0,17433,,270,215 F,0,17433,17808,0.5,0 S,0,17433,17808,0.25,0.4
Sprite,Foreground,Centre,"sb\ring.png",0,0 M,0,17526,,325,289 F,0,17526,17901,0.5,0 S,0,17526,17901,0.25,0.4
Sprite,Foreground,Centre,"sb\ring.png",0,0 M,0,17620,,412,314 F,0,17620,17995,0.5,0 S,0,17620,17995,0.25,0.4
Sprite,Foreground,Centre,"sb\ring.png",0,0 M,0,17714,,490,276 F,0,17714,18089,0.5,0 S,0,17714,18089,0.25,0.4
Sprite,Foreground,Centre,"sb\ring.png",0,0 M,0,17808,,502,180 F,0,17808,18183,0.5,0 S,0,17808,18183,0.25,0.4
Sprite,Foreground,Centre,"sb\ring.png",0,0 M,0,17933,,496,150 F,0,17933,18308,0.5,0 S,0,17933,18308,0.25,0.4
Sprite,Foreground,Centre,"sb\ring.png",0,0 M,0,18058,,467,140 F,0,18058,18433,0.5,0 S,0,18058,18433,0.25,0.4
Sprite,Foreground,Centre,"sb\ring.png",0,0 M,0,18183,,442,159 F,0,18183,18558,0.5,0 S,0,18183,18558,0.25,0.4
Sprite,Foreground,Centre,"sb\ring.png",0,0 M,0,18308,,447,189 F,0,18308,18683,0.5,0 S,0,18308,18683,0.25,0.4
Sprite,Foreground,Centre,"sb\ring.png",0,0 M,0,18433,,477,199 F,0,18433,18808,0.5,0 S,0,18433,18808,0.25,0.4
Sprite,Foreground,Centre,"sb\ring.png",0,0 M,0,18558,,537,83 F,0,18558,18933,0.5,0 S,0,18558,18933,0.25,0.4
Sprite,Foreground,Centre,"sb\diamond.png",0,0 V,15,19308,19683,0.2941873,0.2941873,0,0.2941873 M,0,19308,20808,366,397,321,444 F,1,19308,20808,1,0 V,16,19683,20058,0,0.2941873,0.2941873,0.2941873 V,15,20058,20433,0.2941873,0.2941873,0,0.2941873 V,16,20433,20808,0,0.2941873,0.2941873,0.2941873
Sprite,Foreground,Centre,"sb\diamond.png",0,0 V,15,19308,19683,0.2834997,0.2834997,0,0.2834997 M,0,19308,20808,366,397,379,452 F,1,19308,20808,1,0 V,16,19683,20058,0,0.2834997,0.2834997,0.2834997 V,15,20058,20433,0.2834997,0.2834997,0,0.2834997 V,16,20433,20808,0,0.2834997,0.2834997,0.2834997
Sprite,Foreground,Centre,"sb\diamond.png",0,0 V,15,19308,19683,0.2063877,0.2063877,0,0.2063877 M,0,19308,20808,366,397,323,416 F,1,19308,20808,1,0 V,16,19683,20058,0,0.2063877,0.2063877,0.2063877 V,15,20058,20433,0.2063877,0.2063877,0,0.2063877 V,16,20433,20808,0,0.2063877,0.2063877,0.2063877
Sprite,Foreground,Centre,"sb\diamond.png",0,0 V,15,20808,21183,0.2676018,0.2676018,0,0.2676018 M,0,20808,22308,231,284,208,260 F,1,20808,22308,1,0 V,16,21183,21558,0,0.2676018,0.2676018,0.2676018 V,15,21558,21933,0.2676018,0.2676018,0,0.2676018 V,16,21933,22308,0,0.2676018,0.2676018,0.2676018
Sprite,Foreground,Centre,"sb\diamond.png",0,0 V,15,20808,21183,0.2540986,0.2540986,0,0.2540986 M,0,20808,22308,231,284,239,274 F,1,20808,22308,1,0 V,16,21183,21558,0,0.2540986,0.2540986,0.2540986 V,15,21558,21933,0.2540986,0.2540986,0,0.2540986 V,16,21933,22308,0,0.2540986,0.2540986,0.2540986
Sprite,Foreground,Centre,"sb\diamond.png",0,0 V,15,20808,21183,0.1512118,0.1512118,0,0.1512118 M,0,20808,22308,231,284,185,262 F,1,20808,22308,1,0 V,16,21183,21558,0,0.1512118,0.1512118,0.1512118 V,15,21558,21933,0.1512118,0.1512118,0,0.1512118 V,16,21933,22308,0,0.1512118,0.1512118,0.1512118
Sprite,Foreground,Centre,"sb\diamond.png",0,0 V,15,22308,22683,0.2867059,0.2867059,0,0.2867059 M,0,22308,23808,259,271,306,289 F,1,22308,23808,1,0 V,16,22683,23058,0,0.2867059,0.2867059,0.2867059 V,15,23058,23433,0.2867059,0.2867059,0,0.2867059 V,16,23433,23808,0,0.2867059,0.2867059,0.2867059
Sprite,Foreground,Centre,"sb\diamond.png",0,0 V,15,22308,22683,0.2920628,0.2920628,0,0.2920628 M,0,22308,23808,259,271,208,325 F,1,22308,23808,1,0 V,16,22683,23058,0,0.2920628,0.2920628,0.2920628 V,15,23058,23433,0.2920628,0.2920628,0,0.2920628 V,16,23433,23808,0,0.2920628,0.2920628,0.2920628
Sprite,Foreground,Centre,"sb\diamond.png",0,0 V,15,22308,22683,0.2733614,0.2733614,0,0.2733614 M,0,22308,23808,259,271,212,274 F,1,22308,23808,1,0 V,16,22683,23058,0,0.2733614,0.2733614,0.2733614 V,15,23058,23433,0.2733614,0.2733614,0,0.2733614 V,16,23433,23808,0,0.2733614,0.2733614,0.2733614
Sprite,Foreground,Centre,"sb\diamond.png",0,0 V,15,23808,24183,0.2274093,0.2274093,0,0.2274093 M,0,23808,25308,462,309,478,284 F,1,23808,25308,1,0 V,16,24183,24558,0,0.2274093,0.2274093,0.2274093 V,15,24558,24933,0.2274093,0.2274093,0,0.2274093 V,16,24933,25308,0,0.2274093,0.2274093,0.2274093
Sprite,Foreground,Centre,"sb\diamond.png",0,0 V,15,23808,24183,0.197202,0.197202,0,0.197202 M,0,23808,25308,462,309,407,294 F,1,23808,25308,1,0 V,16,24183,24558,0,0.197202,0.197202,0.197202 V,15,24558,24933,0.197202,0.197202,0,0.197202 V,16,24933,25308,0,0.197202,0.197202,0.197202
Sprite,Foreground,Centre,"sb\diamond.png",0,0 V,15,23808,24183,0.1855397,0.1855397,0,0.1855397 M,0,23808,25308,462,309,414,264 F,1,23808,25308,1,0 V,16,24183,24558,0,0.1855397,0.1855397,0.1855397 V,15,24558,24933,0.1855397,0.1855397,0,0.1855397 V,16,24933,25308,0,0.1855397,0.1855397,0.1855397
Sprite,Foreground,Centre,"sb\diamond.png",0,0 V,15,23808,24183,0.1898306,0.1898306,0,0.1898306 M,0,23808,25308,462,309,449,349 F,1,23808,25308,1,0 V,16,24183,24558,0,0.1898306,0.1898306,0.1898306 V,15,24558,24933,0.1898306,0.1898306,0,0.1898306 V,16,24933,25308,0,0.1898306,0.1898306,0.1898306
Sprite,Foreground,Centre,"sb\diamond.png",0,0 V,15,25308,25683,0.1517601,0.1517601,0,0.1517601 M,0,25308,26808,551,334,556,301 F,1,25308,26808,1,0 V,16,25683,26058,0,0.1517601,0.1517601,0.1517601 V,15,26058,26433,0.1517601,0.1517601,0,0.1517601 V,16,26433,26808,0,0.1517601,0.1517601,0.1517601
Sprite,Foreground,Centre,"sb\diamond.png",0,0 V,15,25308,25683,0.2535706,0.2535706,0,0.2535706 M,0,25308,26808,551,334,495,304 F,1,25308,26808,1,0 V,16,25683,26058,0,0.2535706,0.2535706,0.2535706 V,15,26058,26433,0.2535706,0.2535706,0,0.2535706 V,16,26433,26808,0,0.2535706,0.2535706,0.2535706
Sprite,Foreground,Centre,"sb\diamond.png",0,0 V,15,25308,25683,0.1831788,0.1831788,0,0.1831788 M,0,25308,26808,551,334,556,291 F,1,25308,26808,1,0 V,16,25683,26058,0,0.1831788,0.1831788,0.1831788 V,15,26058,26433,0.1831788,0.1831788,0,0.1831788 V,16,26433,26808,0,0.1831788,0.1831788,0.1831788
Sprite,Foreground,Centre,"sb\diamond.png",0,0 V,15,25308,25683,0.2942404,0.2942404,0,0.2942404 M,0,25308,26808,551,334,510,370 F,1,25308,26808,1,0 V,16,25683,26058,0,0.2942404,0.2942404,0.2942404 V,15,26058,26433,0.2942404,0.2942404,0,0.2942404 V,16,26433,26808,0,0.2942404,0.2942404,0.2942404
Sprite,Foreground,Centre,"sb\diamond.png",0,0 V,15,26808,27183,0.15771,0.15771,0,0.15771 M,0,26808,28308,164,373,201,331 F,1,26808,28308,1,0 V,16,27183,27558,0,0.15771,0.15771,0.15771 V,15,27558,27933,0.15771,0.15771,0,0.15771 V,16,27933,28308,0,0.15771,0.15771,0.15771
Sprite,Foreground,Centre,"sb\diamond.png",0,0 V,15,26808,27183,0.2743219,0.2743219,0,0.2743219 M,0,26808,28308,164,373,133,408 F,1,26808,28308,1,0 V,16,27183,27558,0,0.2743219,0.2743219,0.2743219 V,15,27558,27933,0.2743219,0.2743219,0,0.2743219 V,16,27933,28308,0,0.2743219,0.2743219,0.2743219
Sprite,Foreground,Centre,"sb\diamond.png",0,0 V,15,26808,27183,0.2511662,0.2511662,0,0.2511662 M,0,26808,28308,164,373,195,371 F,1,26808,28308,1,0 V,16,27183,27558,0,0.2511662,0.2511662,0.2511662 V,15,27558,27933,0.2511662,0.2511662,0,0.2511662 V,16,27933,28308,0,0.2511662,0.2511662,0.2511662
Sprite,Foreground,Centre,"sb\diamond.png",0,0 V,15,26808,27183,0.2522322,0.2522322,0,0.2522322 M,0,26808,28308,164,373,190,322 F,1,26808,28308,1,0 V,16,27183,27558,0,0.2522322,0.2522322,0.2522322 V,15,27558,27933,0.2522322,0.2522322,0,0.2522322 V,16,27933,28308,0,0.2522322,0.2522322,0.2522322
Sprite,Foreground,Centre,"sb\diamond.png",0,0 V,15,28308,28683,0.168837,0.168837,0,0.168837 M,0,28308,29808,390,324,452,288 F,1,28308,29808,1,0 V,16,28683,29058,0,0.168837,0.168837,0.168837 V,15,29058,29433,0.168837,0.168837,0,0.168837 V,16,29433,29808,0,0.168837,0.168837,0.168837
Sprite,Foreground,Centre,"sb\diamond.png",0,0 V,15,28308,28683,0.2738387,0.2738387,0,0.2738387 M,0,28308,29808,390,324,398,265 F,1,28308,29808,1,0 V,16,28683,29058,0,0.2738387,0.2738387,0.2738387 V,15,29058,29433,0.2738387,0.2738387,0,0.2738387 V,16,29433,29808,0,0.2738387,0.2738387,0.2738387
Sprite,Foreground,Centre,"sb\diamond.png",0,0 V,15,28308,28683,0.1640233,0.1640233,0,0.1640233 M,0,28308,29808,390,324,393,288 F,1,28308,29808,1,0 V,16,28683,29058,0,0.1640233,0.1640233,0.1640233 V,15,29058,29433,0.1640233,0.1640233,0,0.1640233 V,16,29433,29808,0,0.1640233,0.1640233,0.1640233
Sprite,Foreground,Centre,"sb\diamond.png",0,0 V,15,28308,28683,0.1912993,0.1912993,0,0.1912993 M,0,28308,29808,390,324,446,306 F,1,28308,29808,1,0 V,16,28683,29058,0,0.1912993,0.1912993,0.1912993 V,15,29058,29433,0.1912993,0.1912993,0,0.1912993 V,16,29433,29808,0,0.1912993,0.1912993,0.1912993
Sprite,Foreground,Centre,"sb\ring.png",0,0 M,0,37308,,459,214 C,0,37308,,255,165,0 F,0,37308,37683,1,0 S,0,37308,37683,0.25,0.7
Sprite,Foreground,Centre,"sb\ring.png",0,0 M,0,37683,,178,288 C,0,37683,,255,165,0 F,0,37683,38058,1,0 S,0,37683,38058,0.25,0.7
Sprite,Foreground,Centre,"sb\ring.png",0,0 M,0,39558,,102,401 C,0,39558,,255,165,0 F,0,39558,39933,1,0 S,0,39558,39933,0.25,0.7
Sprite,Foreground,Centre,"sb\ring.png",0,0 M,0,39933,,269,346 C,0,39933,,255,165,0 F,0,39933,40308,1,0 S,0,39933,40308,0.25,0.7
Sprite,Foreground,Centre,"sb\ring.png",0,0 M,0,40308,,100,290 C,0,40308,,255,165,0 F,0,40308,40683,1,0 S,0,40308,40683,0.25,0.7
Sprite,Foreground,Centre,"sb\diamond.png",0,0 V,15,43308,43683,0.260742,0.260742,0,0.260742 M,0,43308,44808,66,221,90,165 F,1,43308,44808,1,0 V,16,43683,44058,0,0.260742,0.260742,0.260742 V,15,44058,44433,0.260742,0.260742,0,0.260742 V,16,44433,44808,0,0.260742,0.260742,0.260742
Sprite,Foreground,Centre,"sb\diamond.png",0,0 V,15,43308,43683,0.1978082,0.1978082,0,0.1978082 M,0,43308,44808,66,221,43,284 F,1,43308,44808,1,0 V,16,43683,44058,0,0.1978082,0.1978082,0.1978082 V,15,44058,44433,0.1978082,0.1978082,0,0.1978082 V,16,44433,44808,0,0.1978082,0.1978082,0.1978082
Sprite,Foreground,Centre,"sb\diamond.png",0,0 V,15,43308,43683,0.2552318,0.2552318,0,0.2552318 M,0,43308,44808,66,221,46,284 F,1,43308,44808,1,0 V,16,43683,44058,0,0.2552318,0.2552318,0.2552318 V,15,44058,44433,0.2552318,0.2552318,0,0.2552318 V,16,44433,44808,0,0.2552318,0.2552318,0.2552318
Sprite,Foreground,Centre,"sb\diamond.png",0,0 V,15,44808,45183,0.2079069,0.2079069,0,0.2079069 M,0,44808,46308,427,125,465,93 F,1,44808,46308,1,0 V,16,45183,45558,0,0.2079069,0.2079069,0.2079069 V,15,45558,45933,0.2079069,0.2079069,0,0.2079069 V,16,45933,46308,0,0.2079069,0.2079069,0.2079069
Sprite,Foreground,Centre,"sb\diamond.png",0,0 V,15,44808,45183,0.2047233,0.2047233,0,0.2047233 M,0,44808,46308,427,125,439,166 F,1,44808,46308,1,0 V,16,45183,45558,0,0.2047233,0.2047233,0.2047233 V,15,45558,45933,0.2047233,0.2047233,0,0.2047233 V,16,45933,46308,0,0.2047233,0.2047233,0.2047233
Sprite,Foreground,Centre,"sb\diamond.png",0,0 V,15,44808,45183,0.1842397,0.1842397,0,0.1842397 M,0,44808,46308,427,125,367,66 F,1,44808,46308,1,0 V,16,45183,45558,0,0.1842397,0.1842397,0.1842397 V,15,45558,45933,0.1842397,0.1842397,0,0.1842397 V,16,45933,46308,0,0.1842397,0.1842397,0.1842397
Sprite,Foreground,Centre,"sb\diamond.png",0,0 V,15,46308,46683,0.1901703,0.1901703,0,0.1901703 M,0,46308,47808,64,169,122,131 F,1,46308,47808,1,0 V,16,46683,47058,0,0.1901703,0.1901703,0.1901703 V,15,47058,47433,0.1901703,0.1901703,0,0.1901703 V,16,47433,47808,0,0.1901703,0.1901703,0.1901703
Sprite,Foreground,Centre,"sb\diamond.png",0,0 V,15,46308,46683,0.1776778,0.1776778,0,0.1776778 M,0,46308,47808,64,169,108,119 F,1,46308,47808,1,0 V,16,46683,47058,0,0.1776778,0.1776778,0.1776778 V,15,47058,47433,0.1776778,0.1776778,0,0.1776778 V,16,47433,47808,0,0.1776778,0.1776778,0.1776778
Sprite,Foreground,Centre,"sb\diamond.png",0,0 V,15,46308,46683,0.226764,0.226764,0,0.226764 M,0,46308,47808,64,169,63,227 F,1,46308,47808,1,0 V,16,46683,47058,0,0.226764,0.226764,0.226764 V,15,47058,47433,0.226764,0.226764,0,0.226764 V,16,47433,47808,0,0.226764,0.226764,0.226764
Sprite,Foreground,Centre,"sb\diamond.png",0,0 V,15,47808,48183,0.2752781,0.2752781,0,0.2752781 M,0,47808,49308,493,412,472,404 F,1,47808,49308,1,0 V,16,48183,48558,0,0.2752781,0.2752781,0.2752781 V,15,48558,48933,0.2752781,0.2752781,0,0.2752781 V,16,48933,49308,0,0.2752781,0.2752781,0.2752781
Sprite,Foreground,Centre,"sb\diamond.png",0,0 V,15,47808,48183,0.1657233,0.1657233,0,0.1657233 M,0,47808,49308,493,412,482,413 F,1,47808,49308,1,0 V,16,48183,48558,0,0.1657233,0.1657233,0.1657233 V,15,48558,48933,0.1657233,0.1657233,0,0.1657233 V,16,48933,49308,0,0.1657233,0.1657233,0.1657233
Sprite,Foreground,Centre,"sb\diamond.png",0,0 V,15,47808,48183,0.2340992,0.2340992,0,0.2340992 M,0,47808,49308,493,412,461,438 F,1,47808,49308,1,0 V,16,48183,48558,0,0.2340992,0.2340992,0.2340992 V,15,48558,48933,0.2340992,0.2340992,0,0.2340992 V,16,48933,49308,0,0.2340992,0.2340992,0.2340992
Sprite,Foreground,Centre,"sb\diamond.png",0,0 V,15,47808,48183,0.1572769,0.1572769,0,0.1572769 M,0,47808,49308,493,412,513,435 F,1,47808,49308,1,0 V,16,48183,48558,0,0.1572769,0.1572769,0.1572769 V,15,48558,48933,0.1572769,0.1572769,0,0.1572769 V,16,48933,49308,0,0.1572769,0.1572769,0.1572769
Sprite,Foreground,Centre,"sb\diamond.png",0,0 V,15,49308,49683,0.2483836,0.2483836,0,0.2483836 M,0,49308,50808,160,242,98,270 F,1,49308,50808,1,0 V,16,49683,50058,0,0.2483836,0.2483836,0.2483836 V,15,50058,50433,0.2483836,0.2483836,0,0.2483836 V,16,50433,50808,0,0.2483836,0.2483836,0.2483836
Sprite,Foreground,Centre,"sb\diamond.png",0,0 V,15,49308,49683,0.1582109,0.1582109,0,0.1582109 M,0,49308,50808,160,242,101,187 F,1,49308,50808,1,0 V,16,49683,50058,0,0.1582109,0.1582109,0.1582109 V,15,50058,50433,0.1582109,0.1582109,0,0.1582109 V,16,50433,50808,0,0.1582109,0.1582109,0.1582109
Sprite,Foreground,Centre,"sb\diamond.png",0,0 V,15,49308,49683,0.1749776,0.1749776,0,0.1749776 M,0,49308,50808,160,242,115,218 F,1,49308,50808,1,0 V,16,49683,50058,0,0.1749776,0.1749776,0.1749776 V,15,50058,50433,0.1749776,0.1749776,0,0.1749776 V,16,50433,50808,0,0.1749776,0.1749776,0.1749776
Sprite,Foreground,Centre,"sb\diamond.png",0,0 V,15,49308,49683,0.2811429,0.2811429,0,0.2811429 M,0,49308,50808,160,242,134,215 F,1,49308,50808,1,0 V,16,49683,50058,0,0.2811429,0.2811429,0.2811429 V,15,50058,50433,0.2811429,0.2811429,0,0.2811429 V,16,50433,50808,0,0.2811429,0.2811429,0.2811429
Sprite,Foreground,Centre,"sb\diamond.png",0,0 V,15,50808,51183,0.2639651,0.2639651,0,0.2639651 M,0,50808,52308,466,162,463,100 F,1,50808,52308,1,0 V,16,51183,51558,0,0.2639651,0.2639651,0.2639651 V,15,51558,51933,0.2639651,0.2639651,0,0.2639651 V,16,51933,52308,0,0.2639651,0.2639651,0.2639651
Sprite,Foreground,Centre,"sb\diamond.png",0,0 V,15,50808,51183,0.2895961,0.2895961,0,0.2895961 M,0,50808,52308,466,162,482,204 F,1,50808,52308,1,0 V,16,51183,51558,0,0.2895961,0.2895961,0.2895961 V,15,51558,51933,0.2895961,0.2895961,0,0.2895961 V,16,51933,52308,0,0.2895961,0.2895961,0.2895961
Sprite,Foreground,Centre,"sb\diamond.png",0,0 V,15,50808,51183,0.2560711,0.2560711,0,0.2560711 M,0,50808,52308,466,162,492,161 F,1,50808,52308,1,0 V,16,51183,51558,0,0.2560711,0.2560711,0.2560711 V,15,51558,51933,0.2560711,0.2560711,0,0.2560711 V,16,51933,52308,0,0.2560711,0.2560711,0.2560711
Sprite,Foreground,Centre,"sb\diamond.png",0,0 V,15,50808,51183,0.1704008,0.1704008,0,0.1704008 M,0,50808,52308,466,162,425,152 F,1,50808,52308,1,0 V,16,51183,51558,0,0.1704008,0.1704008,0.1704008 V,15,51558,51933,0.1704008,0.1704008,0,0.1704008 V,16,51933,52308,0,0.1704008,0.1704008,0.1704008
Sprite,Foreground,Centre,"sb\diamond.png",0,0 V,15,52308,52683,0.2758312,0.2758312,0,0.2758312 M,0,52308,53808,208,351,264,380 F,1,52308,53808,1,0 V,16,52683,53058,0,0.2758312,0.2758312,0.2758312 V,15,53058,53433,0.2758312,0.2758312,0,0.2758312 V,16,53433,53808,0,0.2758312,0.2758312,0.2758312
Sprite,Foreground,Centre,"sb\diamond.png",0,0 V,15,52308,52683,0.2670672,0.2670672,0,0.2670672 M,0,52308,53808,208,351,182,333 F,1,52308,53808,1,0 V,16,52683,53058,0,0.2670672,0.2670672,0.2670672 V,15,53058,53433,0.2670672,0.2670672,0,0.2670672 V,16,53433,53808,0,0.2670672,0.2670672,0.2670672
Sprite,Foreground,Centre,"sb\diamond.png",0,0 V,15,52308,52683,0.2907456,0.2907456,0,0.2907456 M,0,52308,53808,208,351,177,311 F,1,52308,53808,1,0 V,16,52683,53058,0,0.2907456,0.2907456,0.2907456 V,15,53058,53433,0.2907456,0.2907456,0,0.2907456 V,16,53433,53808,0,0.2907456,0.2907456,0.2907456
Sprite,Foreground,Centre,"sb\diamond.png",0,0 V,15,52308,52683,0.2529563,0.2529563,0,0.2529563 M,0,52308,53808,208,351,265,340 F,1,52308,53808,1,0 V,16,52683,53058,0,0.2529563,0.2529563,0.2529563 V,15,53058,53433,0.2529563,0.2529563,0,0.2529563 V,16,53433,53808,0,0.2529563,0.2529563,0.2529563
Sprite,Foreground,Centre,"sb\diamond.png",0,0 V,15,53808,54183,0.2852404,0.2852404,0,0.2852404 M,0,53808,55308,470,103,431,102 F,1,53808,55308,1,0 V,16,54183,54558,0,0.2852404,0.2852404,0.2852404 V,15,54558,54933,0.2852404,0.2852404,0,0.2852404 V,16,54933,55308,0,0.2852404,0.2852404,0.2852404
Sprite,Foreground,Centre,"sb\diamond.png",0,0 V,15,53808,54183,0.2587875,0.2587875,0,0.2587875 M,0,53808,55308,470,103,456,153 F,1,53808,55308,1,0 V,16,54183,54558,0,0.2587875,0.2587875,0.2587875 V,15,54558,54933,0.2587875,0.2587875,0,0.2587875 V,16,54933,55308,0,0.2587875,0.2587875,0.2587875
Sprite,Foreground,Centre,"sb\diamond.png",0,0 V,15,53808,54183,0.2021398,0.2021398,0,0.2021398 M,0,53808,55308,470,103,448,113 F,1,53808,55308,1,0 V,16,54183,54558,0,0.2021398,0.2021398,0.2021398 V,15,54558,54933,0.2021398,0.2021398,0,0.2021398 V,16,54933,55308,0,0.2021398,0.2021398,0.2021398
Sprite,Foreground,Centre,"sb\diamond.png",0,0 V,15,55308,55683,0.2955654,0.2955654,0,0.2955654 M,0,55308,56808,105,80,154,116 F,1,55308,56808,1,0 V,16,55683,56058,0,0.2955654,0.2955654,0.2955654 V,15,56058,56433,0.2955654,0.2955654,0,0.2955654 V,16,56433,56808,0,0.2955654,0.2955654,0.2955654
Sprite,Foreground,Centre,"sb\diamond.png",0,0 V,15,55308,55683,0.2198526,0.2198526,0,0.2198526 M,0,55308,56808,105,80,86,57 F,1,55308,56808,1,0 V,16,55683,56058,0,0.2198526,0.2198526,0.2198526 V,15,56058,56433,0.2198526,0.2198526,0,0.2198526 V,16,56433,56808,0,0.2198526,0.2198526,0.2198526
Sprite,Foreground,Centre,"sb\diamond.png",0,0 V,15,55308,55683,0.2968979,0.2968979,0,0.2968979 M,0,55308,56808,105,80,64,99 F,1,55308,56808,1,0 V,16,55683,56058,0,0.2968979,0.2968979,0.2968979 V,15,56058,56433,0.2968979,0.2968979,0,0.2968979 V,16,56433,56808,0,0.2968979,0.2968979,0.2968979
Sprite,Foreground,Centre,"sb\diamond.png",0,0 V,15,56808,57183,0.2043717,0.2043717,0,0.2043717 M,0,56808,58308,462,420,479,418 F,1,56808,58308,1,0 V,16,57183,57558,0,0.2043717,0.2043717,0.2043717 V,15,57558,57933,0.2043717,0.2043717,0,0.2043717 V,16,57933,58308,0,0.2043717,0.2043717,0.2043717
Sprite,Foreground,Centre,"sb\diamond.png",0,0 V,15,56808,57183,0.2637147,0.2637147,0,0.2637147 M,0,56808,58308,462,420,407,468 F,1,56808,58308,1,0 V,16,57183,57558,0,0.2637147,0.2637147,0.2637147 V,15,57558,57933,0.2637147,0.2637147,0,0.2637147 V,16,57933,58308,0,0.2637147,0.2637147,0.2637147
Sprite,Foreground,Centre,"sb\diamond.png",0,0 V,15,56808,57183,0.1921497,0.1921497,0,0.1921497 M,0,56808,58308,462,420,426,447 F,1,56808,58308,1,0 V,16,57183,57558,0,0.1921497,0.1921497,0.1921497 V,15,57558,57933,0.1921497,0.1921497,0,0.1921497 V,16,57933,58308,0,0.1921497,0.1921497,0.1921497
Sprite,Foreground,Centre,"sb\diamond.png",0,0 V,15,58308,58683,0.2313059,0.2313059,0,0.2313059 M,0,58308,59808,75,369,118,401 F,1,58308,59808,1,0 V,16,58683,59058,0,0.2313059,0.2313059,0.2313059 V,15,59058,59433,0.2313059,0.2313059,0,0.2313059 V,16,59433,59808,0,0.2313059,0.2313059,0.2313059
Sprite,Foreground,Centre,"sb\diamond.png",0,0 V,15,58308,58683,0.2948294,0.2948294,0,0.2948294 M,0,58308,59808,75,369,111,331 F,1,58308,59808,1,0 V,16,58683,59058,0,0.2948294,0.2948294,0.2948294 V,15,59058,59433,0.2948294,0.2948294,0,0.2948294 V,16,59433,59808,0,0.2948294,0.2948294,0.2948294
Sprite,Foreground,Centre,"sb\diamond.png",0,0 V,15,58308,58683,0.1939865,0.1939865,0,0.1939865 M,0,58308,59808,75,369,50,422 F,1,58308,59808,1,0 V,16,58683,59058,0,0.1939865,0.1939865,0.1939865 V,15,59058,59433,0.1939865,0.1939865,0,0.1939865 V,16,59433,59808,0,0.1939865,0.1939865,0.1939865
Sprite,Foreground,Centre,"sb\diamond.png",0,0 V,15,58308,58683,0.2223357,0.2223357,0,0.2223357 M,0,58308,59808,75,369,18,373 F,1,58308,59808,1,0 V,16,58683,59058,0,0.2223357,0.2223357,0.2223357 V,15,59058,59433,0.2223357,0.2223357,0,0.2223357 V,16,59433,59808,0,0.2223357,0.2223357,0.2223357
Sprite,Foreground,Centre,"sb\diamond.png",0,0 V,15,59808,60183,0.1524004,0.1524004,0,0.1524004 M,0,59808,61308,298,419,341,450 F,1,59808,61308,1,0 V,16,60183,60558,0,0.1524004,0.1524004,0.1524004 V,15,60558,60933,0.1524004,0.1524004,0,0.1524004 V,16,60933,61308,0,0.1524004,0.1524004,0.1524004
Sprite,Foreground,Centre,"sb\diamond.png",0,0 V,15,59808,60183,0.155012,0.155012,0,0.155012 M,0,59808,61308,298,419,267,451 F,1,59808,61308,1,0 V,16,60183,60558,0,0.155012,0.155012,0.155012 V,15,60558,60933,0.155012,0.155012,0,0.155012 V,16,60933,61308,0,0.155012,0.155012,0.155012
Sprite,Foreground,Centre,"sb\diamond.png",0,0 V,15,59808,60183,0.2363202,0.2363202,0,0.2363202 M,0,59808,61308,298,419,298,411 F,1,59808,61308,1,0 V,16,60183,60558,0,0.2363202,0.2363202,0.2363202 V,15,60558,60933,0.2363202,0.2363202,0,0.2363202 V,16,60933,61308,0,0.2363202,0.2363202,0.2363202
Sprite,Foreground,Centre,"sb\diamond.png",0,0 V,15,61308,61683,0.2491047,0.2491047,0,0.2491047 M,0,61308,62808,298,419,243,449 F,1,61308,62808,1,0 V,16,61683,62058,0,0.2491047,0.2491047,0.2491047 V,15,62058,62433,0.2491047,0.2491047,0,0.2491047 V,16,62433,62808,0,0.2491047,0.2491047,0.2491047
Sprite,Foreground,Centre,"sb\diamond.png",0,0 V,15,61308,61683,0.2722686,0.2722686,0,0.2722686 M,0,61308,62808,298,419,295,378 F,1,61308,62808,1,0 V,16,61683,62058,0,0.2722686,0.2722686,0.2722686 V,15,62058,62433,0.2722686,0.2722686,0,0.2722686 V,16,62433,62808,0,0.2722686,0.2722686,0.2722686
Sprite,Foreground,Centre,"sb\diamond.png",0,0 V,15,61308,61683,0.1829081,0.1829081,0,0.1829081 M,0,61308,62808,298,419,345,472 F,1,61308,62808,1,0 V,16,61683,62058,0,0.1829081,0.1829081,0.1829081 V,15,62058,62433,0.1829081,0.1829081,0,0.1829081 V,16,62433,62808,0,0.1829081,0.1829081,0.1829081
Sprite,Foreground,Centre,"sb\diamond.png",0,0 V,15,62808,63183,0.1991672,0.1991672,0,0.1991672 M,0,62808,64308,211,133,219,95 F,1,62808,64308,1,0 V,16,63183,63558,0,0.1991672,0.1991672,0.1991672 V,15,63558,63933,0.1991672,0.1991672,0,0.1991672 V,16,63933,64308,0,0.1991672,0.1991672,0.1991672
Sprite,Foreground,Centre,"sb\diamond.png",0,0 V,15,62808,63183,0.1527695,0.1527695,0,0.1527695 M,0,62808,64308,211,133,191,178 F,1,62808,64308,1,0 V,16,63183,63558,0,0.1527695,0.1527695,0.1527695 V,15,63558,63933,0.1527695,0.1527695,0,0.1527695 V,16,63933,64308,0,0.1527695,0.1527695,0.1527695
Sprite,Foreground,Centre,"sb\diamond.png",0,0 V,15,62808,63183,0.181553,0.181553,0,0.181553 M,0,62808,64308,211,133,258,119 F,1,62808,64308,1,0 V,16,63183,63558,0,0.181553,0.181553,0.181553 V,15,63558,63933,0.181553,0.181553,0,0.181553 V,16,63933,64308,0,0.181553,0.181553,0.181553
Sprite,Foreground,Centre,"sb\diamond.png",0,0 V,15,64308,64683,0.2372224,0.2372224,0,0.2372224 M,0,64308,65808,560,396,623,345 F,1,64308,65808,1,0 V,16,64683,65058,0,0.2372224,0.2372224,0.2372224 V,15,65058,65433,0.2372224,0.2372224,0,0.2372224 V,16,65433,65808,0,0.2372224,0.2372224,0.2372224
Sprite,Foreground,Centre,"sb\diamond.png",0,0 V,15,64308,64683,0.1914332,0.1914332,0,0.1914332 M,0,64308,65808,560,396,593,447 F,1,64308,65808,1,0 V,16,64683,65058,0,0.1914332,0.1914332,0.1914332 V,15,65058,65433,0.1914332,0.1914332,0,0.1914332 V,16,65433,65808,0,0.1914332,0.1914332,0.1914332
Sprite,Foreground,Centre,"sb\diamond.png",0,0 V,15,64308,64683,0.2470366,0.2470366,0,0.2470366 M,0,64308,65808,560,396,603,342 F,1,64308,65808,1,0 V,16,64683,65058,0,0.2470366,0.2470366,0.2470366 V,15,65058,65433,0.2470366,0.2470366,0,0.2470366 V,16,65433,65808,0,0.2470366,0.2470366,0.2470366
Sprite,Foreground,Centre,"sb\diamond.png",0,0 V,15,53995,54370,0.157466,0.157466,0,0.157466 M,0,53995,55495,372,352,434,336 F,1,53995,55495,1,0 V,16,54370,54745,0,0.157466,0.157466,0.157466 V,15,54745,55120,0.157466,0.157466,0,0.157466 V,16,55120,55495,0,0.157466,0.157466,0.157466
Sprite,Foreground,Centre,"sb\diamond.png",0,0 V,15,53995,54370,0.2958151,0.2958151,0,0.2958151 M,0,53995,55495,372,352,414,370 F,1,53995,55495,1,0 V,16,54370,54745,0,0.2958151,0.2958151,0.2958151 V,15,54745,55120,0.2958151,0.2958151,0,0.2958151 V,16,55120,55495,0,0.2958151,0.2958151,0.2958151
Sprite,Foreground,Centre,"sb\diamond.png",0,0 V,15,53995,54370,0.2896208,0.2896208,0,0.2896208 M,0,53995,55495,372,352,331,303 F,1,53995,55495,1,0 V,16,54370,54745,0,0.2896208,0.2896208,0.2896208 V,15,54745,55120,0.2896208,0.2896208,0,0.2896208 V,16,55120,55495,0,0.2896208,0.2896208,0.2896208
Sprite,Foreground,Centre,"sb\diamond.png",0,0 V,15,54089,54464,0.1642377,0.1642377,0,0.1642377 M,0,54089,55589,363,275,318,253 F,1,54089,55589,1,0 V,16,54464,54839,0,0.1642377,0.1642377,0.1642377 V,15,54839,55214,0.1642377,0.1642377,0,0.1642377 V,16,55214,55589,0,0.1642377,0.1642377,0.1642377
Sprite,Foreground,Centre,"sb\diamond.png",0,0 V,15,54089,54464,0.1808736,0.1808736,0,0.1808736 M,0,54089,55589,363,275,342,335 F,1,54089,55589,1,0 V,16,54464,54839,0,0.1808736,0.1808736,0.1808736 V,15,54839,55214,0.1808736,0.1808736,0,0.1808736 V,16,55214,55589,0,0.1808736,0.1808736,0.1808736
Sprite,Foreground,Centre,"sb\diamond.png",0,0 V,15,54089,54464,0.2851491,0.2851491,0,0.2851491 M,0,54089,55589,363,275,322,267 F,1,54089,55589,1,0 V,16,54464,54839,0,0.2851491,0.2851491,0.2851491 V,15,54839,55214,0.2851491,0.2851491,0,0.2851491 V,16,55214,55589,0,0.2851491,0.2851491,0.2851491
Sprite,Foreground,Centre,"sb\diamond.png",0,0 V,15,54089,54464,0.2392333,0.2392333,0,0.2392333 M,0,54089,55589,363,275,318,234 F,1,54089,55589,1,0 V,16,54464,54839,0,0.2392333,0.2392333,0.2392333 V,15,54839,55214,0.2392333,0.2392333,0,0.2392333 V,16,55214,55589,0,0.2392333,0.2392333,0.2392333
Sprite,Foreground,Centre,"sb\diamond.png",0,0 V,15,54183,54558,0.2592965,0.2592965,0,0.2592965 M,0,54183,55683,354,199,306,153 F,1,54183,55683,1,0 V,16,54558,54933,0,0.2592965,0.2592965,0.2592965 V,15,54933,55308,0.2592965,0.2592965,0,0.2592965 V,16,55308,55683,0,0.2592965,0.2592965,0.2592965
Sprite,Foreground,Centre,"sb\diamond.png",0,0 V,15,54183,54558,0.1946175,0.1946175,0,0.1946175 M,0,54183,55683,354,199,400,260 F,1,54183,55683,1,0 V,16,54558,54933,0,0.1946175,0.1946175,0.1946175 V,15,54933,55308,0.1946175,0.1946175,0,0.1946175 V,16,55308,55683,0,0.1946175,0.1946175,0.1946175
Sprite,Foreground,Centre,"sb\diamond.png",0,0 V,15,54183,54558,0.2845271,0.2845271,0,0.2845271 M,0,54183,55683,354,199,361,228 F,1,54183,55683,1,0 V,16,54558,54933,0,0.2845271,0.2845271,0.2845271 V,15,54933,55308,0.2845271,0.2845271,0,0.2845271 V,16,55308,55683,0,0.2845271,0.2845271,0.2845271
Sprite,Foreground,Centre,"sb\diamond.png",0,0 V,15,54183,54558,0.2476017,0.2476017,0,0.2476017 M,0,54183,55683,354,199,394,261 F,1,54183,55683,1,0 V,16,54558,54933,0,0.2476017,0.2476017,0.2476017 V,15,54933,55308,0.2476017,0.2476017,0,0.2476017 V,16,55308,55683,0,0.2476017,0.2476017,0.2476017
Sprite,Foreground,Centre,"sb\highlight.png",0,0 M,0,65058,,140,440 F,2,65058,65433,0.8,0 S,0,65058,65433,0.75,0.5
Sprite,Foreground,Centre,"sb\highlight.png",0,0 M,0,65433,,394,201 F,2,65433,65808,0.8,0 S,0,65433,65808,0.75,0.5
Sprite,Foreground,Centre,"sb\highlight.png",0,0 M,0,65808,,130,162 F,2,65808,66183,0.8,0 S,0,65808,66183,0.75,0.5
Sprite,Foreground,Centre,"sb\highlight.png",0,0 M,0,66183,,550,160 F,2,66183,66558,0.8,0 S,0,66183,66558,0.75,0.5
Sprite,Foreground,Centre,"sb\highlight.png",0,0 M,0,66558,,111,148 F,2,66558,66933,0.8,0 S,0,66558,66933,0.75,0.5
Sprite,Foreground,Centre,"sb\highlight.png",0,0 M,0,66933,,140,440 F,2,66933,67308,0.8,0 S,0,66933,67308,0.75,0.5
Sprite,Foreground,Centre,"sb\highlight.png",0,0 M,0,67308,,394,201 F,2,67308,67683,0.8,0 S,0,67308,67683,0.75,0.5
Sprite,Foreground,Centre,"sb\highlight.png",0,0 M,0,67683,,156,417 F,2,67683,68058,0.8,0 S,0,67683,68058,0.75,0.5
Sprite,Foreground,Centre,"sb\highlight.png",0,0 M,0,68058,,270,178 F,2,68058,68433,0.8,0 S,0,68058,68433,0.75,0.5
Sprite,Foreground,Centre,"sb\highlight.png",0,0 M,0,68245,,311,372 F,2,68245,68620,0.8,0 S,0,68245,68620,0.75,0.5
Sprite,Foreground,Centre,"sb\highlight.png",0,0 M,0,68433,,442,145 F,2,68433,68808,0.8,0 S,0,68433,68808,0.75,0.5
Sprite,Foreground,Centre,"sb\highlight.png",0,0 M,0,68620,,424,408 F,2,68620,68995,0.8,0 S,0,68620,68995,0.75,0.5
Sprite,Foreground,Centre,"sb\highlight.png",0,0 M,0,68808,,216,269 F,2,68808,69183,0.8,0 S,0,68808,69183,0.75,0.5
Sprite,Foreground,Centre,"sb\highlight.png",0,0 M,0,68995,,516,215 F,2,68995,69370,0.8,0 S,0,68995,69370,0.75,0.5
Sprite,Foreground,Centre,"sb\highlight.png",0,0 M,0,69183,,187,196 F,2,69183,69558,0.8,0 S,0,69183,69558,0.75,0.5
Sprite,Foreground,Centre,"sb\highlight.png",0,0 M,0,69370,,520,330 F,2,69370,69745,0.8,0 S,0,69370,69745,0.75,0.5
Sprite,Foreground,Centre,"sb\highlight.png",0,0 M,0,69558,,231,348 F,2,69558,69933,0.8,0 S,0,69558,69933,0.75,0.5
Sprite,Foreground,Centre,"sb\highlight.png",0,0 M,0,69651,,186,343 F,2,69651,70026,0.8,0 S,0,69651,70026,0.75,0.5
Sprite,Foreground,Centre,"sb\highlight.png",0,0 M,0,69745,,152,312 F,2,69745,70120,0.8,0 S,0,69745,70120,0.75,0.5
Sprite,Foreground,Centre,"sb\highlight.png",0,0 M,0,69839,,141,268 F,2,69839,70214,0.8,0 S,0,69839,70214,0.75,0.5
Sprite,Foreground,Centre,"sb\highlight.png",0,0 M,0,69933,,156,225 F,2,69933,70308,0.8,0 S,0,69933,70308,0.75,0.5
Sprite,Foreground,Centre,"sb\highlight.png",0,0 M,0,70026,,187,196 F,2,70026,70401,0.8,0 S,0,70026,70401,0.75,0.5
Sprite,Foreground,Centre,"sb\highlight.png",0,0 M,0,70120,,231,192 F,2,70120,70495,0.8,0 S,0,70120,70495,0.75,0.5
Sprite,Foreground,Centre,"sb\highlight.png",0,0 M,0,70214,,271,212 F,2,70214,70589,0.8,0 S,0,70214,70589,0.75,0.5
Sprite,Foreground,Centre,"sb\highlight.png",0,0 M,0,70308,,301,245 F,2,70308,70683,0.8,0 S,0,70308,70683,0.75,0.5
Sprite,Foreground,Centre,"sb\highlight.png",0,0 M,0,70401,,333,195 F,2,70401,70776,0.8,0 S,0,70401,70776,0.75,0.5
Sprite,Foreground,Centre,"sb\highlight.png",0,0 M,0,70495,,388,172 F,2,70495,70870,0.8,0 S,0,70495,70870,0.75,0.5
Sprite,Foreground,Centre,"sb\highlight.png",0,0 M,0,70589,,447,183 F,2,70589,70964,0.8,0 S,0,70589,70964,0.75,0.5
Sprite,Foreground,Centre,"sb\diamond.png",0,0 V,15,70683,71058,0.250177,0.250177,0,0.250177 M,0,70683,72183,512,273,543,243 F,1,70683,72183,1,0 V,16,71058,71433,0,0.250177,0.250177,0.250177 V,15,71433,71808,0.250177,0.250177,0,0.250177 V,16,71808,72183,0,0.250177,0.250177,0.250177
Sprite,Foreground,Centre,"sb\diamond.png",0,0 V,15,70683,71058,0.2453241,0.2453241,0,0.2453241 M,0,70683,72183,512,273,542,229 F,1,70683,72183,1,0 V,16,71058,71433,0,0.2453241,0.2453241,0.2453241 V,15,71433,71808,0.2453241,0.2453241,0,0.2453241 V,16,71808,72183,0,0.2453241,0.2453241,0.2453241
Sprite,Foreground,Centre,"sb\diamond.png",0,0 V,15,70683,71058,0.172317,0.172317,0,0.172317 M,0,70683,72183,512,273,550,328 F,1,70683,72183,1,0 V,16,71058,71433,0,0.172317,0.172317,0.172317 V,15,71433,71808,0.172317,0.172317,0,0.172317 V,16,71808,72183,0,0.172317,0.172317,0.172317
Sprite,Foreground,Centre,"sb\diamond.png",0,0 V,15,70683,71058,0.2065819,0.2065819,0,0.2065819 M,0,70683,72183,512,273,534,268 F,1,70683,72183,1,0 V,16,71058,71433,0,0.2065819,0.2065819,0.2065819 V,15,71433,71808,0.2065819,0.2065819,0,0.2065819 V,16,71808,72183,0,0.2065819,0.2065819,0.2065819
Sprite,Foreground,Centre,"sb\diamond.png",0,0 V,15,71808,72183,0.2185903,0.2185903,0,0.2185903 M,0,71808,73308,215,171,277,126 F,1,71808,73308,1,0 V,16,72183,72558,0,0.2185903,0.2185903,0.2185903 V,15,72558,72933,0.2185903,0.2185903,0,0.2185903 V,16,72933,73308,0,0.2185903,0.2185903,0.2185903
Sprite,Foreground,Centre,"sb\diamond.png",0,0 V,15,71808,72183,0.2696202,0.2696202,0,0.2696202 M,0,71808,73308,215,171,188,151 F,1,71808,73308,1,0 V,16,72183,72558,0,0.2696202,0.2696202,0.2696202 V,15,72558,72933,0.2696202,0.2696202,0,0.2696202 V,16,72933,73308,0,0.2696202,0.2696202,0.2696202
Sprite,Foreground,Centre,"sb\diamond.png",0,0 V,15,71808,72183,0.1963465,0.1963465,0,0.1963465 M,0,71808,73308,215,171,250,137 F,1,71808,73308,1,0 V,16,72183,72558,0,0.1963465,0.1963465,0.1963465 V,15,72558,72933,0.1963465,0.1963465,0,0.1963465 V,16,72933,73308,0,0.1963465,0.1963465,0.1963465
Sprite,Foreground,Centre,"sb\diamond.png",0,0 V,15,71808,72183,0.1875474,0.1875474,0,0.1875474 M,0,71808,73308,215,171,198,165 F,1,71808,73308,1,0 V,16,72183,72558,0,0.1875474,0.1875474,0.1875474 V,15,72558,72933,0.1875474,0.1875474,0,0.1875474 V,16,72933,73308,0,0.1875474,0.1875474,0.1875474
Sprite,Foreground,Centre,"sb\diamond.png",0,0 V,15,73308,73683,0.2225724,0.2225724,0,0.2225724 M,0,73308,74808,78,212,69,172 F,1,73308,74808,1,0 V,16,73683,74058,0,0.2225724,0.2225724,0.2225724 V,15,74058,74433,0.2225724,0.2225724,0,0.2225724 V,16,74433,74808,0,0.2225724,0.2225724,0.2225724
Sprite,Foreground,Centre,"sb\diamond.png",0,0 V,15,73308,73683,0.1639724,0.1639724,0,0.1639724 M,0,73308,74808,78,212,64,274 F,1,73308,74808,1,0 V,16,73683,74058,0,0.1639724,0.1639724,0.1639724 V,15,74058,74433,0.1639724,0.1639724,0,0.1639724 V,16,74433,74808,0,0.1639724,0.1639724,0.1639724
Sprite,Foreground,Centre,"sb\diamond.png",0,0 V,15,73308,73683,0.1723006,0.1723006,0,0.1723006 M,0,73308,74808,78,212,21,154 F,1,73308,74808,1,0 V,16,73683,74058,0,0.1723006,0.1723006,0.1723006 V,15,74058,74433,0.1723006,0.1723006,0,0.1723006 V,16,74433,74808,0,0.1723006,0.1723006,0.1723006
Sprite,Foreground,Centre,"sb\ring.png",0,0 M,0,102558,,402,380 C,0,102558,,255,165,0 F,0,102558,102933,1,0 S,0,102558,102933,0.25,0.7
Sprite,Foreground,Centre,"sb\ring.png",0,0 M,0,103308,,473,353 C,0,103308,,255,165,0 F,0,103308,103683,1,0 S,0,103308,103683,0.25,0.7
Sprite,Foreground,Centre,"sb\ring.png",0,0 M,0,104058,,319,87 C,0,104058,,255,165,0 F,0,104058,104433,1,0 S,0,104058,104433,0.25,0.7
Sprite,Foreground,Centre,"sb\ring.png",0,0 M,0,104808,,347,314 C,0,104808,,255,165,0 F,0,104808,105183,1,0 S,0,104808,105183,0.25,0.7
Sprite,Foreground,Centre,"sb\ring.png",0,0 M,0,105558,,89,187 C,0,105558,,255,165,0 F,0,105558,105933,1,0 S,0,105558,105933,0.25,0.7
Sprite,Foreground,Centre,"sb\ring.png",0,0 M,0,106308,,565,90 C,0,106308,,255,165,0 F,0,106308,106683,1,0 S,0,106308,106683,0.25,0.7
Sprite,Foreground,Centre,"sb\ring.png",0,0 M,0,107058,,320,273 C,0,107058,,255,165,0 F,0,107058,107433,1,0 S,0,107058,107433,0.25,0.7
Sprite,Foreground,Centre,"sb\ring.png",0,0 M,0,107808,,253,359 C,0,107808,,255,165,0 F,0,107808,108183,1,0 S,0,107808,108183,0.25,0.7
Sprite,Foreground,Centre,"sb\diamond.png",0,0 V,15,124308,124683,0.1775549,0.1775549,0,0.1775549 M,0,124308,125808,285,314,278,297 F,1,124308,125808,1,0 V,16,124683,125058,0,0.1775549,0.1775549,0.1775549 V,15,125058,125433,0.1775549,0.1775549,0,0.1775549 V,16,125433,125808,0,0.1775549,0.1775549,0.1775549
Sprite,Foreground,Centre,"sb\diamond.png",0,0 V,15,124308,124683,0.1914853,0.1914853,0,0.1914853 M,0,124308,125808,285,314,315,306 F,1,124308,125808,1,0 V,16,124683,125058,0,0.1914853,0.1914853,0.1914853 V,15,125058,125433,0.1914853,0.1914853,0,0.1914853 V,16,125433,125808,0,0.1914853,0.1914853,0.1914853
Sprite,Foreground,Centre,"sb\diamond.png",0,0 V,15,124308,124683,0.215988,0.215988,0,0.215988 M,0,124308,125808,285,314,324,319 F,1,124308,125808,1,0 V,16,124683,125058,0,0.215988,0.215988,0.215988 V,15,125058,125433,0.215988,0.215988,0,0.215988 V,16,125433,125808,0,0.215988,0.215988,0.215988
Sprite,Foreground,Centre,"sb\diamond.png",0,0 V,15,125808,126183,0.1615043,0.1615043,0,0.1615043 M,0,125808,127308,65,270,78,244 F,1,125808,127308,1,0 V,16,126183,126558,0,0.1615043,0.1615043,0.1615043 V,15,126558,126933,0.1615043,0.1615043,0,0.1615043 V,16,126933,127308,0,0.1615043,0.1615043,0.1615043
Sprite,Foreground,Centre,"sb\diamond.png",0,0 V,15,125808,126183,0.2601281,0.2601281,0,0.2601281 M,0,125808,127308,65,270,63,304 F,1,125808,127308,1,0 V,16,126183,126558,0,0.2601281,0.2601281,0.2601281 V,15,126558,126933,0.2601281,0.2601281,0,0.2601281 V,16,126933,127308,0,0.2601281,0.2601281,0.2601281
Sprite,Foreground,Centre,"sb\diamond.png",0,0 V,15,125808,126183,0.2934701,0.2934701,0,0.2934701 M,0,125808,127308,65,270,123,312 F,1,125808,127308,1,0 V,16,126183,126558,0,0.2934701,0.2934701,0.2934701 V,15,126558,126933,0.2934701,0.2934701,0,0.2934701 V,16,126933,127308,0,0.2934701,0.2934701,0.2934701
Sprite,Foreground,Centre,"sb\diamond.png",0,0 V,15,125808,126183,0.2803416,0.2803416,0,0.2803416 M,0,125808,127308,65,270,114,214 F,1,125808,127308,1,0 V,16,126183,126558,0,0.2803416,0.2803416,0.2803416 V,15,126558,126933,0.2803416,0.2803416,0,0.2803416 V,16,126933,127308,0,0.2803416,0.2803416,0.2803416
Sprite,Foreground,Centre,"sb\ring.png",0,0 M,0,167070,,107,417 C,0,167070,,255,165,0 F,0,167070,167445,1,0 S,0,167070,167445,0.25,0.7
Sprite,Foreground,Centre,"sb\ring.png",0,0 M,0,167820,,180,204 C,0,167820,,255,165,0 F,0,167820,168195,1,0 S,0,167820,168195,0.25,0.7
Sprite,Foreground,Centre,"sb\ring.png",0,0 M,0,168570,,503,370 C,0,168570,,255,165,0 F,0,168570,168945,1,0 S,0,168570,168945,0.25,0.7
Sprite,Foreground,Centre,"sb\ring.png",0,0 M,0,169320,,249,366 C,0,169320,,255,165,0 F,0,169320,169695,1,0 S,0,169320,169695,0.25,0.7
Sprite,Foreground,Centre,"sb\ring.png",0,0 M,0,170070,,132,160 C,0,170070,,255,165,0 F,0,170070,170445,1,0 S,0,170070,170445,0.25,0.7
Sprite,Foreground,Centre,"sb\ring.png",0,0 M,0,170820,,509,364 C,0,170820,,255,165,0 F,0,170820,171195,1,0 S,0,170820,171195,0.25,0.7
Sprite,Foreground,Centre,"sb\ring.png",0,0 M,0,171570,,442,403 C,0,171570,,255,165,0 F,0,171570,171945,1,0 S,0,171570,171945,0.25,0.7
Sprite,Foreground,Centre,"sb\ring.png",0,0 M,0,172320,,130,150 C,0,172320,,255,165,0 F,0,172320,172695,1,0 S,0,172320,172695,0.25,0.7
//Storyboard Layer 4 (Overlay)
//Storyboard Sound Samples

[TimingPoints]
558,375,4,2,1,60,1,0
558,-166.666666666667,4,2,1,60,0,0
1114,-166.666666666667,4,2,33,60,0,0
1302,-166.666666666667,4,2,3,60,0,0
1864,-166.666666666667,4,2,33,60,0,0
2058,-166.666666666667,4,2,4,60,0,0
2245,-166.666666666667,4,2,33,60,0,0
2433,-166.666666666667,4,2,5,60,0,0
2620,-166.666666666667,4,2,33,60,0,0
2808,-166.666666666667,4,2,1,60,0,0
2995,-166.666666666667,4,2,33,60,0,0
3183,-166.666666666667,4,2,6,60,0,0
3370,-166.666666666667,4,2,33,60,0,0
3558,-166.666666666667,4,2,1,60,0,0
3933,-166.666666666667,4,2,33,60,0,0
4308,-166.666666666667,4,2,1,60,0,0
4495,-166.666666666667,4,2,33,60,0,0
4683,-166.666666666667,4,2,7,60,0,0
4870,-166.666666666667,4,2,33,60,0,0
5058,-166.666666666667,4,2,8,60,0,0
5245,-166.666666666667,4,2,33,60,0,0
5433,-166.666666666667,4,2,5,60,0,0
5620,-166.666666666667,4,2,33,60,0,0
5808,-166.666666666667,4,2,7,60,0,0
5995,-166.666666666667,4,2,33,60,0,0
6183,-166.666666666667,4,2,9,60,0,0
6370,-166.666666666667,4,2,33,60,0,0
6558,-142.857142857143,4,2,1,60,0,0
6745,-142.857142857143,4,2,33,60,0,0
6933,-142.857142857143,4,2,9,60,0,0
7120,-142.857142857143,4,2,33,60,0,0
7308,-142.857142857143,4,2,5,60,0,0
7495,-142.857142857143,4,2,33,60,0,0
7683,-142.857142857143,4,2,3,60,0,0
7870,-142.857142857143,4,2,33,60,0,0
8058,-125,4,2,15,60,0,0
8808,-125,4,2,10,60,0,0
9183,-125,4,2,3,60,0,0
9370,-125,4,2,33,60,0,0
9558,-142.857142857143,4,2,4,60,0,0
10120,-142.857142857143,4,2,33,60,0,0
10308,-142.857142857143,4,2,11,60,0,0
10495,-142.857142857143,4,2,33,60,0,0
10683,-142.857142857143,4,2,4,60,0,0
10870,-142.857142857143,4,2,33,60,0,0
11058,-125,4,2,5,60,0,0
11620,-125,4,2,33,60,0,0
11808,-125,4,2,12,60,0,0
12370,-125,4,2,33,60,0,0
12558,-166.666666666667,4,2,5,60,0,0
12933,-166.666666666667,4,2,33,60,0,0
13495,-166.666666666667,4,2,10,60,0,0
13683,-166.666666666667,4,2,8,60,0,0
13870,-166.666666666667,4,2,15,60,0,0
14058,-166.666666666667,4,2,10,60,0,0
14245,-166.666666666667,4,2,8,60,0,0
14433,-166.666666666667,4,2,5,60,0,0
14620,-166.666666666667,4,2,9,60,0,0
14808,-166.666666666667,4,2,1,60,0,0
14995,-166.666666666667,4,2,6,60,0,0
15183,-166.666666666667,4,2,16,60,0,0
15558,-166.666666666667,4,2,5,60,0,0
15745,-166.666666666667,4,2,10,60,0,0
15839,-166.666666666667,4,2,17,60,0,0
15933,-166.666666666667,4,2,3,60,0,0
16026,-166.666666666667,4,2,18,60,0,0
16120,-166.666666666667,4,2,8,60,0,0
16214,-166.666666666667,4,2,22,60,0,0
16308,-133.333333333333,4,2,5,60,0,0
16401,-133.333333333333,4,2,10,60,0,0
16495,-133.333333333333,4,2,7,60,0,0
16588,-133.333333333333,4,2,3,60,0,0
16683,-133.333333333333,4,2,9,60,0,0
16776,-133.333333333333,4,2,1,60,0,0
16870,-133.333333333333,4,2,9,60,0,0
16964,-133.333333333333,4,2,7,60,0,0
17058,-133.333333333333,4,2,5,60,0,0
17151,-133.333333333333,4,2,10,60,0,0
17245,-133.333333333333,4,2,19,60,0,0
17339,-133.333333333333,4,2,20,60,0,0
17433,-133.333333333333,4,2,21,60,0,0
17526,-133.333333333333,4,2,19,60,0,0
17620,-133.333333333333,4,2,17,60,0,0
17714,-133.333333333333,4,2,22,60,0,0
17808,-111.111111111111,4,2,15,55,0,0
17870,-111.111111111111,4,2,10,60,0,0
17933,-111.111111111111,4,2,8,50,0,0
17995,-111.111111111111,4,2,5,60,0,0
18058,-111.111111111111,4,2,9,45,0,0
18120,-111.111111111111,4,2,1,60,0,0
18183,-111.111111111111,4,2,100,60,0,0
18558,-76.9230769230769,4,2,50,65,0,0
18839,-76.9230769230769,4,2,50,5,0,0
18933,-100,4,2,50,65,0,0
19214,-100,4,2,50,5,0,0
19308,-66.6666666666667,4,2,50,65,0,0
19589,-66.6666666666667,4,2,50,5,0,0
19683,-125,4,2,50,65,0,0
20058,-66.6666666666667,4,2,50,65,0,0
20808,-45.4545454545455,4,2,50,65,0,0
20901,-45.4545454545455,4,2,50,5,0,0
20995,-55.5555555555556,4,2,50,65,0,0
21088,-55.5555555555556,4,2,50,5,0,0
21183,-55.5555555555556,4,2,50,65,0,0
21370,-83.3333333333333,4,2,50,65,0,0
21463,-83.3333333333333,4,2,50,5,0,0
21558,-58.8235294117647,4,2,50,65,0,0
22589,-58.8235294117647,4,2,50,5,0,0
22683,-58.8235294117647,4,2,50,65,0,0
23058,-71.4285714285714,4,2,50,65,0,0
23995,-55.5555555555556,4,2,50,65,0,0
24088,-55.5555555555556,4,2,50,5,0,0
24183,-55.5555555555556,4,2,50,65,0,0
24276,-55.5555555555556,4,2,50,5,0,0
24370,-55.5555555555556,4,2,50,65,0,0
24463,-55.5555555555556,4,2,50,5,0,0
24558,-62.5,4,2,50,65,0,0
24839,-62.5,4,2,50,5,0,0
24933,-100,4,2,50,65,0,0
25214,-100,4,2,50,5,0,0
25308,-66.6666666666667,4,2,50,65,0,0
25589,-66.6666666666667,4,2,50,5,0,0
25683,-100,4,2,50,65,0,0
26058,-58.8235294117647,4,2,50,65,0,0
26808,-55.5555555555556,4,2,50,65,0,0
27558,-66.6666666666667,4,2,50,65,0,0
28308,-71.4285714285714,4,2,50,65,0,0
29058,-100,4,2,50,65,0,0
30370,-90.9090909090909,4,2,50,65,0,0
32058,-100,4,2,1,55,0,0
32339,-100,4,2,33,5,0,0
32433,-100,4,2,3,55,0,0
32714,-100,4,2,33,5,0,0
32808,-100,4,2,4,55,0,0
32995,-100,4,2,5,55,0,0
33183,-100,4,2,1,55,0,0
33370,-100,4,2,6,55,0,0
33558,-100,4,2,1,55,0,0
33933,-100,4,2,25,55,0,0
34120,-100,4,2,6,55,0,0
34308,-100,4,2,1,55,0,0
34495,-100,4,2,33,55,0,0
34683,-100,4,2,5,55,0,0
34870,-100,4,2,33,55,0,0
35058,-100,4,2,7,55,0,0
35245,-100,4,2,33,55,0,0
35433,-100,4,2,9,55,0,0
35620,-100,4,2,33,55,0,0
35808,-100,4,2,15,55,0,0
36089,-100,4,2,33,5,0,0
36183,-100,4,2,10,55,0,0
36370,-100,4,2,3,55,0,0
36558,-100,4,2,4,55,0,0
36839,-100,4,2,33,5,0,0
36933,-100,4,2,11,55,0,0
37120,-66.6666666666667,4,2,4,55,0,0
37213,-66.6666666666667,4,2,33,55,0,0
37308,-71.4285714285714,4,2,5,55,0,0
37589,-71.4285714285714,4,2,33,5,0,0
37683,-71.4285714285714,4,2,12,55,0,0
37964,-71.4285714285714,4,2,33,5,0,0
38058,-83.3333333333333,4,2,5,55,0,0
38245,-83.3333333333333,4,2,33,55,0,0
38433,-83.3333333333333,4,2,3,55,0,0
38620,-83.3333333333333,4,2,33,55,0,0
38808,-83.3333333333333,4,2,8,55,0,0
38995,-83.3333333333333,4,2,5,55,0,0
39183,-83.3333333333333,4,2,24,55,0,0
39370,-83.3333333333333,4,2,15,55,0,0
39558,-58.8235294117647,4,2,18,55,0,0
39839,-58.8235294117647,4,2,33,5,0,0
39933,-58.8235294117647,4,2,22,55,0,0
40214,-58.8235294117647,4,2,33,5,0,0
40308,-58.8235294117647,4,2,15,55,0,0
40589,-58.8235294117647,4,2,33,5,0,0
40683,-83.3333333333333,4,2,10,55,0,0
40776,-83.3333333333333,4,2,33,55,0,0
40870,-83.3333333333333,4,2,3,55,0,0
40963,-83.3333333333333,4,2,33,55,0,0
41058,-100,4,2,4,55,0,0
41339,-100,4,2,33,5,0,0
41433,-100,4,2,11,55,0,0
41714,-100,4,2,33,5,0,0
41808,-83.3333333333333,4,2,5,55,0,0
42089,-83.3333333333333,4,2,33,5,0,0
42183,-83.3333333333333,4,2,12,55,0,0
42464,-83.3333333333333,4,2,33,5,0,0
42558,-76.9230769230769,4,2,98,70,0,0
43308,-66.6666666666667,4,2,98,70,0,0
43870,-76.9230769230769,4,2,98,70,0,0
44808,-66.6666666666667,4,2,98,70,0,0
45183,-76.9230769230769,4,2,98,70,0,0
46308,-66.6666666666667,4,2,98,70,0,0
46683,-76.9230769230769,4,2,98,70,0,0
47808,-62.5,4,2,98,70,0,0
48183,-71.4285714285714,4,2,98,70,0,0
48558,-76.9230769230769,4,2,98,70,0,0
49308,-66.6666666666667,4,2,98,70,0,0
49870,-76.9230769230769,4,2,98,70,0,0
50433,-71.4285714285714,4,2,98,70,0,0
50808,-66.6666666666667,4,2,98,70,0,0
51183,-76.9230769230769,4,2,98,70,0,0
52308,-66.6666666666667,4,2,98,70,0,0
52683,-71.4285714285714,4,2,98,70,0,0
53058,-62.5,4,2,98,70,0,0
53339,-62.5,4,2,98,5,0,0
53433,-62.5,4,2,98,70,0,0
54558,-71.4285714285714,4,2,50,70,0,0
55308,-66.6666666666667,4,2,98,70,0,0
55870,-76.9230769230769,4,2,98,70,0,0
56808,-66.6666666666667,4,2,98,70,0,0
57183,-76.9230769230769,4,2,98,70,0,0
58308,-66.6666666666667,4,2,98,70,0,0
58683,-76.9230769230769,4,2,98,70,0,0
59808,-62.5,4,2,98,70,0,0
60183,-71.4285714285714,4,2,98,70,0,0
60558,-76.9230769230769,4,2,98,70,0,0
61308,-66.6666666666667,4,2,98,70,0,0
61870,-76.9230769230769,4,2,98,70,0,0
62339,-76.9230769230769,4,2,98,5,0,0
62433,-71.4285714285714,4,2,98,70,0,0
62714,-71.4285714285714,4,2,98,5,0,0
62808,-66.6666666666667,4,2,98,70,0,0
63089,-66.6666666666667,4,2,98,5,0,0
63183,-76.9230769230769,4,2,98,70,0,0
64308,-66.6666666666667,4,2,98,70,0,0
64683,-71.4285714285714,4,2,98,50,0,0
65058,-66.6666666666667,4,2,93,40,0,0
68058,-66.6666666666667,4,2,93,50,0,0
69558,-66.6666666666667,4,2,50,40,0,0
70683,-100,4,2,50,40,0,0
70964,-100,4,2,50,5,0,0
71058,-66.6666666666667,4,2,93,40,0,0
71339,-66.6666666666667,4,2,93,5,0,0
71433,-66.6666666666667,4,2,93,40,0,0
71808,-58.8235294117647,4,2,50,50,0,0
72183,-66.6666666666667,4,2,50,50,0,0
72558,-62.5,4,2,50,50,0,0
73308,-58.8235294117647,4,2,50,50,0,0
74808,-58.8235294117647,4,2,91,50,0,0
77058,-250,4,2,90,80,0,1
77339,-250,4,2,98,5,0,1
77433,-400,4,2,90,80,0,1
77714,-400,4,2,98,5,0,1
77808,-45.4545454545455,4,2,30,80,0,1
78089,-45.4545454545455,4,2,30,5,0,1
78183,-55.5555555555556,4,2,90,80,0,1
78933,-35.7142857142857,4,2,87,80,0,1
79073,-35.7142857142857,4,2,90,5,0,1
79120,-200,4,2,90,5,0,1
79308,-35.7142857142857,4,2,87,80,0,1
79448,-35.7142857142857,4,2,90,5,0,1
79495,-200,4,2,90,80,0,1
79683,-41.6666666666667,4,2,86,80,0,1
79964,-41.6666666666667,4,2,90,80,0,1
80058,-400,4,2,90,80,0,1
80433,-71.4285714285714,4,2,83,80,0,1
80714,-71.4285714285714,4,2,90,5,0,1
80808,-55.5555555555556,4,2,80,80,0,1
80901,-55.5555555555556,4,2,90,80,0,1
80995,-50,4,2,80,80,0,1
81088,-50,4,2,90,80,0,1
81183,-45.4545454545455,4,2,90,80,0,1
81370,-41.6666666666667,4,2,90,80,0,1
81745,-38.4615384615385,4,2,85,80,0,1
81838,-38.4615384615385,4,2,90,80,0,1
81933,-38.4615384615385,4,2,82,80,0,1
82026,-38.4615384615385,4,2,90,80,0,1
82120,-38.4615384615385,4,2,82,80,0,1
82213,-38.4615384615385,4,2,90,80,0,1
82308,-35.7142857142857,4,2,85,80,0,1
82401,-35.7142857142857,4,2,90,80,0,1
82589,-35.7142857142857,4,2,85,80,0,1
82682,-35.7142857142857,4,2,90,80,0,1
82870,-41.6666666666667,4,2,85,80,0,1
82963,-41.6666666666667,4,2,90,80,0,1
83058,-400,4,2,79,80,0,1
83245,-400,4,2,90,80,0,1
83339,-33.3333333333333,4,2,84,80,0,1
83526,-33.3333333333333,4,2,90,80,0,1
83620,-100,4,2,90,80,0,1
84183,-55.5555555555556,4,2,90,80,0,1
84933,-35.7142857142857,4,2,87,80,0,1
85073,-35.7142857142857,4,2,90,5,0,1
85120,-200,4,2,90,80,0,1
85308,-35.7142857142857,4,2,87,80,0,1
85448,-35.7142857142857,4,2,90,5,0,1
85495,-200,4,2,90,80,0,1
85683,-41.6666666666667,4,2,86,80,0,1
85964,-41.6666666666667,4,2,90,5,0,1
86058,-400,4,2,79,80,0,1
86339,-400,4,2,90,80,0,1
86433,-50,4,2,85,80,0,1
86526,-50,4,2,90,80,0,1
86995,-50,4,2,82,80,0,1
87276,-50,4,2,90,5,0,1
87370,-50,4,2,85,80,0,1
87463,-50,4,2,90,80,0,1
87745,-41.6666666666667,4,2,50,80,0,1
88213,-41.6666666666667,4,2,90,5,0,1
88308,-45.4545454545455,4,2,85,80,0,1
88401,-45.4545454545455,4,2,90,80,0,1
88683,-50,4,2,85,80,0,1
88964,-50,4,2,90,5,0,1
89058,-250,4,2,90,80,0,1
89339,-250,4,2,90,5,0,1
89433,-250,4,2,79,80,0,1
89526,-133.333333333333,4,2,90,80,0,1
89808,-50,4,2,30,80,0,1
89901,-50,4,2,90,80,0,1
90464,-55.5555555555556,4,2,90,80,0,1
90933,-35.7142857142857,4,2,87,80,0,1
91073,-35.7142857142857,4,2,90,5,0,1
91120,-35.7142857142857,4,2,90,80,0,1
91308,-35.7142857142857,4,2,87,80,0,1
91448,-35.7142857142857,4,2,90,5,0,1
91495,-35.7142857142857,4,2,90,80,0,1
91683,-41.6666666666667,4,2,86,80,0,1
91964,-41.6666666666667,4,2,90,80,0,1
92058,-400,4,2,79,80,0,1
92339,-400,4,2,90,80,0,1
92433,-400,4,2,83,80,0,1
92526,-400,4,2,90,80,0,1
92620,-133.333333333333,4,2,90,80,0,1
92808,-50,4,2,80,80,0,1
92901,-50,4,2,90,80,0,1
92995,-50,4,2,80,80,0,1
93089,-50,4,2,90,80,0,1
93370,-41.6666666666667,4,2,90,80,0,1
93745,-38.4615384615385,4,2,85,80,0,1
93838,-38.4615384615385,4,2,90,80,0,1
94308,-35.7142857142857,4,2,85,80,0,1
94401,-35.7142857142857,4,2,90,80,0,1
94589,-35.7142857142857,4,2,85,80,0,1
94682,-35.7142857142857,4,2,90,80,0,1
94870,-41.6666666666667,4,2,85,80,0,1
94963,-41.6666666666667,4,2,90,80,0,1
95058,-400,4,2,79,80,0,1
95245,-400,4,2,90,80,0,1
95339,-33.3333333333333,4,2,84,80,0,1
95526,-33.3333333333333,4,2,90,80,0,1
95620,-100,4,2,90,80,0,1
95995,-55.5555555555556,4,2,90,80,0,1
96933,-35.7142857142857,4,2,87,80,0,1
97073,-35.7142857142857,4,2,90,5,0,1
97120,-133.333333333333,4,2,90,80,0,1
97308,-133.333333333333,4,2,87,80,0,1
97401,-133.333333333333,4,2,90,80,0,1
97683,-41.6666666666667,4,2,86,80,0,1
97964,-41.6666666666667,4,2,90,5,0,1
98058,-50,4,2,90,80,0,1
98339,-50,4,2,98,5,0,1
98433,-43.4782608695652,4,2,82,80,0,1
98526,-43.4782608695652,4,2,90,80,0,1
98620,-43.4782608695652,4,2,82,80,0,1
98713,-43.4782608695652,4,2,90,80,0,1
98995,-40,4,2,85,80,0,1
99088,-40,4,2,90,80,0,1
99370,-40,4,2,85,80,0,1
99463,-40,4,2,90,80,0,1
99745,-41.6666666666667,4,2,86,80,0,1
100120,-41.6666666666667,4,2,90,80,0,1
100308,-66.6666666666667,4,2,90,80,0,1
100964,-66.6666666666667,4,2,98,5,0,1
101058,-83.3333333333333,4,2,27,55,0,0
101339,-83.3333333333333,4,2,33,55,0,0
101433,-83.3333333333333,4,2,25,55,0,0
101526,-83.3333333333333,4,2,33,55,0,0
101714,-83.3333333333333,4,2,26,55,0,0
101808,-100,4,2,26,55,0,0
101901,-100,4,2,33,55,0,0
102183,-71.4285714285714,4,2,28,55,0,0
102276,-71.4285714285714,4,2,33,55,0,0
102370,-55.5555555555556,4,2,33,55,0,0
102558,-66.6666666666667,4,2,2,60,0,0
103308,-66.6666666666667,4,2,91,60,0,0
103589,-66.6666666666667,4,2,91,5,0,0
103683,-66.6666666666667,4,2,91,60,0,0
105089,-66.6666666666667,4,2,91,5,0,0
105183,-66.6666666666667,4,2,91,60,0,0
107058,-62.5,4,2,91,60,0,0
107808,-55.5555555555556,4,2,91,60,0,0
108558,-62.5,4,2,2,60,0,0
108933,-62.5,4,2,92,60,0,0
111558,-55.5555555555556,4,2,92,60,0,0
111839,-55.5555555555556,4,2,92,5,0,0
111933,-62.5,4,2,92,60,0,0
114839,-62.5,4,2,92,5,0,0
114933,-62.5,4,2,92,60,0,0
116058,-83.3333333333333,4,2,92,60,0,0
117558,-83.3333333333333,4,2,89,60,0,0
118308,-76.9230769230769,4,2,91,60,0,0
118964,-76.9230769230769,4,2,91,5,0,0
119058,-76.9230769230769,4,2,91,60,0,0
120464,-76.9230769230769,4,2,91,5,0,0
120558,-71.4285714285714,4,2,91,60,0,0
121214,-71.4285714285714,4,2,91,5,0,0
121308,-71.4285714285714,4,2,91,60,0,0
121964,-71.4285714285714,4,2,91,5,0,0
122058,-71.4285714285714,4,2,91,60,0,0
122714,-71.4285714285714,4,2,91,5,0,0
122808,-71.4285714285714,4,2,91,60,0,0
123558,-66.6666666666667,4,2,93,60,0,0
123839,-66.6666666666667,4,2,93,5,0,0
123933,-66.6666666666667,4,2,93,60,0,0
124308,-58.8235294117647,4,2,50,60,0,0
124683,-66.6666666666667,4,2,50,60,0,0
125058,-62.5,4,2,50,60,0,0
125808,-58.8235294117647,4,2,50,60,0,0
127308,-58.8235294117647,4,2,91,60,0,0
129558,-100,4,2,0,50,0,0
134058,-90.9090909090909,4,2,0,60,0,0
134808,-83.3333333333333,4,2,0,60,0,0
135558,-76.9230769230769,4,2,0,60,0,0
136308,-71.4285714285714,4,2,0,60,0,0
137058,-66.6666666666667,4,2,0,60,0,0
137808,-62.5,4,2,0,60,0,0
138558,-31.25,4,2,0,60,0,0
139683,-50,4,2,0,60,0,0
140058,-33.3333333333333,4,2,0,60,0,0
141183,-41.6666666666667,4,2,90,80,0,1
141464,-41.6666666666667,4,2,90,5,0,1
141570,375,4,2,3,60,1,0
141570,-38.4615384615385,4,2,3,60,0,1
141757,-100,4,2,1,5,0,1
141945,-100,4,2,90,80,0,1
143445,-55.5555555555556,4,2,84,80,0,1
143538,-55.5555555555556,4,2,90,80,0,1
144195,-41.6666666666667,4,2,79,80,0,1
144476,-41.6666666666667,4,2,90,5,0,1
144570,-38.4615384615385,4,2,50,80,0,1
144757,-38.4615384615385,4,2,90,80,0,1
146070,-55.5555555555556,4,2,85,80,0,1
146163,-55.5555555555556,4,2,90,80,0,1
146257,-55.5555555555556,4,2,85,80,0,1
146350,-55.5555555555556,4,2,90,80,0,1
146445,-55.5555555555556,4,2,78,80,0,1
146538,-55.5555555555556,4,2,90,80,0,1
146820,-55.5555555555556,4,2,82,80,0,1
146913,-55.5555555555556,4,2,90,80,0,1
147007,-55.5555555555556,4,2,82,80,0,1
147100,-55.5555555555556,4,2,90,80,0,1
147195,-41.6666666666667,4,2,83,80,0,1
147476,-41.6666666666667,4,2,90,5,0,1
147570,-50,4,2,30,80,0,1
147851,-50,4,2,90,5,0,1
147945,-50,4,2,90,80,0,1
149445,-62.5,4,2,84,80,0,1
149538,-62.5,4,2,90,80,0,1
150195,-45.4545454545455,4,2,83,80,0,1
150476,-45.4545454545455,4,2,90,5,0,1
150570,-38.4615384615385,4,2,90,80,0,1
151320,-38.4615384615385,4,2,82,80,0,1
151695,-38.4615384615385,4,2,85,80,0,1
152070,-50,4,2,82,80,0,1
152163,-50,4,2,90,80,0,1
152257,-50,4,2,82,80,0,1
152350,-50,4,2,90,80,0,1
152445,-33.3333333333333,4,2,90,80,0,1
152585,-33.3333333333333,4,2,90,5,0,1
152632,-133.333333333333,4,2,90,80,0,1
152820,-33.3333333333333,4,2,90,80,0,1
152960,-33.3333333333333,4,2,90,5,0,1
153007,-133.333333333333,4,2,90,80,0,1
153195,-33.3333333333333,4,2,90,80,0,1
153335,-33.3333333333333,4,2,90,5,0,1
153382,-133.333333333333,4,2,90,80,0,1
153570,-38.4615384615385,4,2,30,80,0,1
153757,-38.4615384615385,4,2,90,80,0,1
155445,-55.5555555555556,4,2,84,80,0,1
155538,-55.5555555555556,4,2,90,80,0,1
156195,-41.6666666666667,4,2,79,80,0,1
156476,-41.6666666666667,4,2,90,5,0,1
156570,-38.4615384615385,4,2,50,80,0,1
156757,-38.4615384615385,4,2,90,80,0,1
158070,-55.5555555555556,4,2,85,80,0,1
158163,-55.5555555555556,4,2,90,80,0,1
158257,-55.5555555555556,4,2,85,80,0,1
158350,-55.5555555555556,4,2,90,80,0,1
158445,-55.5555555555556,4,2,78,80,0,1
158538,-55.5555555555556,4,2,90,80,0,1
158820,-55.5555555555556,4,2,82,80,0,1
158913,-55.5555555555556,4,2,90,80,0,1
159007,-55.5555555555556,4,2,82,80,0,1
159100,-55.5555555555556,4,2,90,80,0,1
159195,-41.6666666666667,4,2,83,80,0,1
159476,-41.6666666666667,4,2,90,5,0,1
159570,-50,4,2,50,80,0,1
159851,-50,4,2,90,80,0,1
161445,-62.5,4,2,84,80,0,1
161538,-62.5,4,2,90,80,0,1
162195,-45.4545454545455,4,2,83,80,0,1
162476,-45.4545454545455,4,2,90,5,0,1
162570,-38.4615384615385,4,2,90,80,0,1
163320,-38.4615384615385,4,2,82,80,0,1
163695,-38.4615384615385,4,2,85,80,0,1
164257,-41.6666666666667,4,2,90,80,0,1
164820,-66.6666666666667,4,2,86,80,0,1
165476,-66.6666666666667,4,2,90,5,0,1
165570,-83.3333333333333,4,2,27,60,0,0
165851,-83.3333333333333,4,2,33,60,0,0
165945,-83.3333333333333,4,2,25,60,0,0
166038,-83.3333333333333,4,2,33,60,0,0
166226,-83.3333333333333,4,2,26,60,0,0
166320,-100,4,2,26,60,0,0
166411,-100,4,2,33,60,0,0
166695,-71.4285714285714,4,2,28,60,0,0
166788,-71.4285714285714,4,2,33,60,0,0
166882,-55.5555555555556,4,2,33,60,0,0
167070,-66.6666666666667,4,2,2,60,0,0
167820,-66.6666666666667,4,2,91,60,0,0
168101,-66.6666666666667,4,2,91,5,0,0
168195,-66.6666666666667,4,2,91,60,0,0
169601,-66.6666666666667,4,2,91,5,0,0
169695,-66.6666666666667,4,2,91,60,0,0
172320,-55.5555555555556,4,2,91,60,0,0
173070,-62.5,4,2,2,60,0,0
173351,-62.5,4,2,2,5,0,0
173445,-62.5,4,2,92,60,0,0
176070,-55.5555555555556,4,2,92,60,0,0
176351,-55.5555555555556,4,2,92,5,0,0
176445,-62.5,4,2,92,60,0,0
180570,-83.3333333333333,4,2,92,60,0,0
182070,-83.3333333333333,4,2,89,60,0,0
182820,-76.9230769230769,4,2,91,50,0,0
183476,-76.9230769230769,4,2,91,5,0,0
183570,-76.9230769230769,4,2,91,50,0,0
184976,-76.9230769230769,4,2,91,5,0,0
185070,-71.4285714285714,4,2,91,50,0,0
185726,-71.4285714285714,4,2,91,5,0,0
185820,-71.4285714285714,4,2,91,50,0,0
186476,-71.4285714285714,4,2,91,5,0,0
186570,-71.4285714285714,4,2,91,50,0,0
187226,-71.4285714285714,4,2,91,5,0,0
187320,-71.4285714285714,4,2,91,50,0,0
188070,-66.6666666666667,4,2,92,50,0,0
188820,-58.8235294117647,4,2,92,50,0,0
189195,-66.6666666666667,4,2,92,50,0,0
189570,-62.5,4,2,92,50,0,0
190320,-58.8235294117647,4,2,92,50,0,0
191070,-58.8235294117647,4,2,50,50,0,0
193976,-58.8235294117647,4,2,50,5,0,0
194070,-200,4,2,26,45,0,0
195382,-200,4,2,33,45,0,0
195570,372.670807453416,4,2,25,45,1,0
195570,-200,4,2,25,45,0,0
195942,-200,4,2,33,45,0,0
196315,-200,4,2,7,45,0,0
196687,-200,4,2,33,45,0,0
197060,377.358490566038,4,2,6,45,1,0
197060,-200,4,2,6,45,0,0
197814,-200,4,2,33,45,0,0
198569,372.670807453416,4,2,33,60,1,0
199314,-200,4,2,23,45,0,0
199494,-200,4,2,33,45,0,0
199687,-200,4,2,14,45,0,0
199863,-200,4,2,33,45,0,0
200059,377.358490566038,4,2,4,45,1,0
200059,-133.333333333333,4,2,4,45,0,0
200625,-133.333333333333,4,2,33,45,0,0
200813,-200,4,2,5,45,0,0
201190,-200,4,2,33,45,0,0
201568,-200,4,2,25,45,0,0
201945,-200,4,2,33,45,0,0
202323,-200,4,2,7,45,0,0
202724,-200,4,2,33,45,0,0
203077,-200,4,2,6,45,0,0
203449,-200,4,2,33,45,0,0
204492,-200,4,2,18,35,0,0
204540,-200,4,2,3,35,0,0
204587,-243.90243902439,4,2,4,35,0,0
211945,-243.90243902439,4,2,33,5,0,0

[Colours]
Combo1 : 255,128,0
Combo2 : 0,128,255
Combo3 : 0,128,192
Combo4 : 192,192,192
Combo5 : 233,233,233
Combo6 : 255,0,0

[HitObjects]
436,337,558,54,0,P|450:250|354:227,1,180,2|0,2:0|2:0,2:0:0:0:
364,372,1308,2,0,P|289:334|305:252,1,180,2|0,2:0|2:0,2:0:0:0:
205,313,2058,70,0,P|156:322|126:324,1,59.9999999999999,2|0,2:0|2:0,2:0:0:0:
37,238,2433,2,0,P|66:244|96:247,1,59.9999999999999,2|0,2:0|2:0,2:0:0:0:
207,156,2808,2,0,P|158:165|128:167,1,59.9999999999999,2|0,2:0|2:0,2:0:0:0:
39,81,3183,2,0,P|68:87|98:90,1,59.9999999999999,2|0,2:0|2:0,2:0:0:0:
259,225,3558,6,0,B|288:192|288:192|280:99,1,120,2|0,2:0|2:0,2:0:0:0:
363,172,4120,1,0,2:0:0:0:
477,117,4308,2,0,P|447:110|417:107,1,59.9999999999999,2|0,2:0|2:0,2:0:0:0:
477,233,4683,2,0,P|447:239|417:242,1,59.9999999999999,2|0,2:0|2:0,2:0:0:0:
318,357,5058,70,0,P|327:328|338:300,1,59.9999999999999,2|0,2:0|2:0,2:0:0:0:
243,296,5433,2,0,P|241:266|243:236,1,59.9999999999999,2|0,2:0|2:0,2:0:0:0:
98,347,5808,2,0,P|79:323|59:301,1,59.9999999999999,2|0,2:0|2:0,2:0:0:0:
147,264,6183,2,0,P|137:235|126:207,1,59.9999999999999,2|0,2:0|2:0,2:0:0:0:
352,126,6558,6,0,P|336:158|313:184,1,69.9999999999999,2|0,2:0|2:0,2:0:0:0:
194,82,6933,2,0,P|209:50|232:24,1,69.9999999999999,2|0,2:0|2:0,2:0:0:0:
282,242,7308,2,0,P|247:244|213:237,1,69.9999999999999,2|0,2:0|2:0,2:0:0:0:
311,45,7683,2,0,P|346:42|380:49,1,69.9999999999999,2|0,2:0|2:0,2:0:0:0:
411,299,8058,70,0,B|362:228|466:216|468:118|406:88|329:106|305:178|376:218|385:234,1,320,2|2,2:0|2:0,2:0:0:0:
472,270,9183,1,2,2:0:0:0:
472,270,9370,1,2,2:0:0:0:
372,356,9558,6,0,P|281:348|337:282,1,210,2|0,2:0|2:0,2:0:0:0:
203,369,10308,2,0,P|198:334|201:299,1,69.9999999999999,2|0,2:0|2:0,2:0:0:0:
412,236,10683,2,0,P|383:215|351:202,1,69.9999999999999,2|0,2:0|2:0,2:0:0:0:
101,170,11058,70,0,B|55:176|36:244|95:262|128:265|148:236|158:197|194:180|238:201,1,240,2|0,2:0|2:0,2:0:0:0:
330,291,11808,2,0,B|376:285|395:217|336:199|303:196|283:225|273:264|237:281|193:260,1,240,2|0,2:0|2:0,2:0:0:0:
410,185,12558,6,0,P|435:239|420:309,1,120,2|0,2:0|2:0,2:0:0:0:
426,297,13120,1,0,2:0:0:0:
135,368,13495,69,2,2:0:0:0:
124,287,13683,1,2,2:0:0:0:
166,219,13870,1,2,2:0:0:0:
315,261,14058,5,0,2:0:0:0:
204,289,14245,1,2,2:0:0:0:
376,311,14433,69,2,2:0:0:0:
248,219,14620,1,2,2:0:0:0:
299,340,14808,5,2,2:0:0:0:
316,184,14995,1,2,2:0:0:0:
224,360,15183,69,0,2:0:0:0:
468,44,15558,5,2,2:0:0:0:
440,175,15745,1,2,2:0:0:0:
442,189,15839,1,0,2:0:0:0:
418,213,15933,1,0,2:0:0:0:
416,227,16026,1,0,2:0:0:0:
437,256,16120,1,0,2:0:0:0:
439,270,16214,1,0,2:0:0:0:
416,296,16308,70,0,P|393:287|368:284,1,37.5000000000001,0|0,2:0|2:0,2:0:0:0:
259,349,16495,2,0,P|240:352|223:360,1,37.5000000000001,0|0,2:0|2:0,2:0:0:0:
87,294,16683,1,0,2:0:0:0:
78,252,16776,1,0,2:0:0:0:
113,232,16870,1,0,2:0:0:0:
145,260,16964,1,0,2:0:0:0:
128,297,17058,1,0,2:0:0:0:
87,294,17151,1,2,2:0:0:0:
65,227,17245,69,2,2:0:0:0:
114,159,17339,1,2,2:0:0:0:
206,159,17433,1,2,2:0:0:0:
261,233,17526,1,2,2:0:0:0:
348,258,17620,1,2,2:0:0:0:
426,220,17714,1,2,2:0:0:0:
438,124,17808,22,0,L|408:113,1,30,2|0,2:0|2:0,2:0:0:0:
432,94,17933,70,0,L|407:114,1,30,2|0,2:0|2:0,2:0:0:0:
403,84,18058,6,0,L|408:115,1,30,2|0,2:0|2:0,2:0:0:0:
378,103,18183,70,0,L|408:113,1,30,2|0,2:0|2:0,2:0:0:0:
383,133,18308,6,0,L|407:112,1,30,0|0,2:0|2:0,2:0:0:0:
413,143,18433,70,0,L|407:111,1,30,0|0,2:0|2:0,2:0:0:0:
473,27,18558,54,0,P|390:6|306:72,1,195,4|0,3:2|2:0,2:0:0:0:
261,233,18933,2,0,P|276:171|238:197,1,150,2|0,2:0|2:0,2:0:0:0:
302,341,19308,2,0,B|248:304|248:304|90:335,1,225,8|0,2:0|2:0,2:0:0:0:
12,361,19683,2,0,P|50:354|79:327,1,80,2|0,2:0|2:0,2:0:0:0:
126,120,20058,6,0,P|23:50|79:162,1,300,4|0,3:0|2:0,2:0:0:0:
183,28,20620,1,0,2:0:0:0:
167,228,20808,70,0,P|261:203|279:183,1,110,10|0,2:0|2:0,2:0:0:0:
322,46,20995,2,0,P|328:89|316:132,1,89.9999999999999,0|0,2:0|2:0,2:0:0:0:
156,306,21183,1,2,2:0:0:0:
418,152,21370,2,0,P|389:162|367:182,1,60,2|0,2:0|2:0,2:0:0:0:
446,298,21558,6,0,P|484:240|409:243,1,170,4|2,3:2|2:0,2:0:0:0:
344,359,21839,1,2,2:0:0:0:
347,317,21933,1,2,2:0:0:0:
335,274,22026,1,0,2:0:0:0:
309,240,22120,1,0,2:0:0:0:
269,218,22214,1,0,2:0:0:0:
195,215,22308,70,0,B|194:153|245:121|299:179|341:80|288:9|206:60|221:98,1,255,8|0,2:0|2:0,2:0:0:0:
354,167,22683,1,2,2:0:0:0:
402,176,22776,1,2,2:0:0:0:
445,151,22870,1,2,2:0:0:0:
464,105,22964,1,0,2:0:0:0:
386,92,23058,6,0,B|366:203|496:186|538:227|555:319|491:359|403:359|398:246,1,420,4|0,3:0|2:0,2:0:0:0:
398,253,23714,1,0,2:0:0:0:
398,253,23808,1,8,2:0:0:0:
254,348,23995,70,0,P|298:346|341:332,1,89.9999999999999,2|0,2:0|2:0,2:0:0:0:
264,203,24183,2,0,P|285:163|293:119,1,89.9999999999999,2|0,2:0|2:0,2:0:0:0:
145,121,24370,2,0,P|121:82|87:53,1,89.9999999999999,2|0,2:0|2:0,2:0:0:0:
8,317,24558,6,0,B|53:371|138:328|100:269|174:245|218:275,1,240,4|0,3:2|2:0,2:0:0:0:
388,362,24933,2,0,P|323:337|375:318,1,150,2|0,2:0|2:0,2:0:0:0:
487,278,25308,2,0,B|426:237|426:237|445:76,1,225,8|0,2:0|2:0,2:0:0:0:
494,13,25683,2,0,L|480:130,1,100,2|0,2:0|2:0,2:0:0:0:
244,98,26058,70,0,B|213:25|274:-19|379:15|345:120|285:122|230:133|222:213|260:262,1,340,4|0,3:0|2:0,2:0:0:0:
324,206,26620,1,0,2:0:0:0:
100,317,26808,6,0,P|151:293|200:286,1,89.9999999999999,10|0,2:0|2:0,2:0:0:0:
25,193,26995,1,0,2:0:0:0:
252,326,27183,70,0,P|295:335|335:356,1,89.9999999999999,2|0,2:0|2:0,2:0:0:0:
168,207,27370,1,0,2:0:0:0:
168,187,27464,1,0,2:0:0:0:
119,137,27558,6,0,P|199:168|271:134,1,150,4|2,3:2|2:0,2:0:0:0:
338,36,27839,1,2,2:0:0:0:
324,74,27933,1,2,2:0:0:0:
331,114,28026,1,0,2:0:0:0:
345,152,28120,1,0,2:0:0:0:
338,192,28214,1,0,2:0:0:0:
326,268,28308,70,0,P|330:294|399:229,1,210,8|0,2:0|2:0,2:0:0:0:
228,337,28683,1,2,2:0:0:0:
181,303,28776,1,2,2:0:0:0:
152,256,28870,1,2,2:0:0:0:
145,200,28964,1,0,2:0:0:0:
206,114,29058,22,0,B|270:103|303:178|270:245|189:250|151:199|130:163|57:167|37:209|24:260|30:272,1,350,4|0,3:2|2:0,2:0:0:0:
75,346,29808,1,2,2:0:0:0:
80,335,29901,1,2,2:0:0:0:
77,324,29995,1,2,2:0:0:0:
65,321,30089,1,0,2:0:0:0:
56,329,30183,1,0,2:0:0:0:
57,341,30276,1,0,2:0:0:0:
67,348,30370,6,0,B|110:389|187:369|217:323|158:289|244:203|329:255|329:255|376:183|496:262|443:384|311:404|278:314,1,660,0|0,2:0|2:0,2:0:0:0:
277,314,31683,1,0,2:0:0:0:
273,308,31870,1,0,2:0:0:0:
120,291,32058,70,0,P|96:211|48:166,1,150,2|0,2:0|2:0,2:0:0:0:
105,122,32433,2,0,P|158:177|186:258,1,150,2|0,2:0|2:0,2:0:0:0:
185,324,32808,1,2,2:0:0:0:
248,214,32995,1,2,2:0:0:0:
305,360,33183,1,2,2:0:0:0:
318,191,33370,1,2,2:0:0:0:
165,348,33558,6,0,P|72:348|54:258,1,200,2|2,2:0|2:0,2:0:0:0:
120,291,34120,1,2,2:0:0:0:
12,195,34308,70,0,P|4:134|25:90,1,100,2|0,2:0|2:0,2:0:0:0:
245,45,34683,2,0,P|253:106|232:150,1,100,2|0,2:0|2:0,2:0:0:0:
148,9,35058,2,0,P|101:-5|53:3,1,100,2|0,2:0|2:0,2:0:0:0:
107,230,35433,2,0,P|154:245|203:236,1,100,2|0,2:0|2:0,2:0:0:0:
341,39,35808,6,0,L|317:187,1,150,2|0,2:0|2:0,2:0:0:0:
297,258,36183,1,2,2:0:0:0:
163,145,36370,1,2,2:0:0:0:
296,335,36558,2,0,P|351:318|354:210,1,150,2|0,2:0|2:0,2:0:0:0:
317,187,36933,1,2,2:0:0:0:
442,308,37120,38,0,P|418:354|398:374,1,75,2|0,2:0|2:0,2:0:0:0:
395,158,37308,6,0,B|372:106|314:110|314:110|205:120,1,210,2|0,2:0|2:0,2:0:0:0:
114,232,37683,2,0,B|191:199|191:199|316:186,1,210,2|0,2:0|2:0,2:0:0:0:
371,235,38058,22,0,P|357:293|362:352,1,120,2|0,2:0|2:0,2:0:0:0:
467,145,38433,2,0,P|480:86|475:27,1,120,2|0,2:0|2:0,2:0:0:0:
292,256,38808,1,2,2:0:0:0:
353,83,38995,1,2,2:0:0:0:
205,290,39183,1,2,2:0:0:0:
155,42,39370,1,2,2:0:0:0:
38,345,39558,54,0,B|108:364|152:293|97:253|170:190|233:221,1,255,2|0,2:0|2:0,2:0:0:0:
205,290,39933,2,0,B|135:309|91:238|146:198|73:135|10:166,1,255,2|0,2:0|2:0,2:0:0:0:
36,234,40308,2,0,P|100:167|-27:109,1,255,2|0,2:0|2:0,2:0:0:0:
29,20,40683,70,0,P|58:23|86:33,1,60,2|0,2:0|2:0,2:0:0:0:
104,10,40870,2,0,P|127:27|146:49,1,60,2|0,2:0|2:0,2:0:0:0:
150,73,41058,22,0,P|233:77|292:48,1,150,2|0,2:0|2:0,2:0:0:0:
313,116,41433,2,0,P|243:146|157:145,1,150,2|0,2:0|2:0,2:0:0:0:
80,218,41808,6,0,P|170:220|254:256,1,180,0|0,2:0|2:0,2:0:0:0:
230,325,42183,2,0,P|147:287|57:295,1,180,0|0,2:0|2:0,2:0:0:0:
39,382,42558,38,0,P|125:349|65:215,1,260,4|0,1:2|2:0,2:0:0:0:
0,326,43120,1,0,2:0:0:0:
2,165,43308,2,0,B|86:140|86:140|139:46|139:46|250:19,1,300,10|0,3:2|2:0,2:0:0:0:
150,170,43870,2,0,L|185:105,1,65,0|0,2:0|2:0,2:0:0:0:
367,152,44058,6,0,P|264:188|306:80,1,260,4|0,1:2|2:0,2:0:0:0:
501,182,44620,1,0,2:0:0:0:
363,69,44808,2,0,B|409:45|409:45|521:66,1,150,10|0,3:2|2:0,2:0:0:0:
180,112,45183,2,0,L|49:87,1,130,0|0,2:0|2:0,2:0:0:0:
259,276,45464,1,0,2:0:0:0:
259,276,45558,70,0,P|271:205|222:150,1,130,4|0,1:2|2:0,2:0:0:0:
44,322,45933,2,0,P|99:367|171:352,1,130,0|0,2:0|2:0,2:0:0:0:
0,113,46308,2,0,B|37:84|37:84|151:107,1,150,10|0,3:2|2:0,2:0:0:0:
350,373,46683,2,0,L|223:343,1,130,0|0,2:0|2:0,2:0:0:0:
407,124,47058,6,0,P|465:195|355:173,1,260,4|0,1:2|2:0,2:0:0:0:
458,54,47620,1,0,2:0:0:0:
429,356,47808,2,0,B|397:309|397:309|258:274,1,160,10|0,3:2|2:0,2:0:0:0:
111,354,48089,1,0,2:0:0:0:
140,371,48183,2,0,P|215:325|217:253,1,140,0|0,2:0|2:0,2:0:0:0:
11,126,48558,70,0,P|0:218|152:272,1,260,4|0,1:2|2:0,2:0:0:0:
187,48,49120,1,0,2:0:0:0:
96,186,49308,2,0,B|165:148|165:148|410:196,1,300,10|0,3:2|2:0,2:0:0:0:
240,236,49870,2,0,L|176:223,1,65,0|0,2:0|2:0,2:0:0:0:
335,365,50058,6,0,P|368:277|459:256,1,195,4|0,1:2|2:0,2:0:0:0:
489,281,50433,2,0,P|415:280|341:161,1,210,0|0,2:0|2:0,2:0:0:0:
402,106,50808,2,0,B|337:153|337:153|191:132,1,225,10|0,3:2|2:0,2:0:0:0:
127,52,51183,2,0,L|265:72,1,130,0|0,2:0|2:0,2:0:0:0:
47,123,51464,1,0,2:0:0:0:
47,123,51558,70,0,P|38:206|87:250,1,130,4|0,1:2|2:0,2:0:0:0:
337,42,51933,2,0,P|269:-7|207:13,1,130,0|0,2:0|2:0,2:0:0:0:
144,295,52308,2,0,B|107:324|107:324|-7:301,1,150,10|0,3:2|2:0,2:0:0:0:
366,111,52683,2,0,L|502:142,1,140,0|0,2:0|2:0,2:0:0:0:
290,143,53058,6,0,L|47:87,1,240,4|0,2:0|2:0,2:0:0:0:
35,11,53433,2,0,L|112:29,1,80,4|0,2:0|2:0,2:0:0:0:
220,198,53620,2,0,L|139:179,1,80,4|0,2:0|2:0,2:0:0:0:
406,47,53808,37,10,2:0:0:0:
308,296,53995,1,4,2:0:0:0:
299,219,54089,1,4,2:0:0:0:
290,143,54183,2,0,L|209:124,1,80,10|0,2:0|2:0,2:0:0:0:
364,348,54370,2,0,L|445:367,1,80,4|0,2:0|2:0,2:0:0:0:
101,271,54558,22,0,B|72:305|100:350|100:350|154:347|195:299|196:249|158:188|97:195,1,280,4|0,3:2|2:0,2:0:0:0:
0,254,55120,1,0,2:0:0:0:
41,24,55308,2,0,B|125:48|125:48|178:142|178:142|289:169,1,300,10|0,3:2|2:0,2:0:0:0:
219,76,55870,2,0,L|189:19,1,65,0|0,2:0|2:0,2:0:0:0:
230,222,56058,6,0,P|319:233|297:97,1,260,4|0,1:2|2:0,2:0:0:0:
159,271,56620,1,0,2:0:0:0:
398,364,56808,2,0,B|435:320|435:320|419:228,1,150,10|0,3:2|2:0,2:0:0:0:
133,64,57183,2,0,L|155:192,1,130,0|0,2:0|2:0,2:0:0:0:
351,104,57464,1,0,2:0:0:0:
351,104,57558,70,0,P|290:123|229:103,1,130,4|0,1:2|2:0,2:0:0:0:
292,374,57933,2,0,P|305:311|353:269,1,130,0|0,2:0|2:0,2:0:0:0:
11,313,58308,2,0,B|55:279|55:279|148:293,1,150,10|0,3:2|2:0,2:0:0:0:
483,206,58683,2,0,L|338:182,1,130,0|0,2:0|2:0,2:0:0:0:
104,84,59058,6,0,P|156:143|40:142,1,260,4|0,1:2|2:0,2:0:0:0:
272,167,59620,1,0,2:0:0:0:
234,363,59808,2,0,B|197:315|197:315|212:214,1,160,10|0,3:2|2:0,2:0:0:0:
361,97,60089,1,0,2:0:0:0:
386,119,60183,2,0,P|307:123|267:189,1,140,0|0,2:0|2:0,2:0:0:0:
426,360,60558,70,0,B|501:369|514:283|474:249|404:235|358:270|327:311,1,260,4|0,1:2|2:0,2:0:0:0:
494,201,61120,1,0,2:0:0:0:
234,363,61308,2,0,B|174:311|174:311|136:64,1,300,10|0,3:2|2:0,2:0:0:0:
231,210,61870,2,0,L|240:274,1,65,0|0,2:0|2:0,2:0:0:0:
444,140,62058,6,0,P|372:106|264:161,1,195,4|0,1:2|2:0,2:0:0:0:
260,182,62433,2,0,P|304:126|195:30,1,210,0|0,2:0|2:0,2:0:0:0:
147,77,62808,2,0,B|216:112|216:112|391:74,1,225,10|0,3:2|2:0,2:0:0:0:
444,140,63183,2,0,L|308:170,1,130,0|0,2:0|2:0,2:0:0:0:
428,294,63464,1,0,2:0:0:0:
428,294,63558,70,0,P|455:225|520:200,1,130,4|0,1:2|2:0,2:0:0:0:
277,357,63933,2,0,P|219:310|150:321,1,130,0|0,2:0|2:0,2:0:0:0:
496,340,64308,2,0,B|452:374|452:374|359:360,1,150,10|0,3:2|2:0,2:0:0:0:
221,59,64683,2,0,L|368:82,1,140,0|0,2:0|2:0,2:0:0:0:
76,384,65058,38,0,P|77:309|50:240,1,150,4|0,1:2|2:0,2:0:0:0:
330,145,65433,2,0,P|329:219|356:288,1,150,0|0,1:0|2:0,2:0:0:0:
66,106,65808,70,0,P|140:106|209:79,1,150,0|0,1:0|2:0,2:0:0:0:
486,104,66183,2,0,P|411:103|342:130,1,150,0|0,1:0|2:0,2:0:0:0:
47,92,66558,2,0,P|121:92|190:65,1,150,0|0,1:0|2:0,2:0:0:0:
76,384,66933,6,0,P|77:309|50:240,1,150,0|0,1:0|2:0,2:0:0:0:
330,145,67308,2,0,P|329:219|356:288,1,150,0|0,1:0|2:0,2:0:0:0:
92,361,67683,2,0,P|93:286|66:217,1,150,0|0,1:0|2:0,2:0:0:0:
206,122,68058,37,4,1:2:0:0:
247,316,68245,1,0,1:0:0:0:
428,103,68433,1,0,1:0:0:0:
383,328,68620,1,0,1:0:0:0:
158,208,68808,1,0,1:0:0:0:
469,266,68995,1,0,1:0:0:0:
123,140,69183,1,0,1:0:0:0:
487,71,69370,1,0,1:0:0:0:
167,292,69558,5,0,3:0:0:0:
122,287,69651,1,0,3:0:0:0:
88,256,69745,1,0,3:0:0:0:
77,212,69839,1,0,3:0:0:0:
92,169,69933,1,0,3:0:0:0:
123,140,70026,1,0,3:0:0:0:
167,136,70120,1,0,3:0:0:0:
207,156,70214,1,0,3:0:0:0:
237,189,70308,1,0,3:0:0:0:
269,139,70401,1,0,3:0:0:0:
324,116,70495,1,0,3:0:0:0:
383,127,70589,1,0,3:0:0:0:
448,217,70683,70,0,P|437:152|388:198,1,150,8|0,2:0|2:0,2:0:0:0:
487,299,71058,38,0,P|371:284|255:316,1,225,4|0,3:1|2:0,2:0:0:0:
182,360,71433,2,0,P|218:354|249:333,1,75,0|0,2:0|2:0,2:0:0:0:
74,194,71620,2,0,P|60:228|63:265,1,75,0|0,2:0|2:0,2:0:0:0:
151,115,71808,70,0,B|206:89|206:89|311:116,1,170,8|0,2:0|2:0,2:0:0:0:
369,226,72089,1,0,2:0:0:0:
327,202,72183,2,0,P|252:169|255:95,1,150,0|0,2:0|2:0,2:0:0:0:
430,280,72558,6,0,P|448:234|440:189,1,80,4|0,2:3|2:0,2:0:0:0:
332,351,72745,2,0,P|314:305|322:260,1,80,0|0,2:0|2:0,2:0:0:0:
177,277,72933,2,0,P|195:231|187:186,1,80,0|0,2:0|2:0,2:0:0:0:
79,348,73120,2,0,P|61:302|69:257,1,80,0|0,2:0|2:0,2:0:0:0:
14,156,73308,70,0,B|92:171|92:171|168:115|168:115|265:132,1,255,8|0,2:0|2:0,2:0:0:0:
192,201,73683,1,0,2:0:0:0:
199,238,73776,1,0,2:0:0:0:
222,270,73870,1,0,2:0:0:0:
251,289,73964,1,0,2:0:0:0:
277,206,74058,53,4,2:0:0:0:
277,206,74808,1,8,2:0:0:0:
256,192,74901,12,0,76964,2:0:0:0:
71,146,77058,70,0,P|34:123|23:107,1,60,4|0,2:0|2:0,2:0:0:0:
40,109,77433,2,0,P|55:119|65:135,1,37.5,2|0,2:0|2:0,2:0:0:0:
6,211,77808,70,0,B|69:263|162:239|150:178|179:119|274:116|321:174,1,330,14|0,2:0|2:0,2:0:0:0:
267,303,78183,6,0,B|241:265|241:265|245:213,1,89.9999999999999,0|0,2:0|2:0,2:0:0:0:
451,258,78370,1,0,2:0:0:0:
452,293,78464,2,0,B|432:334|432:334|385:357,1,89.9999999999999,0|4,2:0|2:0,2:0:0:0:
312,144,78651,1,0,2:0:0:0:
341,125,78745,2,0,B|386:121|386:121|429:150,1,89.9999999999999,0|0,2:0|2:0,2:0:0:0:
167,375,78933,70,0,P|169:266|136:162,1,210,10|0,2:0|2:0,2:0:0:0:
127,142,79120,2,0,P|125:155|129:171,1,25,0|0,2:0|2:0,2:0:0:0:
15,333,79308,2,0,P|13:224|46:120,1,210,10|0,2:0|2:0,2:0:0:0:
55,100,79495,2,0,P|57:113|53:129,1,25,4|0,2:0|2:0,2:0:0:0:
342,212,79683,6,0,P|385:152|246:182,1,360,10|0,2:0|2:0,2:0:0:0:
470,356,80058,70,0,L|473:336,1,12.5,4|0,2:0|2:0,2:0:0:0:
464,364,80245,2,0,L|467:344,1,12.5,0|0,2:0|2:0,2:0:0:0:
388,269,80433,6,0,B|352:288|352:288|385:313|414:306|429:270|471:249|512:278|537:299,1,210,0|0,2:0|2:0,2:0:0:0:
246,349,80808,70,0,P|264:324|267:362,1,89.9999999999999,10|0,2:0|2:0,2:0:0:0:
216,246,80995,2,0,P|213:212|243:242,1,100,0|4,2:0|2:0,2:0:0:0:
106,161,81183,2,0,P|80:134|125:138,1,110,0|0,2:0|2:0,2:0:0:0:
15,341,81370,2,0,B|131:363|104:200|237:252,1,240,6|0,2:0|2:0,2:0:0:0:
350,363,81651,1,0,2:0:0:0:
366,353,81745,6,0,B|345:289|345:289|362:210,1,130,10|0,2:0|2:0,2:0:0:0:
375,17,81933,2,0,B|396:81|396:81|379:160,1,130,4|0,2:0|2:0,2:0:0:0:
350,363,82120,2,0,B|329:299|329:299|346:220,1,130,4|4,2:0|2:0,2:0:0:0:
147,41,82308,70,0,B|214:55|214:55|267:102,1,140,10|0,2:0|2:0,2:0:0:0:
71,337,82495,1,4,2:0:0:0:
28,271,82589,2,0,B|6:205|6:205|21:136,1,140,6|0,2:0|2:0,2:0:0:0:
314,167,82776,1,0,2:0:0:0:
275,236,82870,6,0,B|223:270|223:270|247:215,1,120,6|0,2:0|2:0,2:0:0:0:
442,289,83058,70,0,P|426:293|414:297,1,25,4|0,2:0|2:0,2:0:0:0:
438,371,83339,6,0,P|511:331|390:227,1,300,2|0,2:0|2:0,2:0:0:0:
398,211,83620,70,0,P|424:203|451:201,1,50,0|0,2:0|2:0,2:0:0:0:
342,336,83808,5,8,2:0:0:0:
291,354,83901,1,0,2:0:0:0:
236,354,83995,1,0,2:0:0:0:
185,335,84089,1,0,2:0:0:0:
142,302,84183,70,0,B|116:264|116:264|120:212,1,89.9999999999999,0|0,2:0|2:0,2:0:0:0:
300,142,84370,1,0,2:0:0:0:
301,177,84464,2,0,B|281:218|281:218|234:241,1,89.9999999999999,0|4,2:0|2:0,2:0:0:0:
291,32,84651,1,0,2:0:0:0:
325,23,84745,1,4,2:0:0:0:
389,61,84839,1,4,2:0:0:0:
417,128,84933,6,0,P|321:65|211:61,1,210,10|0,2:0|2:0,2:0:0:0:
191,82,85120,2,0,P|208:83|220:80,1,25,4|4,2:0|2:0,2:0:0:0:
301,177,85308,2,0,P|205:239|95:243,1,210,10|0,2:0|2:0,2:0:0:0:
75,223,85495,2,0,P|92:222|104:225,1,25,4|4,2:0|2:0,2:0:0:0:
188,374,85683,70,0,P|272:375|155:304,1,360,10|0,2:0|2:0,2:0:0:0:
232,311,86058,6,0,P|250:311|271:306,1,37.5,4|0,2:0|2:0,2:0:0:0:
468,187,86433,70,0,B|415:191|415:191|374:168,1,100,4|0,2:0|2:0,2:0:0:0:
182,56,86620,1,0,2:0:0:0:
259,29,86714,2,0,B|312:25|312:25|352:48,1,100,0|10,2:0|2:0,2:0:0:0:
439,272,86901,1,0,2:0:0:0:
359,281,86995,6,0,B|287:226|290:110|290:110|273:167|222:190,1,300,4|0,2:0|2:0,2:0:0:0:
391,106,87370,70,0,P|424:57|408:9,1,100,0|0,2:0|2:0,2:0:0:0:
183,248,87558,2,0,P|154:200|162:155,1,100,4|0,2:0|2:0,2:0:0:0:
417,246,87745,2,0,B|498:257|453:313|524:336|524:336|368:316|368:316|330:339|330:339|242:328|242:328|243:346|243:346|94:324,1,600,12|0,2:0|2:0,2:0:0:0:
21,204,88308,6,0,P|71:187|76:246,1,110,10|0,2:0|2:0,2:0:0:0:
149,48,88495,2,0,P|198:83|192:147,1,110,4|0,2:0|2:0,2:0:0:0:
377,57,88683,2,0,B|425:96|437:171|417:247|417:247|412:182|357:135,1,300,10|0,2:0|2:0,2:0:0:0:
315,195,89058,70,0,P|341:229|346:248,1,60,4|0,2:0|2:0,2:0:0:0:
325,268,89433,1,4,2:0:0:0:
325,268,89526,2,0,P|301:236|293:195,1,75.0000000000002,0|0,2:0|2:0,2:0:0:0:
268,339,89808,6,0,P|218:344|170:330,1,100,10|0,2:0|2:0,2:0:0:0:
8,255,89995,2,0,P|57:260|105:246,1,100,0|0,2:0|2:0,2:0:0:0:
258,115,90183,69,0,2:0:0:0:
201,86,90276,1,0,2:0:0:0:
144,57,90370,1,0,2:0:0:0:
119,82,90464,2,0,B|93:120|93:120|97:172,1,89.9999999999999,0|4,2:0|2:0,2:0:0:0:
361,136,90651,1,0,2:0:0:0:
362,101,90745,2,0,B|342:60|342:60|295:37,1,89.9999999999999,4|0,2:0|2:0,2:0:0:0:
96,368,90933,6,0,P|193:331|298:335,1,210,10|0,2:0|2:0,2:0:0:0:
326,345,91120,1,4,2:0:0:0:
253,303,91214,1,4,2:0:0:0:
169,302,91308,2,0,P|266:265|371:269,1,210,10|0,2:0|2:0,2:0:0:0:
400,289,91495,1,4,2:0:0:0:
332,238,91589,1,4,2:0:0:0:
253,239,91683,70,0,P|186:162|335:192,1,360,10|0,2:0|2:0,2:0:0:0:
125,203,92058,6,0,P|120:184|119:167,1,37.5,4|0,2:0|2:0,2:0:0:0:
18,294,92433,69,0,2:0:0:0:
37,284,92526,1,0,2:0:0:0:
54,274,92620,2,0,P|72:269|90:270,1,37.5000000000001,0|0,2:0|2:0,2:0:0:0:
337,360,92808,6,0,B|285:362|285:362|243:337,1,100,10|0,2:0|2:0,2:0:0:0:
408,175,92995,1,0,2:0:0:0:
430,252,93089,1,4,2:0:0:0:
452,328,93183,2,0,B|427:281|427:281|385:257,1,100,0|0,2:0|2:0,2:0:0:0:
100,352,93370,2,0,B|216:332|135:189|278:192,1,240,6|0,2:0|2:0,2:0:0:0:
489,99,93651,1,0,2:0:0:0:
479,115,93745,70,0,B|415:94|415:94|336:111,1,130,10|0,2:0|2:0,2:0:0:0:
58,245,93933,2,0,B|122:266|122:266|201:249,1,130,4|0,2:0|2:0,2:0:0:0:
489,99,94120,2,0,B|425:78|425:78|346:95,1,130,4|4,2:0|2:0,2:0:0:0:
357,366,94308,6,0,B|407:321|407:321|429:251,1,140,10|0,2:0|2:0,2:0:0:0:
120,0,94495,1,4,2:0:0:0:
62,64,94589,2,0,B|75:129|75:129|124:183,1,140,6|8,2:0|2:0,2:0:0:0:
373,6,94776,1,0,2:0:0:0:
332,75,94870,70,0,B|328:137|328:137|364:88,1,120,6|0,2:0|2:0,2:0:0:0:
276,198,95058,6,0,P|271:187|263:176,1,25,4|0,2:0|2:0,2:0:0:0:
199,221,95339,70,0,P|275:279|288:119,1,300,4|0,2:0|2:0,2:0:0:0:
333,132,95620,6,0,P|355:160|362:181,1,50,6|0,2:0|2:0,2:0:0:0:
175,334,95808,69,8,2:0:0:0:
137,298,95901,1,0,2:0:0:0:
117,250,95995,2,0,P|112:194|137:152,1,89.9999999999999,0|0,2:0|2:0,2:0:0:0:
330,280,96183,5,0,2:0:0:0:
387,309,96276,1,0,2:0:0:0:
444,338,96370,1,0,2:0:0:0:
469,313,96464,2,0,B|495:275|495:275|491:223,1,89.9999999999999,0|4,2:0|2:0,2:0:0:0:
162,39,96651,1,0,2:0:0:0:
161,74,96745,2,0,B|181:115|181:115|228:138,1,89.9999999999999,4|4,2:0|2:0,2:0:0:0:
483,56,96933,70,0,P|380:84|286:158,1,210,10|0,2:0|2:0,2:0:0:0:
281,172,97120,2,0,P|301:161|316:139,1,37.5000000000001,4|4,2:0|2:0,2:0:0:0:
399,283,97308,1,10,2:0:0:0:
322,242,97401,1,4,2:0:0:0:
237,243,97495,1,4,2:0:0:0:
163,291,97589,1,4,2:0:0:0:
153,368,97683,6,0,P|89:312|237:314,1,360,10|0,2:0|2:0,2:0:0:0:
31,204,98058,70,0,B|14:94|96:24|96:24|58:74|71:134,1,300,4|0,2:0|2:0,2:0:0:0:
383,67,98433,2,0,B|355:36|320:27|320:27|339:47|345:77,1,115,2|0,2:0|2:0,2:0:0:0:
207,47,98620,2,0,B|194:41|168:47|168:47|193:22|234:13,1,115,2|0,2:0|2:0,2:0:0:0:
462,130,98808,1,8,2:0:0:0:
193,119,98995,6,0,P|164:166|194:257,1,125,0|0,2:0|2:0,2:0:0:0:
377,353,99183,1,0,2:0:0:0:
411,256,99276,1,0,2:0:0:0:
358,170,99370,2,0,P|312:155|239:188,1,125,4|4,2:0|2:0,2:0:0:0:
512,383,99558,69,4,2:0:0:0:
309,242,99745,2,0,B|270:280|196:280|164:225|164:225|157:280|157:280|90:219|7:269|7:269|79:251|118:310,1,480,8|4,2:0|2:0,2:0:0:0:
130,111,100214,1,4,2:0:0:0:
135,97,100308,22,0,B|78:119|34:42|86:-18|175:-17|225:26|233:80|238:127|242:182|242:182|246:129|293:90|356:112,1,525,10|0,2:0|2:0,2:0:0:0:
472,225,101058,6,0,P|400:245|320:180,1,180,2|0,2:0|2:0,2:0:0:0:
283,119,101433,1,2,2:0:0:0:
331,103,101526,1,0,2:0:0:0:
380,117,101620,1,0,2:0:0:0:
409,157,101714,1,2,2:0:0:0:
370,194,101808,2,0,P|343:184|316:186,3,50,2|0|0|0,2:0|2:0|2:0|2:0,2:0:0:0:
263,238,102183,70,0,P|233:257|202:271,1,70,2|0,2:0|2:0,2:0:0:0:
0,284,102370,2,0,P|37:259|78:241,1,89.9999999999999,2|0,2:0|2:0,2:0:0:0:
338,324,102558,38,0,P|422:371|412:221,1,300,4|2,2:3|2:0,2:0:0:0:
256,367,103120,1,2,2:0:0:0:
409,297,103308,2,0,B|363:251|363:251|392:68,1,225,8|0,2:0|2:0,2:0:0:0:
471,8,103683,2,0,L|448:165,1,150,0|0,2:0|2:0,2:0:0:0:
255,31,104058,70,0,P|253:156|156:79,1,300,8|0,2:3|2:0,2:0:0:0:
330,313,104620,1,0,2:0:0:0:
307,286,104714,1,2,2:0:0:0:
283,258,104808,2,0,B|210:236|210:236|58:275,1,225,8|0,2:0|2:0,2:0:0:0:
25,357,105183,2,0,L|182:316,1,150,0|0,2:0|2:0,2:0:0:0:
25,131,105558,6,0,P|72:87|159:90,1,150,8|0,2:3|2:0,2:0:0:0:
407,302,105933,2,0,P|333:305|278:258,1,150,0|0,2:0|2:0,2:0:0:0:
501,34,106308,2,0,B|463:98|383:84|383:84|371:108|371:108|301:85|235:157,1,300,8|0,2:0|2:0,2:0:0:0:
334,32,106870,1,2,2:0:0:0:
256,217,107058,70,0,P|319:161|185:182,1,320,8|0,2:3|2:0,2:0:0:0:
388,179,107620,1,2,2:0:0:0:
189,303,107808,6,0,L|179:196,1,89.9999999999999,8|0,2:0|2:0,2:0:0:0:
173,320,107995,2,0,L|163:213,1,89.9999999999999,0|0,2:0|2:0,2:0:0:0:
85,61,108183,70,0,L|75:168,1,89.9999999999999,0|0,2:0|2:0,2:0:0:0:
69,44,108370,2,0,L|59:151,1,89.9999999999999,0|0,2:0|2:0,2:0:0:0:
47,362,108558,54,0,P|144:325|291:354,1,240,4|0,2:3|2:0,2:0:0:0:
350,371,108933,2,0,P|311:362|275:345,1,80,2|0,2:0|2:0,2:0:0:0:
463,211,109120,1,8,2:0:0:0:
443,271,109214,1,0,2:0:0:0:
423,331,109308,5,0,2:0:0:0:
369,111,109495,1,8,2:0:0:0:
352,289,109683,1,2,2:0:0:0:
491,74,109870,1,8,2:0:0:0:
285,234,110058,69,8,2:0:0:0:
180,234,110245,1,0,2:0:0:0:
94,186,110433,1,2,2:0:0:0:
40,108,110620,1,8,2:0:0:0:
29,6,110808,5,2,2:0:0:0:
155,89,110995,1,8,2:0:0:0:
198,239,111183,1,2,2:0:0:0:
120,379,111370,1,10,2:0:0:0:
12,258,111558,70,0,B|59:207|145:235|103:322|202:349|249:298,1,270,12|0,2:0|2:0,2:0:0:0:
317,310,111933,2,0,P|280:295|229:313,1,80,2|0,2:0|2:0,2:0:0:0:
425,377,112120,1,8,2:0:0:0:
445,317,112214,1,0,2:0:0:0:
465,257,112308,5,0,2:0:0:0:
275,365,112495,1,8,2:0:0:0:
195,118,112683,1,2,2:0:0:0:
384,255,112870,1,8,2:0:0:0:
154,267,113058,69,12,2:0:0:0:
46,225,113245,1,0,2:0:0:0:
10,119,113433,1,2,2:0:0:0:
72,44,113620,1,8,2:0:0:0:
155,47,113808,1,2,2:0:0:0:
195,118,113995,1,8,2:0:0:0:
166,183,114183,5,10,2:0:0:0:
139,157,114276,1,0,2:0:0:0:
131,115,114370,1,2,2:0:0:0:
154,66,114464,1,0,2:0:0:0:
235,46,114558,70,0,B|327:105|222:198|326:261,1,240,12|0,2:0|2:0,2:0:0:0:
365,317,114933,2,0,P|341:273|308:251,1,80,2|0,2:0|2:0,2:0:0:0:
158,373,115120,1,8,2:0:0:0:
218,353,115214,1,0,2:0:0:0:
278,333,115308,5,0,2:0:0:0:
117,253,115495,1,8,2:0:0:0:
266,226,115683,1,2,2:0:0:0:
187,188,115870,1,8,2:0:0:0:
256,140,116058,6,0,B|372:58|405:134|465:215|571:126|542:15|511:-15|452:-27|410:-17|366:6|379:73,2,480,12|0|4,2:0|2:0|2:0,2:0:0:0:
346,333,118308,6,0,B|391:373|448:368|479:336|479:336|469:265|420:219|336:178|216:253,1,455,8|0,2:0|2:0,2:0:0:0:
229,310,119058,2,0,P|298:272|183:199,1,260,4|0,2:3|2:0,2:0:0:0:
57,129,119808,70,0,B|5:77|-2:-4|99:-40|160:-3|175:100|129:155|43:145|24:195|31:295|104:300,1,455,8|0,2:0|2:0,2:0:0:0:
96,299,120558,6,0,B|52:260|13:193|111:125|178:76|264:196|241:314|393:273,1,490,4|0,2:3|2:0,2:0:0:0:
339,195,121308,2,0,P|295:279|412:184,1,490,8|0,2:0|2:0,2:0:0:0:
388,274,122058,70,0,B|465:194|356:89|486:27|486:27|530:90|501:167|416:189,1,490,4|0,2:3|2:0,2:0:0:0:
343,114,122808,2,0,B|225:49|203:196|60:126,1,280,8|0,2:0|2:0,2:0:0:0:
136,30,123370,1,0,2:0:0:0:
7,266,123558,6,0,P|110:233|247:275,1,225,4|0,2:1|2:0,2:0:0:0:
276,317,123933,2,0,P|245:337|208:337,1,75,0|0,2:0|2:0,2:0:0:0:
300,74,124120,2,0,P|332:91|351:123,1,75,0|0,2:0|2:0,2:0:0:0:
221,258,124308,70,0,B|276:232|276:232|381:259,1,170,8|0,2:0|2:0,2:0:0:0:
424,381,124589,1,0,2:0:0:0:
436,358,124683,2,0,P|361:325|364:251,1,150,0|0,2:0|2:0,2:0:0:0:
417,90,125058,6,0,P|435:136|427:181,1,80,4|0,2:3|2:0,2:0:0:0:
319,19,125245,2,0,P|301:65|309:110,1,80,0|0,2:0|2:0,2:0:0:0:
164,93,125433,2,0,P|182:139|174:184,1,80,0|0,2:0|2:0,2:0:0:0:
66,22,125620,2,0,P|48:68|56:113,1,80,0|0,2:0|2:0,2:0:0:0:
1,214,125808,70,0,B|79:199|79:199|155:255|155:255|252:238,1,255,8|0,2:0|2:0,2:0:0:0:
179,169,126183,1,0,2:0:0:0:
186,132,126276,1,0,2:0:0:0:
209,100,126370,1,0,2:0:0:0:
238,81,126464,1,0,2:0:0:0:
264,164,126558,53,4,2:0:0:0:
264,164,127308,1,8,2:0:0:0:
256,192,127401,12,0,129464,2:0:0:0:
455,352,129558,6,0,L|351:326,1,100,10|0,2:0|2:0,2:0:0:0:
449,267,129933,2,0,L|345:241,1,100,8|0,2:0|2:0,2:0:0:0:
345,157,130308,2,0,L|443:182,1,100,8|0,2:0|2:0,2:0:0:0:
339,72,130683,2,0,L|437:97,1,100,8|0,2:0|2:0,2:0:0:0:
172,72,131058,2,0,L|75:97,1,100,8|0,2:0|2:0,2:0:0:0:
166,157,131433,2,0,L|69:182,1,100,8|0,2:0|2:0,2:0:0:0:
358,312,131808,70,0,B|271:327|278:226|224:225|186:235|186:235|224:225|252:187|248:139,1,300,8|0,2:0|2:0,2:0:0:0:
205,305,132558,6,0,P|167:332|167:296,1,100,8|0,2:0|2:0,2:0:0:0:
333,195,132933,2,0,P|342:221|343:252,1,50,10|0,2:0|2:0,2:0:0:0:
343,182,133120,2,0,P|352:208|353:239,1,50,2|0,2:0|2:0,2:0:0:0:
354,167,133308,2,0,L|371:58,1,100,8|0,2:0|2:0,2:0:0:0:
158,167,133683,2,0,L|141:58,1,100,8|0,2:0|2:0,2:0:0:0:
405,277,134058,70,0,L|474:191,1,110,8|0,2:0|2:0,2:0:0:0:
107,277,134433,2,0,L|37:191,1,110,8|0,2:0|2:0,2:0:0:0:
216,142,134808,6,0,B|189:103|214:24|303:32|346:87|348:175|253:168|216:218|216:260|235:296,1,360,8|0,2:0|2:0,2:0:0:0:
468,304,135558,70,0,P|409:250|281:277,1,195,4|0,3:2|2:0,3:0:0:0:
311,337,135933,2,0,P|349:371|432:354,1,130,0|0,1:0|2:0,3:0:0:0:
428,126,136308,6,0,P|347:151|304:282,1,210,0|0,3:0|2:0,3:0:0:0:
374,289,136683,2,0,P|426:272|453:187,1,140,0|0,1:0|2:0,3:0:0:0:
241,71,137058,70,0,P|221:157|318:265,1,225,0|0,3:0|3:0,3:0:0:0:
357,202,137433,2,0,P|369:145|306:75,1,150,0|0,1:0|3:0,3:0:0:0:
94,211,137808,6,0,P|164:275|317:243,1,240,0|0,3:0|3:0,3:0:0:0:
282,176,138183,2,0,P|236:134|137:155,1,160,0|0,1:0|3:0,3:0:0:0:
145,147,138558,54,0,P|220:129|282:176,1,160,0|0,1:0|3:0,3:0:0:0:
265,255,138745,2,0,P|190:273|129:227,1,160,0|0,3:0|3:0,3:0:0:0:
315,18,138933,6,0,P|368:73|359:150,1,160,0|0,1:0|3:0,3:0:0:0:
282,176,139120,2,0,P|228:120|237:43,1,160,0|0,3:0|3:0,3:0:0:0:
473,156,139308,69,0,1:0:0:0:
491,232,139401,1,0,2:0:0:0:
453,307,139495,1,0,2:0:0:0:
381,344,139589,1,0,2:0:0:0:
304,308,139683,70,0,L|294:255,1,50,2|0,1:2|3:0,3:0:0:0:
272,307,139776,2,0,L|262:253,1,50,2|0,3:2|3:0,3:0:0:0:
241,308,139870,2,0,L|230:256,1,50,2|0,3:2|3:0,3:0:0:0:
211,307,139964,2,0,L|201:254,1,50,2|0,3:2|3:0,3:0:0:0:
181,306,140058,22,0,B|83:298|24:166|81:79|81:79|140:97|172:161|147:223,1,450,4|0,2:0|2:0,3:0:0:0:
177,181,140433,21,2,2:0:0:0:
186,174,140526,1,2,2:0:0:0:
196,167,140620,1,2,2:0:0:0:
205,161,140714,1,2,2:0:0:0:
215,154,140808,5,0,3:0:0:0:
224,148,140901,1,0,3:0:0:0:
234,141,140995,1,0,3:0:0:0:
243,135,141089,1,0,3:0:0:0:
261,224,141183,22,0,P|392:275|336:145,1,360,2|0,2:0|2:0,2:0:0:0:
286,308,141570,2,0,P|378:316|358:127,1,259.999988098145,12|0,3:1|3:0,2:0:0:0:
127,139,141945,69,6,2:0:0:0:
198,166,142038,1,2,2:0:0:0:
114,170,142132,1,2,2:0:0:0:
211,135,142226,1,2,2:0:0:0:
102,199,142320,1,6,2:0:0:0:
225,54,142507,1,0,2:0:0:0:
151,266,142695,1,4,2:0:0:0:
146,25,142882,1,0,2:0:0:0:
231,293,143070,1,4,2:0:0:0:
60,34,143257,1,0,2:0:0:0:
313,268,143445,6,0,B|283:227|283:227|246:213,1,89.9999999999999,4|0,2:0|2:0,2:0:0:0:
0,157,143632,1,0,2:0:0:0:
0,157,143726,1,0,2:0:0:0:
0,157,143820,1,4,2:0:0:0:
302,101,144007,1,0,2:0:0:0:
53,347,144195,70,0,P|57:209|267:103,1,360,4|0,2:0|2:0,2:0:0:0:
66,227,144570,2,0,P|128:145|291:124,1,260,6|0,2:0|2:0,2:0:0:0:
409,249,144945,5,6,2:0:0:0:
338,276,145038,1,2,2:0:0:0:
422,280,145132,1,2,2:0:0:0:
325,245,145226,1,2,2:0:0:0:
434,309,145320,1,6,2:0:0:0:
291,174,145507,1,0,2:0:0:0:
368,384,145695,1,4,2:0:0:0:
442,114,145882,1,0,2:0:0:0:
255,360,146070,70,0,B|241:316|241:316|254:273,1,89.9999999999999,4|0,2:0|2:0,2:0:0:0:
512,152,146257,2,0,B|481:185|481:185|437:196,1,89.9999999999999,0|0,2:0|2:0,2:0:0:0:
140,142,146445,1,4,2:0:0:0:
198,155,146538,1,0,2:0:0:0:
253,170,146632,1,0,2:0:0:0:
308,184,146726,1,0,2:0:0:0:
362,202,146820,2,0,B|368:157|368:157|348:116,1,89.9999999999999,4|0,2:0|2:0,2:0:0:0:
68,108,147007,2,0,B|61:152|61:152|81:193,1,89.9999999999999,0|0,2:0|2:0,2:0:0:0:
246,92,147195,6,0,B|297:4|202:-40|140:1|122:89|206:110|266:158|222:247,1,360,4|0,2:0|2:0,2:0:0:0:
191,337,147570,2,0,P|204:232|256:338,1,300,2|0,3:2|2:0,2:0:0:0:
91,359,147945,69,2,2:0:0:0:
67,324,148038,1,2,2:0:0:0:
55,373,148132,1,2,2:0:0:0:
47,299,148226,1,2,2:0:0:0:
19,384,148320,1,8,2:0:0:0:
60,219,148507,1,0,2:0:0:0:
122,372,148695,1,0,2:0:0:0:
152,150,148882,1,0,2:0:0:0:
249,376,149070,1,4,2:0:0:0:
267,103,149257,1,0,2:0:0:0:
335,367,149445,6,0,B|318:325|318:325|292:303,1,80,0|0,2:0|2:0,2:0:0:0:
75,245,149632,1,0,2:0:0:0:
75,245,149726,1,0,2:0:0:0:
75,245,149820,1,8,2:0:0:0:
277,95,150007,1,0,2:0:0:0:
273,334,150195,70,0,P|387:349|309:218,1,330,0|0,2:0|2:0,2:0:0:0:
320,382,150570,2,0,P|420:339|373:207,1,260,4|0,2:0|2:0,2:0:0:0:
183,264,150945,5,6,2:0:0:0:
172,243,151038,1,2,2:0:0:0:
164,225,151132,1,2,2:0:0:0:
156,205,151226,1,2,2:0:0:0:
149,187,151320,69,4,2:0:0:0:
225,164,151413,1,0,2:0:0:0:
95,140,151507,1,0,2:0:0:0:
260,229,151601,1,0,2:0:0:0:
74,237,151695,1,4,2:0:0:0:
315,93,151882,1,0,2:0:0:0:
92,323,152070,2,0,B|134:295|134:295|155:250,1,100,4|0,2:0|2:0,2:0:0:0:
296,15,152257,2,0,B|254:43|254:43|232:87,1,100,0|0,2:0|2:0,2:0:0:0:
176,384,152445,6,0,B|218:286|318:361|363:243,1,225,10|0,2:0|2:0,2:0:0:0:
370,229,152632,2,0,P|357:249|353:266,1,37.5000000000001,4|0,2:0|2:0,2:0:0:0:
155,244,152820,2,0,B|240:180|289:295|387:215,1,225,10|0,2:0|2:0,2:0:0:0:
400,206,153007,2,0,P|378:216|366:229,1,37.5000000000001,4|0,2:0|2:0,2:0:0:0:
206,112,153195,2,0,B|311:99|296:223|421:203,1,225,10|0,2:0|2:0,2:0:0:0:
437,201,153382,2,0,P|413:199|396:204,1,37.5000000000001,4|0,2:0|2:0,2:0:0:0:
448,277,153570,70,0,P|511:223|396:136,1,260,2|0,3:2|2:0,2:0:0:0:
210,288,153945,5,2,2:0:0:0:
237,217,154038,1,2,2:0:0:0:
241,301,154132,1,2,2:0:0:0:
206,204,154226,1,2,2:0:0:0:
270,313,154320,1,10,2:0:0:0:
130,215,154507,1,0,2:0:0:0:
341,264,154695,1,0,2:0:0:0:
102,309,154882,1,0,2:0:0:0:
316,163,155070,1,4,2:0:0:0:
167,384,155257,1,0,2:0:0:0:
307,83,155445,70,0,B|260:99|260:99|236:150,1,89.9999999999999,0|0,2:0|2:0,2:0:0:0:
301,380,155632,1,0,2:0:0:0:
301,380,155726,1,0,2:0:0:0:
301,380,155820,1,8,2:0:0:0:
173,137,156007,1,0,2:0:0:0:
209,229,156195,6,0,P|81:167|236:60,1,360,0|0,2:0|2:0,2:0:0:0:
117,244,156570,2,0,P|57:162|132:26,1,260,6|0,2:0|2:0,2:0:0:0:
340,163,156945,69,2,2:0:0:0:
352,88,157038,1,2,2:0:0:0:
306,158,157132,1,2,2:0:0:0:
385,92,157226,1,2,2:0:0:0:
275,154,157320,1,10,2:0:0:0:
464,116,157507,1,0,2:0:0:0:
219,75,157695,1,0,2:0:0:0:
459,246,157882,1,0,2:0:0:0:
262,3,158070,6,0,B|294:38|294:38|299:80,1,89.9999999999999,4|0,2:0|2:0,2:0:0:0:
415,312,158257,2,0,B|383:277|383:277|377:234,1,89.9999999999999,0|0,2:0|2:0,2:0:0:0:
219,75,158445,1,4,2:0:0:0:
159,56,158538,1,0,2:0:0:0:
102,77,158632,1,0,2:0:0:0:
74,131,158726,1,0,2:0:0:0:
92,188,158820,2,0,B|128:216|128:216|171:222,1,89.9999999999999,8|0,2:0|2:0,2:0:0:0:
462,51,159007,2,0,B|426:23|426:23|382:16,1,89.9999999999999,0|0,2:0|2:0,2:0:0:0:
155,140,159195,70,0,B|234:92|344:158|267:246|364:328|450:266,1,360,0|0,2:0|2:0,2:0:0:0:
389,142,159570,2,0,P|452:241|331:223,1,300,6|0,2:0|2:0,2:0:0:0:
321,71,159945,5,2,2:0:0:0:
364,125,160038,1,2,2:0:0:0:
295,73,160132,1,2,2:0:0:0:
322,154,160226,1,2,2:0:0:0:
268,65,160320,1,10,2:0:0:0:
261,211,160507,1,0,2:0:0:0:
188,49,160695,1,0,2:0:0:0:
168,243,160882,1,0,2:0:0:0:
103,29,161070,1,4,2:0:0:0:
77,271,161257,1,0,2:0:0:0:
20,35,161445,70,0,B|36:76|36:76|62:98,1,80,0|0,2:0|2:0,2:0:0:0:
269,218,161632,1,0,2:0:0:0:
269,218,161726,1,0,2:0:0:0:
269,218,161820,1,8,2:0:0:0:
188,49,162007,1,0,2:0:0:0:
192,259,162195,6,0,B|220:338|356:338|341:227|437:218|481:297,1,330,0|0,2:0|2:0,2:0:0:0:
357,302,162570,2,0,P|429:269|403:384,1,260,4|0,2:0|2:0,2:0:0:0:
344,197,162945,69,2,2:0:0:0:
355,176,163038,1,2,2:0:0:0:
363,158,163132,1,2,2:0:0:0:
371,138,163226,1,2,2:0:0:0:
378,120,163320,5,8,2:0:0:0:
318,77,163413,1,0,2:0:0:0:
434,66,163507,1,0,2:0:0:0:
289,147,163601,1,0,2:0:0:0:
450,142,163695,1,0,2:0:0:0:
237,11,163882,1,0,2:0:0:0:
507,89,164070,69,4,2:0:0:0:
463,322,164257,2,0,B|363:345|317:250|317:250|296:283|320:331|320:331|256:262|185:302|185:302|231:290|272:336,1,479.999985351563,12|0,2:0|2:0,2:0:0:0:
60,353,164726,1,0,2:0:0:0:
73,336,164820,22,0,B|140:294|155:195|-7:197|35:29|111:-3|187:12|224:54|211:89|210:128|156:158|100:119,1,525.000020027161,8|0,2:0|2:0,2:0:0:0:
234,9,165570,6,0,P|266:65|224:180,1,180,2|0,2:0|2:0,2:0:0:0:
184,230,165945,1,2,2:0:0:0:
217,192,166038,1,0,2:0:0:0:
267,179,166132,1,0,2:0:0:0:
312,199,166226,1,2,2:0:0:0:
310,264,166320,2,0,P|338:259|360:243,3,50,2|0|0|0,2:0|2:0|2:0|2:0,2:0:0:0:
201,346,166695,70,0,P|220:316|234:285,1,70,2|0,2:0|2:0,2:0:0:0:
192,85,166882,2,0,P|167:121|149:162,1,89.9999999999999,2|0,2:0|2:0,2:0:0:0:
43,361,167070,38,0,B|92:298|72:221|19:199|-3:141|59:72,1,300,4|2,2:3|2:0,2:0:0:0:
240,24,167632,1,2,2:0:0:0:
116,148,167820,2,0,B|191:113|191:113|330:138,1,225,8|0,2:0|2:0,2:0:0:0:
395,79,168195,2,0,L|240:51,1,150,0|0,2:0|2:0,2:0:0:0:
439,314,168570,70,0,P|503:245|362:241,1,300,8|0,2:3|2:0,2:0:0:0:
139,362,169132,1,2,2:0:0:0:
162,335,169226,1,0,2:0:0:0:
185,310,169320,2,0,B|240:249|240:249|217:99,1,225,8|0,2:0|2:0,2:0:0:0:
277,43,169695,2,0,L|302:197,1,150,2|0,2:0|2:0,2:0:0:0:
68,104,170070,6,0,P|90:175|149:218,1,150,8|0,2:3|2:0,2:0:0:0:
416,28,170445,2,0,P|344:12|276:42,1,150,2|0,2:0|2:0,2:0:0:0:
445,308,170820,2,0,B|454:182|358:125|358:125|327:178|361:228,1,300,8|0,2:0|2:0,2:0:0:0:
512,230,171382,1,2,2:0:0:0:
378,347,171570,70,0,B|313:383|250:331|250:331|228:346|228:346|179:291|86:320,1,300,8|0,2:3|2:0,2:0:0:0:
0,376,172132,1,2,2:0:0:0:
66,94,172320,6,0,L|76:201,1,89.9999999999999,8|0,2:0|2:0,2:0:0:0:
82,77,172507,2,0,L|92:184,1,89.9999999999999,2|0,2:0|2:0,2:0:0:0:
227,344,172695,70,0,L|237:237,1,89.9999999999999,2|0,2:0|2:0,2:0:0:0:
243,361,172882,2,0,L|253:254,1,89.9999999999999,2|0,2:0|2:0,2:0:0:0:
458,46,173070,54,0,P|361:83|214:54,1,240,4|0,2:3|2:0,2:0:0:0:
155,37,173445,2,0,P|194:46|230:63,1,80,2|0,2:0|2:0,2:0:0:0:
42,197,173632,1,8,2:0:0:0:
62,137,173726,1,0,2:0:0:0:
82,77,173820,5,0,2:0:0:0:
111,268,174007,1,8,2:0:0:0:
173,139,174195,1,2,2:0:0:0:
162,333,174382,1,8,2:0:0:0:
239,178,174570,69,8,2:0:0:0:
323,120,174757,1,0,2:0:0:0:
427,113,174945,1,2,2:0:0:0:
512,171,175132,1,8,2:0:0:0:
462,303,175320,5,2,2:0:0:0:
342,237,175507,1,8,2:0:0:0:
312,101,175695,1,2,2:0:0:0:
393,0,175882,1,10,2:0:0:0:
450,90,176070,70,0,B|309:147|332:-20|174:39,1,270,12|0,2:0|2:0,2:0:0:0:
138,74,176445,2,0,P|167:47|203:29,1,80,2|0,2:0|2:0,2:0:0:0:
280,241,176632,1,8,2:0:0:0:
260,181,176726,1,0,2:0:0:0:
240,121,176820,5,0,2:0:0:0:
196,264,177007,1,8,2:0:0:0:
395,205,177195,1,2,2:0:0:0:
94,134,177382,1,8,2:0:0:0:
351,333,177570,69,12,2:0:0:0:
459,291,177757,1,0,2:0:0:0:
495,185,177945,1,2,2:0:0:0:
433,110,178132,1,8,2:0:0:0:
350,113,178320,1,2,2:0:0:0:
310,184,178507,1,8,2:0:0:0:
339,249,178695,5,10,2:0:0:0:
366,223,178788,1,0,2:0:0:0:
374,181,178882,1,2,2:0:0:0:
351,132,178976,1,0,2:0:0:0:
270,112,179070,70,0,B|178:171|283:264|179:327,1,240,12|0,2:0|2:0,2:0:0:0:
140,384,179445,2,0,P|164:340|197:318,1,80,2|0,2:0|2:0,2:0:0:0:
411,350,179632,1,8,2:0:0:0:
351,330,179726,1,0,2:0:0:0:
291,310,179820,5,0,2:0:0:0:
454,209,180007,1,8,2:0:0:0:
276,237,180195,1,2,2:0:0:0:
364,154,180382,1,8,2:0:0:0:
279,154,180570,6,0,B|229:122|138:146|149:253|186:320|160:368|81:398|-11:360|-1:226|111:238,2,480,12|0|4,2:0|2:0|2:0,2:0:0:0:
367,270,182820,6,0,B|312:372|410:417|473:375|492:285|406:263|344:214|355:112|413:70,1,455,8|0,2:0|2:0,2:0:0:0:
455,147,183570,2,0,P|359:149|360:2,1,260,8|0,2:3|2:0,2:0:0:0:
138,115,184320,70,0,B|140:76|110:50|110:50|171:3|245:70|243:120|236:188|159:226|91:220|54:130,1,455,8|0,2:0|2:0,2:0:0:0:
55,112,185070,6,0,B|84:173|67:276|2:345|2:345|67:277|167:262|260:320,1,490,8|0,2:3|2:0,2:0:0:0:
284,358,185820,2,0,B|209:409|145:352|144:352|144:352|186:235|319:200|435:278,1,490,8|0,2:0|2:0,2:0:0:0:
446,345,186570,70,0,B|350:363|324:276|313:167|400:187|475:206|497:131|475:70|434:34|371:26|326:91,1,490,8|0,2:3|2:0,2:0:0:0:
294,171,187320,2,0,P|344:92|225:126,1,280,8|0,2:0|2:0,2:0:0:0:
278,240,187882,1,0,2:0:0:0:
85,43,188070,6,0,P|137:140|127:251,1,225,4|0,2:3|2:0,2:0:0:0:
131,327,188445,2,0,P|94:319|64:213,1,150,0|0,2:0|2:0,2:0:0:0:
288,331,188726,1,0,2:0:0:0:
280,347,188820,70,0,B|254:292|254:292|281:187,1,170,2|0,2:3|2:0,2:0:0:0:
390,183,189101,1,0,2:0:0:0:
367,171,189195,2,0,P|334:246|260:243,1,150,0|0,2:0|2:0,2:0:0:0:
27,86,189570,6,0,P|111:85|183:19,1,160,4|0,2:3|2:0,2:0:0:0:
166,184,189851,1,0,2:0:0:0:
150,201,189945,2,0,P|66:200|-6:134,1,160,0|0,2:0|2:0,2:0:0:0:
20,305,190226,1,0,2:0:0:0:
38,293,190320,70,0,B|156:237|171:371|289:317,1,255,2|0,2:3|2:0,2:0:0:0:
349,275,190695,5,0,2:0:0:0:
342,238,190788,1,0,2:0:0:0:
319,206,190882,1,0,2:0:0:0:
290,187,190976,1,0,2:0:0:0:
235,248,191070,37,4,3:2:0:0:
235,248,191820,1,2,2:0:0:0:
256,192,191913,12,0,193976,2:0:0:0:
408,359,194070,22,0,B|363:268|506:241|445:145|392:145|343:170|341:201|352:251|399:283,1,350,2|0,2:0|2:0,2:0:0:0:
453,126,195570,2,0,P|408:108|344:122,1,100,2|0,2:0|2:0,2:0:0:0:
257,185,196315,2,0,P|208:191|161:173,1,100,2|0,2:0|2:0,2:0:0:0:
69,34,197060,6,0,B|122:71|103:128|103:128|50:119|17:162,2,200,2|0|0,2:0|2:0|2:0,2:0:0:0:
85,205,198941,1,0,2:0:0:0:
50,277,199314,2,0,P|85:286|107:281,1,50,2|0,2:0|2:0,2:0:0:0:
168,339,199687,2,0,P|192:337|216:346,1,50,2|0,2:0|2:0,2:0:0:0:
357,319,200059,70,0,B|413:314|409:262|409:262|371:236|305:234|279:310,1,225.000000000001,2|0,2:0|2:0,2:0:0:0:
475,295,200813,2,0,P|478:241|436:196,1,100,2|0,2:0|2:0,2:0:0:0:
350,169,201568,2,0,P|322:128|327:79,1,100,2|0,2:0|2:0,2:0:0:0:
455,34,202323,1,2,2:0:0:0:
397,109,202724,1,0,2:0:0:0:
259,43,203077,6,0,L|146:28,1,100,2|0,2:0|2:0,2:0:0:0:
62,102,203832,1,0,2:0:0:0:
141,100,204209,1,0,2:0:0:0:
50,184,204492,2,0,L|45:165,1,12.5,2|2,2:0|2:0,2:0:0:0:
58,208,204587,70,0,B|124:191|178:232|177:322|105:348|52:327|52:327|46:358|46:358|79:324|106:333|131:320|170:367|193:306|193:306|215:249|285:232|345:242|372:310|372:310|302:302|266:362|266:362|226:273|332:200|198:219|218:86|218:86|245:113|282:106|282:106|301:192|370:238|500:208|501:62|464:18|351:18|369:115,1,1599.0000243988,2|0,2:0|2:0,2:0:0:0:
