osu file format v14

[General]
AudioFilename: audio.mp3
AudioLeadIn: 0
PreviewTime: 43510
Countdown: 0
SampleSet: Soft
StackLeniency: 0.2
Mode: 0
LetterboxInBreaks: 0
EpilepsyWarning: 1
WidescreenStoryboard: 1

[Editor]
DistanceSpacing: 0.9
BeatDivisor: 4
GridSize: 4
TimelineZoom: 1

[Metadata]
Title:Myosotis (feat. Guriri & Lucy)
TitleUnicode:Myosotis (feat. Guriri & Lucy)
Artist:M2U & NICODE
ArtistUnicode:M2U & NICODE
Creator:Akareh
Version:Insane
Source:Deemo
Tags:mobile song collection vol. 2 rayark cytus M2UStudio _FlameL MaridiuS Mykaterasu Ayyri
BeatmapID:1564440
BeatmapSetID:643513

[Difficulty]
HPDrainRate:6.6
CircleSize:4.3
OverallDifficulty:8
ApproachRate:9
SliderMultiplier:1.9
SliderTickRate:1

[Events]
//Background and Video events
0,0,"bg.jpg",0,0
//Break Periods
//Storyboard Layer 0 (Background)
//Storyboard Layer 1 (Fail)
//Storyboard Layer 2 (Pass)
//Storyboard Layer 3 (Foreground)
Sprite,Foreground,BottomCentre,"sb\pl.png",0,0 C,0,79885,,255,0,0 M,0,79885,79931,528,168,504.5823,170.6493 R,2,79885,80260,2.268928,5.410521 V,2,79885,80260,15,1,15,0 M,0,79931,79978,504.5823,170.6493,481.5127,166.1932 M,0,79978,80025,481.5127,166.1932,461.0393,154.6142 M,0,80025,80072,461.0393,154.6142,445.2921,137.0923
Sprite,Foreground,BottomCentre,"sb\pl.png",0,0 C,0,79885,,255,0,0 M,0,79885,79931,528,168,504.5823,170.6493 R,2,79885,80260,5.410521,8.552114 V,2,79885,80260,15,1,15,0 P,0,79885,80260,A M,0,79931,79978,504.5823,170.6493,481.5127,166.1932 M,0,79978,80025,481.5127,166.1932,461.0393,154.6142 M,0,80025,80072,461.0393,154.6142,445.2921,137.0923
Sprite,Foreground,BottomCentre,"sb\pl.png",0,0 C,0,80260,,255,0,0 M,0,80260,80306,264,132,287.246,127.9997 R,2,80260,80635,2.565634,5.707227 V,2,80260,80635,15,1,15,0 M,0,80306,80353,287.246,127.9997,308.3259,117.5656 M,0,80353,80400,308.3259,117.5656,325.2595,101.2235 M,0,80400,80447,325.2595,101.2235,336.4502,80.50063
Sprite,Foreground,BottomCentre,"sb\pl.png",0,0 C,0,80260,,255,0,0 M,0,80260,80306,264,132,287.246,127.9997 R,2,80260,80635,5.707227,8.848819 V,2,80260,80635,15,1,15,0 P,0,80260,80635,A M,0,80306,80353,287.246,127.9997,308.3259,117.5656 M,0,80353,80400,308.3259,117.5656,325.2595,101.2235 M,0,80400,80447,325.2595,101.2235,336.4502,80.50063
Sprite,Foreground,BottomCentre,"sb\pl.png",0,0 C,0,80635,,255,0,0 M,0,80635,80681,172,116,171.3025,144.3054 R,2,80635,81010,2.408554,5.550147 V,2,80635,81010,15,1,15,0 M,0,80681,80728,171.3025,144.3054,180.0022,171.1944
Sprite,Foreground,BottomCentre,"sb\pl.png",0,0 C,0,80635,,255,0,0 M,0,80635,80681,172,116,171.3025,144.3054 R,2,80635,81010,5.550147,8.69174 V,2,80635,81010,15,1,15,0 P,0,80635,81010,A M,0,80681,80728,171.3025,144.3054,180.0022,171.1944
Sprite,Foreground,BottomCentre,"sb\pl.png",0,0 C,0,85885,,255,0,0 M,0,85885,85931,200,220,222.5273,226.592 R,2,85885,86260,1.745329,4.886922 V,2,85885,86260,15,1,15,0 M,0,85931,85978,222.5273,226.592,245.7652,224.2714 M,0,85978,86025,245.7652,224.2714,266.181,212.9157 M,0,86025,86072,266.181,212.9157,280.421,194.381 M,0,86072,86109,280.421,194.381,285.6429,176.366
Sprite,Foreground,BottomCentre,"sb\pl.png",0,0 C,0,85885,,255,0,0 M,0,85885,85931,200,220,222.5273,226.592 R,2,85885,86260,4.886922,8.028515 V,2,85885,86260,15,1,15,0 P,0,85885,86260,A M,0,85931,85978,222.5273,226.592,245.7652,224.2714 M,0,85978,86025,245.7652,224.2714,266.181,212.9157 M,0,86025,86072,266.181,212.9157,280.421,194.381 M,0,86072,86109,280.421,194.381,285.6429,176.366
Sprite,Foreground,BottomCentre,"sb\pl.png",240,104 C,0,86260,,255,0,0 R,2,86260,86635,0.6457718,3.787364 V,2,86260,86635,15,1,15,0
Sprite,Foreground,BottomCentre,"sb\pl.png",240,104 C,0,86260,,255,0,0 R,2,86260,86635,3.787364,6.928957 V,2,86260,86635,15,1,15,0 P,0,86260,86635,A
Sprite,Foreground,BottomCentre,"sb\pl.png",0,0 C,0,86635,,255,0,0 M,0,86635,86681,372,144,398.8752,134.5146 R,2,86635,87010,1.745329,4.886922 V,2,86635,87010,15,1,15,0 M,0,86681,86728,398.8752,134.5146,425.7505,125.0293
Sprite,Foreground,BottomCentre,"sb\pl.png",0,0 C,0,86635,,255,0,0 M,0,86635,86681,372,144,398.8752,134.5146 R,2,86635,87010,4.886922,8.028515 V,2,86635,87010,15,1,15,0 P,0,86635,87010,A M,0,86681,86728,398.8752,134.5146,425.7505,125.0293
Sprite,Foreground,BottomCentre,"sb\pl.png",344,384 C,0,92260,,255,0,0 R,2,92260,92635,1.37881,4.520403 V,2,92260,92635,15,1,15,0
Sprite,Foreground,BottomCentre,"sb\pl.png",344,384 C,0,92260,,255,0,0 R,2,92260,92635,4.520403,7.661995 V,2,92260,92635,15,1,15,0 P,0,92260,92635,A
Sprite,Foreground,BottomCentre,"sb\pl.png",0,0 C,0,92635,,255,0,0 M,0,92635,92681,516,368,485.5451,362.9242 R,2,92635,93010,3.054326,6.195919 V,2,92635,93010,15,1,15,0 M,0,92681,92728,485.5451,362.9242,455.2529,357.459 M,0,92728,92775,455.2529,357.459,430.246,339.3505 M,0,92775,92822,430.246,339.3505,405.239,321.242 M,0,92822,92869,405.239,321.242,376.3269,312.6054 M,0,92869,92916,376.3269,312.6054,345.8238,307.8278
Sprite,Foreground,BottomCentre,"sb\pl.png",0,0 C,0,92635,,255,0,0 M,0,92635,92681,516,368,485.5451,362.9242 R,2,92635,93010,6.195919,9.337511 V,2,92635,93010,15,1,15,0 P,0,92635,93010,A M,0,92681,92728,485.5451,362.9242,455.2529,357.459 M,0,92728,92775,455.2529,357.459,430.246,339.3505 M,0,92775,92822,430.246,339.3505,405.239,321.242 M,0,92822,92869,405.239,321.242,376.3269,312.6054 M,0,92869,92916,376.3269,312.6054,345.8238,307.8278
Sprite,Foreground,BottomCentre,"sb\pl.png",0,0 C,0,97885,,255,0,0 M,0,97885,97931,224,232,252.0663,227.0471 R,2,97885,98260,0.8552113,3.996804 V,2,97885,98260,15,1,15,0 M,0,97931,97978,252.0663,227.0471,280.1327,222.0942
Sprite,Foreground,BottomCentre,"sb\pl.png",0,0 C,0,97885,,255,0,0 M,0,97885,97931,224,232,252.0663,227.0471 R,2,97885,98260,3.996804,7.138397 V,2,97885,98260,15,1,15,0 P,0,97885,98260,A M,0,97931,97978,252.0663,227.0471,280.1327,222.0942
Sprite,Foreground,BottomCentre,"sb\pl.png",0,0 C,0,98260,,255,0,0 M,0,98260,98306,476,208,458.9,230.8 R,2,98260,98635,0.9075712,4.049164 V,2,98260,98635,15,1,15,0 M,0,98306,98353,458.9,230.8,441.8,253.6
Sprite,Foreground,BottomCentre,"sb\pl.png",0,0 C,0,98260,,255,0,0 M,0,98260,98306,476,208,458.9,230.8 R,2,98260,98635,4.049164,7.190756 V,2,98260,98635,15,1,15,0 P,0,98260,98635,A M,0,98306,98353,458.9,230.8,441.8,253.6
Sprite,Foreground,BottomCentre,"sb\pl.png",0,0 C,0,98635,,255,0,0 M,0,98635,98681,288,344,306.2452,322.1057 R,2,98635,99010,1.466077,4.607669 V,2,98635,99010,15,1,15,0 M,0,98681,98728,306.2452,322.1057,288,344 M,0,98728,98775,288,344,306.2452,322.1057 M,0,98775,98822,306.2452,322.1057,288,344 M,0,98822,98869,288,344,306.2452,322.1057 M,0,98869,98916,306.2452,322.1057,288,344
Sprite,Foreground,BottomCentre,"sb\pl.png",0,0 C,0,98635,,255,0,0 M,0,98635,98681,288,344,306.2452,322.1057 R,2,98635,99010,4.607669,7.749262 V,2,98635,99010,15,1,15,0 P,0,98635,99010,A M,0,98681,98728,306.2452,322.1057,288,344 M,0,98728,98775,288,344,306.2452,322.1057 M,0,98775,98822,306.2452,322.1057,288,344 M,0,98822,98869,288,344,306.2452,322.1057 M,0,98869,98916,306.2452,322.1057,288,344
Sprite,Foreground,BottomCentre,"sb\monstrata.png",0,0 C,0,80635,,255,0,0 M,0,80635,80681,172,116,171.3025,144.3054 F,1,80635,81010,0.8,0 S,2,80635,81010,0.5,0 R,2,80635,81010,1.972222,5.113815 P,0,80635,81010,A M,0,80681,80728,171.3025,144.3054,180.0022,171.1944
Sprite,Foreground,BottomCentre,"sb\monstrata.png",0,0 C,0,80635,,255,0,0 M,0,80635,80681,172,116,171.3025,144.3054 F,1,80635,81010,0.8,0 S,2,80635,81010,0.5,0 R,2,80635,81010,5.113815,8.255407 P,0,80635,81010,A M,0,80681,80728,171.3025,144.3054,180.0022,171.1944
Sprite,Foreground,BottomCentre,"sb\monstrata.png",0,0 C,0,80635,,255,0,0 M,0,80635,80681,172,116,171.3025,144.3054 F,1,80635,81010,0.8,0 S,2,80635,81010,0.5,0 R,2,80635,81010,3.543018,6.684611 P,0,80635,81010,A M,0,80681,80728,171.3025,144.3054,180.0022,171.1944
Sprite,Foreground,BottomCentre,"sb\monstrata.png",0,0 C,0,80635,,255,0,0 M,0,80635,80681,172,116,171.3025,144.3054 F,1,80635,81010,0.8,0 S,2,80635,81010,0.5,0 R,2,80635,81010,0.4014257,3.543018 P,0,80635,81010,A M,0,80681,80728,171.3025,144.3054,180.0022,171.1944
Sprite,Foreground,BottomCentre,"sb\monstrata.png",0,0 C,0,84291,,255,0,0 M,0,84291,84337,460,296,455.7515,319.3669 F,1,84291,84572,0.8,0 S,2,84291,84572,0.5,0 R,2,84291,84572,1.466077,4.607669 P,0,84291,84572,A M,0,84337,84384,455.7515,319.3669,460,296 M,0,84384,84431,460,296,455.7515,319.3669 M,0,84431,84478,455.7515,319.3669,460,296
Sprite,Foreground,BottomCentre,"sb\monstrata.png",0,0 C,0,84291,,255,0,0 M,0,84291,84337,460,296,455.7515,319.3669 F,1,84291,84572,0.8,0 S,2,84291,84572,0.5,0 R,2,84291,84572,4.607669,7.749262 P,0,84291,84572,A M,0,84337,84384,455.7515,319.3669,460,296 M,0,84384,84431,460,296,455.7515,319.3669 M,0,84431,84478,455.7515,319.3669,460,296
Sprite,Foreground,BottomCentre,"sb\monstrata.png",0,0 C,0,84291,,255,0,0 M,0,84291,84337,460,296,455.7515,319.3669 F,1,84291,84572,0.8,0 S,2,84291,84572,0.5,0 R,2,84291,84572,3.036873,6.178465 P,0,84291,84572,A M,0,84337,84384,455.7515,319.3669,460,296 M,0,84384,84431,460,296,455.7515,319.3669 M,0,84431,84478,455.7515,319.3669,460,296
Sprite,Foreground,BottomCentre,"sb\monstrata.png",0,0 C,0,84291,,255,0,0 M,0,84291,84337,460,296,455.7515,319.3669 F,1,84291,84572,0.8,0 S,2,84291,84572,0.5,0 R,2,84291,84572,-0.1047198,3.036873 P,0,84291,84572,A M,0,84337,84384,455.7515,319.3669,460,296 M,0,84384,84431,460,296,455.7515,319.3669 M,0,84431,84478,455.7515,319.3669,460,296
Sprite,Foreground,BottomCentre,"sb\monstrata.png",0,0 C,0,86635,,255,0,0 M,0,86635,86681,372,144,398.8752,134.5146 F,1,86635,87010,0.8,0 S,2,86635,87010,0.5,0 R,2,86635,87010,3.071779,6.213372 P,0,86635,87010,A M,0,86681,86728,398.8752,134.5146,425.7505,125.0293
Sprite,Foreground,BottomCentre,"sb\monstrata.png",0,0 C,0,86635,,255,0,0 M,0,86635,86681,372,144,398.8752,134.5146 F,1,86635,87010,0.8,0 S,2,86635,87010,0.5,0 R,2,86635,87010,6.213372,9.354964 P,0,86635,87010,A M,0,86681,86728,398.8752,134.5146,425.7505,125.0293
Sprite,Foreground,BottomCentre,"sb\monstrata.png",0,0 C,0,86635,,255,0,0 M,0,86635,86681,372,144,398.8752,134.5146 F,1,86635,87010,0.8,0 S,2,86635,87010,0.5,0 R,2,86635,87010,4.642576,7.784168 P,0,86635,87010,A M,0,86681,86728,398.8752,134.5146,425.7505,125.0293
Sprite,Foreground,BottomCentre,"sb\monstrata.png",0,0 C,0,86635,,255,0,0 M,0,86635,86681,372,144,398.8752,134.5146 F,1,86635,87010,0.8,0 S,2,86635,87010,0.5,0 R,2,86635,87010,1.500983,4.642576 P,0,86635,87010,A M,0,86681,86728,398.8752,134.5146,425.7505,125.0293
Sprite,Foreground,BottomCentre,"sb\monstrata.png",0,0 C,0,90385,,255,0,0 M,0,90385,90431,200,288,171.4446,299.5203 F,1,90385,90760,0.8,0 S,2,90385,90760,0.5,0 R,2,90385,90760,0.08726646,3.228859 P,0,90385,90760,A M,0,90431,90478,171.4446,299.5203,148.0274,319.351 M,0,90478,90525,148.0274,319.351,143.5142,316.5298 M,0,90525,90572,143.5142,316.5298,147.0233,285.8852 M,0,90572,90619,147.0233,285.8852,145.5061,255.0859 M,0,90619,90666,145.5061,255.0859,138.5925,225.0376
Sprite,Foreground,BottomCentre,"sb\monstrata.png",0,0 C,0,90385,,255,0,0 M,0,90385,90431,200,288,171.4446,299.5203 F,1,90385,90760,0.8,0 S,2,90385,90760,0.5,0 R,2,90385,90760,3.228859,6.370452 P,0,90385,90760,A M,0,90431,90478,171.4446,299.5203,148.0274,319.351 M,0,90478,90525,148.0274,319.351,143.5142,316.5298 M,0,90525,90572,143.5142,316.5298,147.0233,285.8852 M,0,90572,90619,147.0233,285.8852,145.5061,255.0859 M,0,90619,90666,145.5061,255.0859,138.5925,225.0376
Sprite,Foreground,BottomCentre,"sb\monstrata.png",0,0 C,0,90385,,255,0,0 M,0,90385,90431,200,288,171.4446,299.5203 F,1,90385,90760,0.8,0 S,2,90385,90760,0.5,0 R,2,90385,90760,1.658063,4.799655 P,0,90385,90760,A M,0,90431,90478,171.4446,299.5203,148.0274,319.351 M,0,90478,90525,148.0274,319.351,143.5142,316.5298 M,0,90525,90572,143.5142,316.5298,147.0233,285.8852 M,0,90572,90619,147.0233,285.8852,145.5061,255.0859 M,0,90619,90666,145.5061,255.0859,138.5925,225.0376
Sprite,Foreground,BottomCentre,"sb\monstrata.png",0,0 C,0,90385,,255,0,0 M,0,90385,90431,200,288,171.4446,299.5203 F,1,90385,90760,0.8,0 S,2,90385,90760,0.5,0 R,2,90385,90760,-1.48353,1.658063 P,0,90385,90760,A M,0,90431,90478,171.4446,299.5203,148.0274,319.351 M,0,90478,90525,148.0274,319.351,143.5142,316.5298 M,0,90525,90572,143.5142,316.5298,147.0233,285.8852 M,0,90572,90619,147.0233,285.8852,145.5061,255.0859 M,0,90619,90666,145.5061,255.0859,138.5925,225.0376
Sprite,Foreground,BottomCentre,"sb\monstrata.png",0,0 C,0,92635,,255,0,0 M,0,92635,92681,516,368,485.5451,362.9242 F,1,92635,93010,0.8,0 S,2,92635,93010,0.5,0 R,2,92635,93010,2.70526,5.846853 P,0,92635,93010,A M,0,92681,92728,485.5451,362.9242,455.2529,357.459 M,0,92728,92775,455.2529,357.459,430.246,339.3505 M,0,92775,92822,430.246,339.3505,405.239,321.242 M,0,92822,92869,405.239,321.242,376.3269,312.6054 M,0,92869,92916,376.3269,312.6054,345.8238,307.8278
Sprite,Foreground,BottomCentre,"sb\monstrata.png",0,0 C,0,92635,,255,0,0 M,0,92635,92681,516,368,485.5451,362.9242 F,1,92635,93010,0.8,0 S,2,92635,93010,0.5,0 R,2,92635,93010,5.846853,8.988445 P,0,92635,93010,A M,0,92681,92728,485.5451,362.9242,455.2529,357.459 M,0,92728,92775,455.2529,357.459,430.246,339.3505 M,0,92775,92822,430.246,339.3505,405.239,321.242 M,0,92822,92869,405.239,321.242,376.3269,312.6054 M,0,92869,92916,376.3269,312.6054,345.8238,307.8278
Sprite,Foreground,BottomCentre,"sb\monstrata.png",0,0 C,0,92635,,255,0,0 M,0,92635,92681,516,368,485.5451,362.9242 F,1,92635,93010,0.8,0 S,2,92635,93010,0.5,0 R,2,92635,93010,4.276057,7.417649 P,0,92635,93010,A M,0,92681,92728,485.5451,362.9242,455.2529,357.459 M,0,92728,92775,455.2529,357.459,430.246,339.3505 M,0,92775,92822,430.246,339.3505,405.239,321.242 M,0,92822,92869,405.239,321.242,376.3269,312.6054 M,0,92869,92916,376.3269,312.6054,345.8238,307.8278
Sprite,Foreground,BottomCentre,"sb\monstrata.png",0,0 C,0,92635,,255,0,0 M,0,92635,92681,516,368,485.5451,362.9242 F,1,92635,93010,0.8,0 S,2,92635,93010,0.5,0 R,2,92635,93010,1.134464,4.276057 P,0,92635,93010,A M,0,92681,92728,485.5451,362.9242,455.2529,357.459 M,0,92728,92775,455.2529,357.459,430.246,339.3505 M,0,92775,92822,430.246,339.3505,405.239,321.242 M,0,92822,92869,405.239,321.242,376.3269,312.6054 M,0,92869,92916,376.3269,312.6054,345.8238,307.8278
Sprite,Foreground,BottomCentre,"sb\monstrata.png",0,0 C,0,96291,,255,0,0 M,0,96291,96337,368,240,395.4958,232.5012 F,1,96291,96478,0.8,0 S,2,96291,96478,0.5,0 R,2,96291,96478,3.124139,6.265732 P,0,96291,96478,A M,0,96337,96384,395.4958,232.5012,368,240
Sprite,Foreground,BottomCentre,"sb\monstrata.png",0,0 C,0,96291,,255,0,0 M,0,96291,96337,368,240,395.4958,232.5012 F,1,96291,96478,0.8,0 S,2,96291,96478,0.5,0 R,2,96291,96478,6.265732,9.407325 P,0,96291,96478,A M,0,96337,96384,395.4958,232.5012,368,240
Sprite,Foreground,BottomCentre,"sb\monstrata.png",0,0 C,0,96291,,255,0,0 M,0,96291,96337,368,240,395.4958,232.5012 F,1,96291,96478,0.8,0 S,2,96291,96478,0.5,0 R,2,96291,96478,4.694936,7.836528 P,0,96291,96478,A M,0,96337,96384,395.4958,232.5012,368,240
Sprite,Foreground,BottomCentre,"sb\monstrata.png",0,0 C,0,96291,,255,0,0 M,0,96291,96337,368,240,395.4958,232.5012 F,1,96291,96478,0.8,0 S,2,96291,96478,0.5,0 R,2,96291,96478,1.553343,4.694936 P,0,96291,96478,A M,0,96337,96384,395.4958,232.5012,368,240
Sprite,Foreground,BottomCentre,"sb\monstrata.png",0,0 C,0,98635,,255,0,0 M,0,98635,98681,288,344,306.2452,322.1057 F,1,98635,99010,0.8,0 S,2,98635,99010,0.5,0 R,2,98635,99010,2.111848,5.253441 P,0,98635,99010,A M,0,98681,98728,306.2452,322.1057,288,344 M,0,98728,98775,288,344,306.2452,322.1057 M,0,98775,98822,306.2452,322.1057,288,344 M,0,98822,98869,288,344,306.2452,322.1057 M,0,98869,98916,306.2452,322.1057,288,344
Sprite,Foreground,BottomCentre,"sb\monstrata.png",0,0 C,0,98635,,255,0,0 M,0,98635,98681,288,344,306.2452,322.1057 F,1,98635,99010,0.8,0 S,2,98635,99010,0.5,0 R,2,98635,99010,5.253441,8.395034 P,0,98635,99010,A M,0,98681,98728,306.2452,322.1057,288,344 M,0,98728,98775,288,344,306.2452,322.1057 M,0,98775,98822,306.2452,322.1057,288,344 M,0,98822,98869,288,344,306.2452,322.1057 M,0,98869,98916,306.2452,322.1057,288,344
Sprite,Foreground,BottomCentre,"sb\monstrata.png",0,0 C,0,98635,,255,0,0 M,0,98635,98681,288,344,306.2452,322.1057 F,1,98635,99010,0.8,0 S,2,98635,99010,0.5,0 R,2,98635,99010,3.682645,6.824237 P,0,98635,99010,A M,0,98681,98728,306.2452,322.1057,288,344 M,0,98728,98775,288,344,306.2452,322.1057 M,0,98775,98822,306.2452,322.1057,288,344 M,0,98822,98869,288,344,306.2452,322.1057 M,0,98869,98916,306.2452,322.1057,288,344
Sprite,Foreground,BottomCentre,"sb\monstrata.png",0,0 C,0,98635,,255,0,0 M,0,98635,98681,288,344,306.2452,322.1057 F,1,98635,99010,0.8,0 S,2,98635,99010,0.5,0 R,2,98635,99010,0.541052,3.682645 P,0,98635,99010,A M,0,98681,98728,306.2452,322.1057,288,344 M,0,98728,98775,288,344,306.2452,322.1057 M,0,98775,98822,306.2452,322.1057,288,344 M,0,98822,98869,288,344,306.2452,322.1057 M,0,98869,98916,306.2452,322.1057,288,344
Sprite,Foreground,BottomCentre,"sb\monstrata.png",0,0 C,0,99385,,255,0,0 M,0,99385,99431,96,252,118.167,260.5258 F,1,99385,99572,0.8,0 S,2,99385,99572,0.5,0 R,2,99385,99572,0.9773844,4.118977 P,0,99385,99572,A M,0,99431,99478,118.167,260.5258,140.3339,269.0515
Sprite,Foreground,BottomCentre,"sb\monstrata.png",0,0 C,0,99385,,255,0,0 M,0,99385,99431,96,252,118.167,260.5258 F,1,99385,99572,0.8,0 S,2,99385,99572,0.5,0 R,2,99385,99572,4.118977,7.26057 P,0,99385,99572,A M,0,99431,99478,118.167,260.5258,140.3339,269.0515
Sprite,Foreground,BottomCentre,"sb\monstrata.png",0,0 C,0,99385,,255,0,0 M,0,99385,99431,96,252,118.167,260.5258 F,1,99385,99572,0.8,0 S,2,99385,99572,0.5,0 R,2,99385,99572,2.548181,5.689773 P,0,99385,99572,A M,0,99431,99478,118.167,260.5258,140.3339,269.0515
Sprite,Foreground,BottomCentre,"sb\monstrata.png",0,0 C,0,99385,,255,0,0 M,0,99385,99431,96,252,118.167,260.5258 F,1,99385,99572,0.8,0 S,2,99385,99572,0.5,0 R,2,99385,99572,-0.5934119,2.548181 P,0,99385,99572,A M,0,99431,99478,118.167,260.5258,140.3339,269.0515
Sprite,Foreground,BottomCentre,"sb\monstrata.png",0,0 C,0,99572,,255,0,0 M,0,99572,99618,232,192,208.5262,195.6114 F,1,99572,99759,0.8,0 S,2,99572,99759,0.5,0 R,2,99572,99759,2.565634,5.707227 P,0,99572,99759,A M,0,99618,99665,208.5262,195.6114,185.0523,199.2227
Sprite,Foreground,BottomCentre,"sb\monstrata.png",0,0 C,0,99572,,255,0,0 M,0,99572,99618,232,192,208.5262,195.6114 F,1,99572,99759,0.8,0 S,2,99572,99759,0.5,0 R,2,99572,99759,5.707227,8.848819 P,0,99572,99759,A M,0,99618,99665,208.5262,195.6114,185.0523,199.2227
Sprite,Foreground,BottomCentre,"sb\monstrata.png",0,0 C,0,99572,,255,0,0 M,0,99572,99618,232,192,208.5262,195.6114 F,1,99572,99759,0.8,0 S,2,99572,99759,0.5,0 R,2,99572,99759,4.13643,7.278023 P,0,99572,99759,A M,0,99618,99665,208.5262,195.6114,185.0523,199.2227
Sprite,Foreground,BottomCentre,"sb\monstrata.png",0,0 C,0,99572,,255,0,0 M,0,99572,99618,232,192,208.5262,195.6114 F,1,99572,99759,0.8,0 S,2,99572,99759,0.5,0 R,2,99572,99759,0.9948376,4.13643 P,0,99572,99759,A M,0,99618,99665,208.5262,195.6114,185.0523,199.2227
Sprite,Foreground,BottomCentre,"sb\monstrata.png",0,0 C,0,100322,,255,0,0 M,0,100322,100368,376,100,368.4896,122.5312 F,1,100322,100509,0.8,0 S,2,100322,100509,0.5,0 R,2,100322,100509,3.106686,6.248279 P,0,100322,100509,A M,0,100368,100415,368.4896,122.5312,376,100
Sprite,Foreground,BottomCentre,"sb\monstrata.png",0,0 C,0,100322,,255,0,0 M,0,100322,100368,376,100,368.4896,122.5312 F,1,100322,100509,0.8,0 S,2,100322,100509,0.5,0 R,2,100322,100509,6.248279,9.389872 P,0,100322,100509,A M,0,100368,100415,368.4896,122.5312,376,100
Sprite,Foreground,BottomCentre,"sb\monstrata.png",0,0 C,0,100322,,255,0,0 M,0,100322,100368,376,100,368.4896,122.5312 F,1,100322,100509,0.8,0 S,2,100322,100509,0.5,0 R,2,100322,100509,4.677482,7.819075 P,0,100322,100509,A M,0,100368,100415,368.4896,122.5312,376,100
Sprite,Foreground,BottomCentre,"sb\monstrata.png",0,0 C,0,100322,,255,0,0 M,0,100322,100368,376,100,368.4896,122.5312 F,1,100322,100509,0.8,0 S,2,100322,100509,0.5,0 R,2,100322,100509,1.53589,4.677482 P,0,100322,100509,A M,0,100368,100415,368.4896,122.5312,376,100
Sprite,Foreground,Centre,"sb\1\0041.png",0,307.15 F,2,133310,133510,0,1 MX,0,133310,136510,334.1,374.1 S,0,133510,,0.7 F,1,135710,136510,1,0
Sprite,Foreground,Centre,"sb\1\006b.png",0,306.45 F,2,133310,133510,0,1 MX,0,133310,136510,348.45,388.45 S,0,133510,,0.7 F,1,135710,136510,1,0
Sprite,Foreground,Centre,"sb\1\0061.png",0,309.95 F,2,133310,133510,0,1 MX,0,133310,136510,358.95,398.95 S,0,133510,,0.7 F,1,135710,136510,1,0
Sprite,Foreground,Centre,"sb\1\0072.png",0,310.65 F,2,133310,133510,0,1 MX,0,133310,136510,370.5,410.5 S,0,133510,,0.7 F,1,135710,136510,1,0
Sprite,Foreground,Centre,"sb\1\0065.png",0,310.3 F,2,133310,133510,0,1 MX,0,133310,136510,378.55,418.55 S,0,133510,,0.7 F,1,135710,136510,1,0
Sprite,Foreground,Centre,"sb\1\0068.png",0,304.7 F,2,133310,133510,0,1 MX,0,133310,136510,388.7,428.7 S,0,133510,,0.7 F,1,135710,136510,1,0
Sprite,Foreground,Centre,"sb\mango1.png",0,0 R,0,78760,,0.9075712 R,0,78760,,1.012291 C,0,78760,,255,0,0 M,0,78760,78806,116,352,134.2861,330.3916 F,2,78760,79241,1,0 S,2,78760,79241,1,0.2 P,0,78760,79241,A R,0,78806,,1.012291 M,0,78806,78853,134.2861,330.3916,158.5808,315.9621 R,0,78853,,1.012291 M,0,78853,78900,158.5808,315.9621,186.2277,310.175 R,0,78900,,1.012291 M,0,78900,78947,186.2277,310.175,214.2042,314.1778 R,0,78947,,1.012291 M,0,78947,78994,214.2042,314.1778,239.3985,326.9688 R,0,78994,,1.012291 M,0,78994,79041,239.3985,326.9688,258.6793,347.6396
Sprite,Foreground,Centre,"sb\mango1.png",0,0 R,0,79135,,0.9599311 R,0,79135,,0.6981317 C,0,79135,,255,0,0 M,0,79135,79181,320,404,348.3934,404.3138 F,2,79135,79428,1,0 S,2,79135,79428,1,0.2 P,0,79135,79428,A R,0,79181,,0.6981317 M,0,79181,79228,348.3934,404.3138,375.9756,397.566
Sprite,Foreground,Centre,"sb\mango1.png",488,343 R,0,79322,,0.2443461 C,0,79322,,255,0,0 F,2,79322,79522,1,0 S,2,79322,79522,1,0.2 P,0,79322,79522,A
Sprite,Foreground,Centre,"sb\mango1.png",0,0 R,0,79416,,0.6981317 R,0,79416,,1.134464 C,0,79416,,255,0,0 M,0,79416,79462,496,328,510.14,303.2551 F,2,79416,79803,1,0 S,2,79416,79803,1,0.2 P,0,79416,79803,A R,0,79462,,1.134464 M,0,79462,79509,510.14,303.2551,487.6628,304.5069 R,0,79509,,1.134464 M,0,79509,79556,487.6628,304.5069,459.6393,309.6964 R,0,79556,,1.134464 M,0,79556,79603,459.6393,309.6964,431.6158,314.886
Sprite,Foreground,Centre,"sb\mango1.png",0,0 R,0,79697,,0.541052 R,0,79697,,1.22173 C,0,79697,,255,0,0 M,0,79697,79743,356,216,384.1512,220.4449 F,2,79697,79990,1,0 S,2,79697,79990,1,0.2 P,0,79697,79990,A R,0,79743,,1.22173 M,0,79743,79790,384.1512,220.4449,412.3025,224.8899
Sprite,Foreground,Centre,"sb\mango1.png",0,0 R,0,79885,,0.3316126 R,0,79885,,0.3665192 C,0,79885,,255,0,0 M,0,79885,79931,528,168,504.5823,170.6493 F,2,79885,80272,1,0 S,2,79885,80272,1,0.2 P,0,79885,80272,A R,0,79931,,0.3665192 M,0,79931,79978,504.5823,170.6493,481.5127,166.1932 R,0,79978,,0.3665192 M,0,79978,80025,481.5127,166.1932,461.0393,154.6142 R,0,80025,,0.3665192 M,0,80025,80072,461.0393,154.6142,445.2921,137.0923
Sprite,Foreground,Centre,"sb\mango1.png",0,0 R,0,80260,,0.5759587 R,0,80260,,0.7853982 C,0,80260,,255,0,0 M,0,80260,80306,264,132,287.246,127.9997 F,2,80260,80647,1,0 S,2,80260,80647,1,0.2 P,0,80260,80647,A R,0,80306,,0.7853982 M,0,80306,80353,287.246,127.9997,308.3259,117.5656 R,0,80353,,0.7853982 M,0,80353,80400,308.3259,117.5656,325.2595,101.2235 R,0,80400,,0.7853982 M,0,80400,80447,325.2595,101.2235,336.4502,80.50063
Sprite,Foreground,Centre,"sb\mango1.png",0,0 R,0,80635,,0.5759587 R,0,80635,,1.22173 C,0,80635,,255,0,0 M,0,80635,80681,172,116,171.3025,144.3054 F,2,80635,80928,1,0 S,2,80635,80928,1,0.2 P,0,80635,80928,A R,0,80681,,1.22173 M,0,80681,80728,171.3025,144.3054,180.0022,171.1944
Sprite,Foreground,Centre,"sb\mango1.png",0,0 R,0,80822,,0.03490658 R,0,80822,,1.082104 C,0,80822,,255,0,0 M,0,80822,80868,216,276,190.5816,263.3579 F,2,80822,81115,1,0 S,2,80822,81115,1,0.2 P,0,80822,81115,A R,0,80868,,1.082104 M,0,80868,80915,190.5816,263.3579,162.8253,257.548
Sprite,Foreground,Centre,"sb\mango1.png",0,0 R,0,81010,,1.239184 R,0,81010,,0.8377581 C,0,81010,,255,0,0 M,0,81010,81056,80,376,94.37814,357.3108 F,2,81010,81491,1,0 S,2,81010,81491,1,0.2 P,0,81010,81491,A R,0,81056,,0.8377581 M,0,81056,81103,94.37814,357.3108,113.5708,343.7368 R,0,81103,,0.8377581 M,0,81103,81150,113.5708,343.7368,136.0528,336.8486 R,0,81150,,0.8377581 M,0,81150,81197,136.0528,336.8486,159.5699,337.3417 R,0,81197,,0.8377581 M,0,81197,81244,159.5699,337.3417,181.7625,345.1733 R,0,81244,,0.8377581 M,0,81244,81291,181.7625,345.1733,200.4011,359.5656
Sprite,Foreground,Centre,"sb\mango1.png",0,0 R,0,81385,,0.3839724 R,0,81385,,1.012291 C,0,81385,,255,0,0 M,0,81385,81431,284,416,287.7262,397.369 F,2,81385,81866,1,0 S,2,81385,81866,1,0.2 P,0,81385,81866,A R,0,81431,,1.012291 M,0,81431,81478,287.7262,397.369,291.4524,378.7379 R,0,81478,,1.012291 M,0,81478,81525,291.4524,378.7379,290.3873,359.8726 R,0,81525,,1.012291 M,0,81525,81572,290.3873,359.8726,288.4967,340.9669 R,0,81572,,1.012291 M,0,81572,81619,288.4967,340.9669,291.3975,322.4099 R,0,81619,,1.012291 M,0,81619,81666,291.3975,322.4099,296.0057,303.9772
Sprite,Foreground,Centre,"sb\mango1.png",0,0 R,0,81760,,1.064651 R,0,81760,,1.239184 C,0,81760,,255,0,0 M,0,81760,81806,280,208,303.2888,212.6578 F,2,81760,82053,1,0 S,2,81760,82053,1,0.2 P,0,81760,82053,A R,0,81806,,1.239184 M,0,81806,81853,303.2888,212.6578,326.5776,217.3155
Sprite,Foreground,Centre,"sb\mango1.png",0,0 R,0,81947,,0.03490658 R,0,81947,,0.8726646 C,0,81947,,255,0,0 M,0,81947,81993,380,300,395.5843,282.0781 F,2,81947,82240,1,0 S,2,81947,82240,1,0.2 P,0,81947,82240,A R,0,81993,,0.8726646 M,0,81993,82040,395.5843,282.0781,411.1685,264.1563
Sprite,Foreground,Centre,"sb\mango1.png",0,0 R,0,82135,,0.6457718 R,0,82135,,1.169371 C,0,82135,,255,0,0 M,0,82135,82181,510,293,510.7783,269.2628 F,2,82135,82428,1,0 S,2,82135,82428,1,0.2 P,0,82135,82428,A R,0,82181,,1.169371 M,0,82181,82228,510.7783,269.2628,511.5565,245.5255
Sprite,Foreground,Centre,"sb\mango1.png",0,0 R,0,82322,,0.8552113 R,0,82322,,0.6806784 C,0,82322,,255,0,0 M,0,82322,82368,560,160,537.1638,166.5246 F,2,82322,82709,1,0 S,2,82322,82709,1,0.2 P,0,82322,82709,A R,0,82368,,0.6806784 M,0,82368,82415,537.1638,166.5246,514.5636,162.1879 R,0,82415,,0.6806784 M,0,82415,82462,514.5636,162.1879,491.8253,164.5789 R,0,82462,,0.6806784 M,0,82462,82509,491.8253,164.5789,468.1863,165.4706
Sprite,Foreground,Centre,"sb\mango1.png",392,112 R,0,82603,,0.08726646 C,0,82603,,255,0,0 F,2,82603,82803,1,0 S,2,82603,82803,1,0.2 P,0,82603,82803,A
Sprite,Foreground,Centre,"sb\mango1.png",0,0 R,0,82697,,0.2268928 R,0,82697,,0.5585054 C,0,82697,,255,0,0 M,0,82697,82743,400,124,372.7973,115.4992 F,2,82697,82990,1,0 S,2,82697,82990,1,0.2 P,0,82697,82990,A R,0,82743,,0.5585054 M,0,82743,82790,372.7973,115.4992,345.5946,106.9983
Sprite,Foreground,Centre,"sb\mango1.png",0,0 R,0,82885,,0.3665192 R,0,82885,,1.239184 C,0,82885,,255,0,0 M,0,82885,82931,244,100,245.339,128.2861 F,2,82885,83272,1,0 S,2,82885,83272,1,0.2 P,0,82885,83272,A R,0,82931,,1.239184 M,0,82931,82978,245.339,128.2861,255.6254,154.6165 R,0,82978,,1.239184 M,0,82978,83025,255.6254,154.6165,273.6572,176.3875 R,0,83025,,1.239184 M,0,83025,83072,273.6572,176.3875,297.8706,191.1043
Sprite,Foreground,Centre,"sb\mango1.png",360,280 R,0,83166,,0.8028514 C,0,83166,,255,0,0 F,2,83166,83366,1,0 S,2,83166,83366,1,0.2 P,0,83166,83366,A
Sprite,Foreground,Centre,"sb\mango1.png",0,0 R,0,83260,,0.9424778 R,0,83260,,0.03490658 C,0,83260,,255,0,0 M,0,83260,83306,360,280,332.3564,273.9554 F,2,83260,83647,1,0 S,2,83260,83647,1,0.2 P,0,83260,83647,A R,0,83306,,0.03490658 M,0,83306,83353,332.3564,273.9554,304.2347,277.1119 R,0,83353,,0.03490658 M,0,83353,83400,304.2347,277.1119,279.0947,290.0731 R,0,83400,,0.03490658 M,0,83400,83447,279.0947,290.0731,259.4431,310.4331
Sprite,Foreground,Centre,"sb\mango1.png",0,0 R,0,83541,,0.4712389 R,0,83541,,0.418879 C,0,83541,,255,0,0 M,0,83541,83587,164,228,192.5,228 F,2,83541,83834,1,0 S,2,83541,83834,1,0.2 P,0,83541,83834,A R,0,83587,,0.418879 M,0,83587,83634,192.5,228,220,228
Sprite,Foreground,Centre,"sb\mango1.png",316,408 R,0,83728,,1.186824 C,0,83728,,255,0,0 F,2,83728,83928,1,0 S,2,83728,83928,1,0.2 P,0,83728,83928,A
Sprite,Foreground,Centre,"sb\mango1.png",0,0 R,0,83822,,0.6283185 R,0,83822,,0.8901179 C,0,83822,,255,0,0 M,0,83822,83868,316,408,321.8127,380.0991 F,2,83822,84115,1,0 S,2,83822,84115,1,0.2 P,0,83822,84115,A R,0,83868,,0.8901179 M,0,83868,83915,321.8127,380.0991,327.6254,352.1981
Sprite,Foreground,Centre,"sb\mango1.png",0,0 R,0,84010,,0.1396263 R,0,84010,,0.3316126 C,0,84010,,255,0,0 M,0,84010,84056,396,148,401.474,171.0448 F,2,84010,84397,1,0 S,2,84010,84397,1,0.2 P,0,84010,84397,A R,0,84056,,0.3316126 M,0,84056,84103,401.474,171.0448,401.0431,194.7321 R,0,84103,,0.3316126 M,0,84103,84150,401.0431,194.7321,397.5193,217.0749 R,0,84150,,0.3316126 M,0,84150,84197,397.5193,217.0749,415.9553,232.0168
Sprite,Foreground,Centre,"sb\mango1.png",0,0 R,0,84291,,1.134464 R,0,84291,,0.9948376 C,0,84291,,255,0,0 M,0,84291,84337,460,296,455.7515,319.3669 F,2,84291,84678,1,0 S,2,84291,84678,1,0.2 P,0,84291,84678,A R,0,84337,,0.9948376 M,0,84337,84384,455.7515,319.3669,460,296 R,0,84384,,0.9948376 M,0,84384,84431,460,296,455.7515,319.3669 R,0,84431,,0.9948376 M,0,84431,84478,455.7515,319.3669,460,296
Sprite,Foreground,Centre,"sb\mango1.png",0,0 R,0,84572,,0.418879 R,0,84572,,0.5585054 C,0,84572,,255,0,0 M,0,84572,84618,560,388,556.8611,364.4583 F,2,84572,84865,1,0 S,2,84572,84865,1,0.2 P,0,84572,84865,A R,0,84618,,0.5585054 M,0,84618,84665,556.8611,364.4583,553.7222,340.9167
Sprite,Foreground,Centre,"sb\mango1.png",0,0 R,0,84760,,0.1745329 R,0,84760,,0.2617994 C,0,84760,,255,0,0 M,0,84760,84806,576,256,547.7982,258.9009 F,2,84760,85053,1,0 S,2,84760,85053,1,0.2 P,0,84760,85053,A R,0,84806,,0.2617994 M,0,84806,84853,547.7982,258.9009,520.0805,253.143
Sprite,Foreground,Centre,"sb\mango1.png",0,0 R,0,84947,,0.5061455 R,0,84947,,0.8901179 C,0,84947,,255,0,0 M,0,84947,84993,408,400,436.5,400 F,2,84947,85240,1,0 S,2,84947,85240,1,0.2 P,0,84947,85240,A R,0,84993,,0.8901179 M,0,84993,85040,436.5,400,465,400
Sprite,Foreground,Centre,"sb\mango1.png",0,0 R,0,85135,,0.7679449 R,0,85135,,0.6108652 C,0,85135,,255,0,0 M,0,85135,85181,556,176,529.2225,166.8989 F,2,85135,85522,1,0 S,2,85135,85522,1,0.2 P,0,85135,85522,A R,0,85181,,0.6108652 M,0,85181,85228,529.2225,166.8989,501.016,167.7953 R,0,85228,,0.6108652 M,0,85228,85275,501.016,167.7953,474.7773,178.2594 R,0,85275,,0.6108652 M,0,85275,85322,474.7773,178.2594,454.3444,197.777
Sprite,Foreground,Centre,"sb\mango1.png",0,0 R,0,85416,,0.2443461 R,0,85416,,1.099557 C,0,85416,,255,0,0 M,0,85416,85462,380,296,362.6373,299.6909 F,2,85416,85803,1,0 S,2,85416,85803,1,0.2 P,0,85416,85803,A R,0,85462,,1.099557 M,0,85462,85509,362.6373,299.6909,344.921,298.8612 R,0,85509,,1.099557 M,0,85509,85556,344.921,298.8612,328.0069,293.5722 R,0,85556,,1.099557 M,0,85556,85603,328.0069,293.5722,312.9037,284.2697
Sprite,Foreground,Centre,"sb\mango1.png",200,220 R,0,85698,,1.029744 C,0,85698,,255,0,0 F,2,85698,85898,1,0 S,2,85698,85898,1,0.2 P,0,85698,85898,A
Sprite,Foreground,Centre,"sb\mango1.png",200,220 R,0,85791,,0.9075712 C,0,85791,,255,0,0 F,2,85791,85991,1,0 S,2,85791,85991,1,0.2 P,0,85791,85991,A
Sprite,Foreground,Centre,"sb\mango1.png",0,0 R,0,85885,,1.064651 R,0,85885,,0.8377581 C,0,85885,,255,0,0 M,0,85885,85931,200,220,222.5273,226.592 F,2,85885,86309,1,0 S,2,85885,86309,1,0.2 P,0,85885,86309,A R,0,85931,,0.8377581 M,0,85931,85978,222.5273,226.592,245.7652,224.2714 R,0,85978,,0.8377581 M,0,85978,86025,245.7652,224.2714,266.181,212.9157 R,0,86025,,0.8377581 M,0,86025,86072,266.181,212.9157,280.421,194.381 R,0,86072,,0.8377581 M,0,86072,86109,280.421,194.381,285.6429,176.366
Sprite,Foreground,Centre,"sb\mango1.png",244,64 R,0,86166,,0.7679449 C,0,86166,,255,0,0 F,2,86166,86366,1,0 S,2,86166,86366,1,0.2 P,0,86166,86366,A
Sprite,Foreground,Centre,"sb\mango1.png",240,104 R,0,86260,,0.2617994 C,0,86260,,255,0,0 F,2,86260,86460,1,0 S,2,86260,86460,1,0.2 P,0,86260,86460,A
Sprite,Foreground,Centre,"sb\mango1.png",276,92 R,0,86353,,1.117011 C,0,86353,,255,0,0 F,2,86353,86553,1,0 S,2,86353,86553,1,0.2 P,0,86353,86553,A
Sprite,Foreground,Centre,"sb\mango1.png",316,96 R,0,86447,,1.117011 C,0,86447,,255,0,0 F,2,86447,86647,1,0 S,2,86447,86647,1,0.2 P,0,86447,86647,A
Sprite,Foreground,Centre,"sb\mango1.png",348,112 R,0,86541,,0.1047198 C,0,86541,,255,0,0 F,2,86541,86741,1,0 S,2,86541,86741,1,0.2 P,0,86541,86741,A
Sprite,Foreground,Centre,"sb\mango1.png",0,0 R,0,86635,,1.047198 R,0,86635,,0.2094395 C,0,86635,,255,0,0 M,0,86635,86681,372,144,398.8752,134.5146 F,2,86635,86928,1,0 S,2,86635,86928,1,0.2 P,0,86635,86928,A R,0,86681,,0.2094395 M,0,86681,86728,398.8752,134.5146,425.7505,125.0293
Sprite,Foreground,Centre,"sb\mango1.png",0,0 R,0,86822,,0.8028514 R,0,86822,,1.029744 C,0,86822,,255,0,0 M,0,86822,86868,503,220,495.0753,247.3761 F,2,86822,87115,1,0 S,2,86822,87115,1,0.2 P,0,86822,87115,A R,0,86868,,1.029744 M,0,86868,86915,495.0753,247.3761,487.1507,274.7522
Sprite,Foreground,Centre,"sb\mango1.png",0,0 R,0,87010,,0.2617994 R,0,87010,,1.239184 C,0,87010,,255,0,0 M,0,87010,87056,436,392,416.8854,378.1901 F,2,87010,87397,1,0 S,2,87010,87397,1,0.2 P,0,87010,87397,A R,0,87056,,1.239184 M,0,87056,87103,416.8854,378.1901,394.6697,370.4803 R,0,87103,,1.239184 M,0,87103,87150,394.6697,370.4803,371.1385,369.9431 R,0,87150,,1.239184 M,0,87150,87197,371.1385,369.9431,348.542,376.6476
Sprite,Foreground,Centre,"sb\mango1.png",272,420 R,0,87291,,0.5934119 C,0,87291,,255,0,0 F,2,87291,87491,1,0 S,2,87291,87491,1,0.2 P,0,87291,87491,A
Sprite,Foreground,Centre,"sb\mango1.png",0,0 R,0,87385,,0.8028514 R,0,87385,,0.8901179 C,0,87385,,255,0,0 M,0,87385,87431,272,420,263.1657,398.0663 F,2,87385,87678,1,0 S,2,87385,87678,1,0.2 P,0,87385,87678,A R,0,87431,,0.8901179 M,0,87431,87478,263.1657,398.0663,259.5986,374.7341
Sprite,Foreground,Centre,"sb\mango1.png",328,248 R,0,87572,,1.012291 C,0,87572,,255,0,0 F,2,87572,87772,1,0 S,2,87572,87772,1,0.2 P,0,87572,87772,A
Sprite,Foreground,Centre,"sb\mango1.png",328,248 R,0,87666,,0.122173 C,0,87666,,255,0,0 F,2,87666,87866,1,0 S,2,87666,87866,1,0.2 P,0,87666,87866,A
Sprite,Foreground,Centre,"sb\mango1.png",0,0 R,0,87760,,0.9075712 R,0,87760,,0.8901179 C,0,87760,,255,0,0 M,0,87760,87806,328,248,328.6689,271.5731 F,2,87760,88053,1,0 S,2,87760,88053,1,0.2 P,0,87760,88053,A R,0,87806,,0.8901179 M,0,87806,87853,328.6689,271.5731,322.4348,294.2431
Sprite,Foreground,Centre,"sb\mango1.png",0,0 R,0,87947,,0.1570796 R,0,87947,,1.134464 C,0,87947,,255,0,0 M,0,87947,87993,160,268,179.9597,287.3628 F,2,87947,88428,1,0 S,2,87947,88428,1,0.2 P,0,87947,88428,A R,0,87993,,1.134464 M,0,87993,88040,179.9597,287.3628,207.3235,291.1909 R,0,88040,,1.134464 M,0,88040,88087,207.3235,291.1909,231.66,278.2214 R,0,88087,,1.134464 M,0,88087,88134,231.66,278.2214,242.996,253.0169 R,0,88134,,1.134464 M,0,88134,88181,242.996,253.0169,237.395,226.0035 R,0,88181,,1.134464 M,0,88181,88228,237.395,226.0035,216.3651,208.0623
Sprite,Foreground,Centre,"sb\mango1.png",0,0 R,0,88322,,0.2268928 R,0,88322,,0.5934119 C,0,88322,,255,0,0 M,0,88322,88368,152,152,170.2278,136.9863 F,2,88322,88615,1,0 S,2,88322,88615,1,0.2 P,0,88322,88615,A R,0,88368,,0.5934119 M,0,88368,88415,170.2278,136.9863,191.7579,127.4282
Sprite,Foreground,Centre,"sb\mango1.png",272,92 R,0,88510,,0.6632251 C,0,88510,,255,0,0 F,2,88510,88710,1,0 S,2,88510,88710,1,0.2 P,0,88510,88710,A
Sprite,Foreground,Centre,"sb\mango1.png",0,0 R,0,88697,,0.4014257 R,0,88697,,0.8377581 C,0,88697,,255,0,0 M,0,88697,88743,428,288,431.7552,276.7344 F,2,88697,88990,1,0 S,2,88697,88990,1,0.2 P,0,88697,88990,A R,0,88743,,0.8377581 M,0,88743,88790,431.7552,276.7344,435.5104,265.4688
Sprite,Foreground,Centre,"sb\mango1.png",0,0 R,0,88885,,0.5759587 R,0,88885,,1.047198 C,0,88885,,255,0,0 M,0,88885,88931,440,248,422.325,245.7906 F,2,88885,89272,1,0 S,2,88885,89272,1,0.2 P,0,88885,89272,A R,0,88931,,1.047198 M,0,88931,88978,422.325,245.7906,404.6501,243.5813 R,0,88978,,1.047198 M,0,88978,89025,404.6501,243.5813,386.9752,241.3719 R,0,89025,,1.047198 M,0,89025,89072,386.9752,241.3719,369.3002,239.1625
Sprite,Foreground,Centre,"sb\mango1.png",369,239 R,0,89166,,1.012291 C,0,89166,,255,0,0 F,2,89166,89366,1,0 S,2,89166,89366,1,0.2 P,0,89166,89366,A
Sprite,Foreground,Centre,"sb\mango1.png",0,0 R,0,89260,,0.9948376 R,0,89260,,0.9599311 C,0,89260,,255,0,0 M,0,89260,89306,444,164,470.0816,162.4953 F,2,89260,89553,1,0 S,2,89260,89553,1,0.2 P,0,89260,89553,A R,0,89306,,0.9599311 M,0,89306,89353,470.0816,162.4953,496,161
Sprite,Foreground,Centre,"sb\mango1.png",0,0 R,0,89447,,1.169371 R,0,89447,,0.3665192 C,0,89447,,255,0,0 M,0,89447,89493,552,264,547.1854,289.6776 F,2,89447,89740,1,0 S,2,89447,89740,1,0.2 P,0,89447,89740,A R,0,89493,,0.3665192 M,0,89493,89540,547.1854,289.6776,542.3709,315.3551
Sprite,Foreground,Centre,"sb\mango1.png",0,0 R,0,89635,,0.6457718 R,0,89635,,0.8203048 C,0,89635,,255,0,0 M,0,89635,89681,456,392,430.5247,386.2101 F,2,89635,89928,1,0 S,2,89635,89928,1,0.2 P,0,89635,89928,A R,0,89681,,0.8203048 M,0,89681,89728,430.5247,386.2101,405.0493,380.4203
Sprite,Foreground,Centre,"sb\mango1.png",224,408 R,0,89822,,0.4014257 C,0,89822,,255,0,0 F,2,89822,90022,1,0 S,2,89822,90022,1,0.2 P,0,89822,90022,A
Sprite,Foreground,Centre,"sb\mango1.png",224,408 R,0,89916,,0.3490658 C,0,89916,,255,0,0 F,2,89916,90116,1,0 S,2,89916,90116,1,0.2 P,0,89916,90116,A
Sprite,Foreground,Centre,"sb\mango1.png",0,0 R,0,90010,,1.029744 R,0,90010,,0.2792527 C,0,90010,,255,0,0 M,0,90010,90056,224,408,243.7706,395.3836 F,2,90010,90491,1,0 S,2,90010,90491,1,0.2 P,0,90010,90491,A R,0,90056,,0.2792527 M,0,90056,90103,243.7706,395.3836,257.0754,376.2225 R,0,90103,,0.2792527 M,0,90103,90150,257.0754,376.2225,261.3975,353.2878 R,0,90150,,0.2792527 M,0,90150,90197,261.3975,353.2878,255.9727,330.5718 R,0,90197,,0.2792527 M,0,90197,90244,255.9727,330.5718,241.7302,312.0348 R,0,90244,,0.2792527 M,0,90244,90291,241.7302,312.0348,221.1345,300.9186
Sprite,Foreground,Centre,"sb\mango1.png",0,0 R,0,90385,,0.2268928 R,0,90385,,0.06981317 C,0,90385,,255,0,0 M,0,90385,90431,200,288,171.4446,299.5203 F,2,90385,90866,1,0 S,2,90385,90866,1,0.2 P,0,90385,90866,A R,0,90431,,0.06981317 M,0,90431,90478,171.4446,299.5203,148.0274,319.351 R,0,90478,,0.06981317 M,0,90478,90525,148.0274,319.351,143.5142,316.5298 R,0,90525,,0.06981317 M,0,90525,90572,143.5142,316.5298,147.0233,285.8852 R,0,90572,,0.06981317 M,0,90572,90619,147.0233,285.8852,145.5061,255.0859 R,0,90619,,0.06981317 M,0,90619,90666,145.5061,255.0859,138.5925,225.0376
Sprite,Foreground,Centre,"sb\mango1.png",0,0 R,0,90760,,0.7679449 R,0,90760,,0.8552113 C,0,90760,,255,0,0 M,0,90760,90806,64,184,77.97813,162.1399 F,2,90760,91053,1,0 S,2,90760,91053,1,0.2 P,0,90760,91053,A R,0,90806,,0.8552113 M,0,90806,90853,77.97813,162.1399,98.74627,146.6573
Sprite,Foreground,Centre,"sb\mango1.png",0,0 R,0,90947,,0.7853982 R,0,90947,,1.151917 C,0,90947,,255,0,0 M,0,90947,90993,148,84,169.9338,98.19244 F,2,90947,91240,1,0 S,2,90947,91240,1,0.2 P,0,90947,91240,A R,0,90993,,1.151917 M,0,90993,91040,169.9338,98.19244,191.8675,112.3849
Sprite,Foreground,Centre,"sb\mango1.png",264,156 R,0,91135,,0.2617994 C,0,91135,,255,0,0 F,2,91135,91335,1,0 S,2,91135,91335,1,0.2 P,0,91135,91335,A
Sprite,Foreground,Centre,"sb\mango1.png",0,0 R,0,91228,,1.151917 R,0,91228,,0.06981317 C,0,91228,,255,0,0 M,0,91228,91274,264,156,287.0023,143.6141 F,2,91228,91521,1,0 S,2,91228,91521,1,0.2 P,0,91228,91521,A R,0,91274,,0.06981317 M,0,91274,91321,287.0023,143.6141,310.0046,131.2283
Sprite,Foreground,Centre,"sb\mango1.png",0,0 R,0,91416,,1.117011 R,0,91416,,0.8377581 C,0,91416,,255,0,0 M,0,91416,91462,384,92,394.9869,115.5234 F,2,91416,91803,1,0 S,2,91416,91803,1,0.2 P,0,91416,91803,A R,0,91462,,0.8377581 M,0,91462,91509,394.9869,115.5234,397.2537,141.3507 R,0,91509,,0.8377581 M,0,91509,91556,397.2537,141.3507,390.5484,166.364 R,0,91556,,0.8377581 M,0,91556,91603,390.5484,166.364,375.6974,187.5496
Sprite,Foreground,Centre,"sb\mango1.png",0,0 R,0,91697,,0.1047198 R,0,91697,,0.1745329 C,0,91697,,255,0,0 M,0,91697,91743,328,260,351.4604,271.1383 F,2,91697,91990,1,0 S,2,91697,91990,1,0.2 P,0,91697,91990,A R,0,91743,,0.1745329 M,0,91743,91790,351.4604,271.1383,377.3543,273.026
Sprite,Foreground,Centre,"sb\mango1.png",488,292 R,0,91884,,0.122173 C,0,91884,,255,0,0 F,2,91884,92084,1,0 S,2,91884,92084,1,0.2 P,0,91884,92084,A
Sprite,Foreground,Centre,"sb\mango1.png",496,276 R,0,91978,,0.7504916 C,0,91978,,255,0,0 F,2,91978,92178,1,0 S,2,91978,92178,1,0.2 P,0,91978,92178,A
Sprite,Foreground,Centre,"sb\mango1.png",0,0 R,0,92072,,1.186824 R,0,92072,,0.6108652 C,0,92072,,255,0,0 M,0,92072,92118,504,260,477.9201,261.5341 F,2,92072,92365,1,0 S,2,92072,92365,1,0.2 P,0,92072,92365,A R,0,92118,,0.6108652 M,0,92118,92165,477.9201,261.5341,451.8401,263.0682
Sprite,Foreground,Centre,"sb\mango1.png",344,384 R,0,92260,,0.1745329 C,0,92260,,255,0,0 F,2,92260,92460,1,0 S,2,92260,92460,1,0.2 P,0,92260,92460,A
Sprite,Foreground,Centre,"sb\mango1.png",336,400 R,0,92354,,0.8377581 C,0,92354,,255,0,0 F,2,92354,92554,1,0 S,2,92354,92554,1,0.2 P,0,92354,92554,A
Sprite,Foreground,Centre,"sb\mango1.png",0,0 R,0,92448,,0.715585 R,0,92448,,0.2792527 C,0,92448,,255,0,0 M,0,92448,92494,328,416,354.0799,414.4659 F,2,92448,92741,1,0 S,2,92448,92741,1,0.2 P,0,92448,92741,A R,0,92494,,0.2792527 M,0,92494,92541,354.0799,414.4659,380.1599,412.9318
Sprite,Foreground,Centre,"sb\mango1.png",0,0 R,0,92635,,0.7679449 R,0,92635,,0 C,0,92635,,255,0,0 M,0,92635,92681,516,368,485.5451,362.9242 F,2,92635,93116,1,0 S,2,92635,93116,1,0.2 P,0,92635,93116,A R,0,92681,,0 M,0,92681,92728,485.5451,362.9242,455.2529,357.459 R,0,92728,,0 M,0,92728,92775,455.2529,357.459,430.246,339.3505 R,0,92775,,0 M,0,92775,92822,430.246,339.3505,405.239,321.242 R,0,92822,,0 M,0,92822,92869,405.239,321.242,376.3269,312.6054 R,0,92869,,0 M,0,92869,92916,376.3269,312.6054,345.8238,307.8278
Sprite,Foreground,Centre,"sb\mango1.png",0,0 R,0,93010,,0.4363323 R,0,93010,,1.064651 C,0,93010,,255,0,0 M,0,93010,93056,188,236,197.8751,250.7191 F,2,93010,93585,1,0 S,2,93010,93585,1,0.2 P,0,93010,93585,A R,0,93056,,1.064651 M,0,93056,93103,197.8751,250.7191,203.3375,267.5472 R,0,93103,,1.064651 M,0,93103,93150,203.3375,267.5472,203.9866,285.2009 R,0,93150,,1.064651 M,0,93150,93197,203.9866,285.2009,199.7855,302.3377 R,0,93197,,1.064651 M,0,93197,93244,199.7855,302.3377,191.0627,317.657 R,0,93244,,1.064651 M,0,93244,93291,191.0627,317.657,178.4876,329.9967 R,0,93291,,1.064651 M,0,93291,93338,178.4876,329.9967,163.2028,338.8997 R,0,93338,,1.064651 M,0,93338,93385,163.2028,338.8997,145.8811,342.7343
Sprite,Foreground,Centre,"sb\mango1.png",146,344 R,0,93572,,0.06981317 C,0,93572,,255,0,0 F,2,93572,93772,1,0 S,2,93572,93772,1,0.2 P,0,93572,93772,A
Sprite,Foreground,Centre,"sb\mango1.png",204,140 R,0,93760,,0.3490658 C,0,93760,,255,0,0 F,2,93760,93960,1,0 S,2,93760,93960,1,0.2 P,0,93760,93960,A
Sprite,Foreground,Centre,"sb\mango1.png",233,155 R,0,93853,,0.8726646 C,0,93853,,255,0,0 F,2,93853,94053,1,0 S,2,93853,94053,1,0.2 P,0,93853,94053,A
Sprite,Foreground,Centre,"sb\mango1.png",266,157 R,0,93947,,1.204277 C,0,93947,,255,0,0 F,2,93947,94147,1,0 S,2,93947,94147,1,0.2 P,0,93947,94147,A
Sprite,Foreground,Centre,"sb\mango1.png",297,145 R,0,94041,,1.239184 C,0,94041,,255,0,0 F,2,94041,94241,1,0 S,2,94041,94241,1,0.2 P,0,94041,94241,A
Sprite,Foreground,Centre,"sb\mango1.png",0,0 R,0,94135,,0.4712389 R,0,94135,,0.6457718 C,0,94135,,255,0,0 M,0,94135,94181,321,122,326.5236,145.0988 F,2,94135,94428,1,0 S,2,94135,94428,1,0.2 P,0,94135,94428,A R,0,94181,,0.6457718 M,0,94181,94228,326.5236,145.0988,332,168
Sprite,Foreground,Centre,"sb\mango1.png",0,0 R,0,94322,,0.3490658 R,0,94322,,0.6283185 C,0,94322,,255,0,0 M,0,94322,94368,380,240,400.6208,228.2167 F,2,94322,94615,1,0 S,2,94322,94615,1,0.2 P,0,94322,94615,A R,0,94368,,0.6283185 M,0,94368,94415,400.6208,228.2167,380,240
Sprite,Foreground,Centre,"sb\mango1.png",332,344 R,0,94510,,0.6632251 C,0,94510,,255,0,0 F,2,94510,94710,1,0 S,2,94510,94710,1,0.2 P,0,94510,94710,A
Sprite,Foreground,Centre,"sb\mango1.png",332,344 R,0,94603,,0.06981317 C,0,94603,,255,0,0 F,2,94603,94803,1,0 S,2,94603,94803,1,0.2 P,0,94603,94803,A
Sprite,Foreground,Centre,"sb\mango1.png",0,0 R,0,94697,,0.3490658 R,0,94697,,0.6108652 C,0,94697,,255,0,0 M,0,94697,94743,332,344,309.6799,335.8836 F,2,94697,94990,1,0 S,2,94697,94990,1,0.2 P,0,94697,94990,A R,0,94743,,0.6108652 M,0,94743,94790,309.6799,335.8836,288,328
Sprite,Foreground,Centre,"sb\mango1.png",0,0 R,0,94885,,1.047198 R,0,94885,,0.7679449 C,0,94885,,255,0,0 M,0,94885,94931,200,368,191.7482,345.8665 F,2,94885,95272,1,0 S,2,94885,95272,1,0.2 P,0,94885,95272,A R,0,94931,,0.7679449 M,0,94931,94978,191.7482,345.8665,189.5205,322.4058 R,0,94978,,0.7679449 M,0,94978,95025,189.5205,322.4058,193.8243,299.2337 R,0,95025,,0.7679449 M,0,95025,95072,193.8243,299.2337,204.3299,278.1328
Sprite,Foreground,Centre,"sb\mango1.png",232,192 R,0,95166,,0.122173 C,0,95166,,255,0,0 F,2,95166,95366,1,0 S,2,95166,95366,1,0.2 P,0,95166,95366,A
Sprite,Foreground,Centre,"sb\mango1.png",0,0 R,0,95260,,0.9250245 R,0,95260,,0.4886922 C,0,95260,,255,0,0 M,0,95260,95306,232,192,208.643,188.5685 F,2,95260,95647,1,0 S,2,95260,95647,1,0.2 P,0,95260,95647,A R,0,95306,,0.4886922 M,0,95306,95353,208.643,188.5685,185.2585,191.3922 R,0,95353,,0.4886922 M,0,95353,95400,185.2585,191.3922,163.5824,200.6711 R,0,95400,,0.4886922 M,0,95400,95447,163.5824,200.6711,145.352,215.6814
Sprite,Foreground,Centre,"sb\mango1.png",64,164 R,0,95541,,1.169371 C,0,95541,,255,0,0 F,2,95541,95741,1,0 S,2,95541,95741,1,0.2 P,0,95541,95741,A
Sprite,Foreground,Centre,"sb\mango1.png",0,0 R,0,95635,,0.1570796 R,0,95635,,0.8726646 C,0,95635,,255,0,0 M,0,95635,95681,64,164,69.76022,140.9591 F,2,95635,95928,1,0 S,2,95635,95928,1,0.2 P,0,95635,95928,A R,0,95681,,0.8726646 M,0,95681,95728,69.76022,140.9591,75.52044,117.9182
Sprite,Foreground,Centre,"sb\mango1.png",0,0 R,0,95822,,0.7679449 R,0,95822,,1.029744 C,0,95822,,255,0,0 M,0,95822,95868,168,76,162.2398,99.04089 F,2,95822,96115,1,0 S,2,95822,96115,1,0.2 P,0,95822,96115,A R,0,95868,,1.029744 M,0,95868,95915,162.2398,99.04089,168,76
Sprite,Foreground,Centre,"sb\mango1.png",0,0 R,0,96010,,0.8552113 R,0,96010,,0.715585 C,0,96010,,255,0,0 M,0,96010,96056,232,192,216.191,168.2866 F,2,96010,96397,1,0 S,2,96010,96397,1,0.2 P,0,96010,96397,A R,0,96056,,0.715585 M,0,96056,96103,216.191,168.2866,244.0659,170.2453 R,0,96103,,0.715585 M,0,96103,96150,244.0659,170.2453,272.4752,172.518 R,0,96150,,0.715585 M,0,96150,96197,272.4752,172.518,300.8844,174.7907
Sprite,Foreground,Centre,"sb\mango1.png",0,0 R,0,96291,,0.2094395 R,0,96291,,0.2268928 C,0,96291,,255,0,0 M,0,96291,96337,368,240,395.4958,232.5012 F,2,96291,96584,1,0 S,2,96291,96584,1,0.2 P,0,96291,96584,A R,0,96337,,0.2268928 M,0,96337,96384,395.4958,232.5012,368,240
Sprite,Foreground,Centre,"sb\mango1.png",0,0 R,0,96572,,0.7504916 R,0,96572,,0.3141593 C,0,96572,,255,0,0 M,0,96572,96618,479,211,480.6501,243.9981 F,2,96572,96865,1,0 S,2,96572,96865,1,0.2 P,0,96572,96865,A R,0,96618,,0.3141593 M,0,96618,96665,480.6501,243.9981,472.0439,275.8963
Sprite,Foreground,Centre,"sb\mango1.png",388,344 R,0,96760,,1.239184 C,0,96760,,255,0,0 F,2,96760,96960,1,0 S,2,96760,96960,1,0.2 P,0,96760,96960,A
Sprite,Foreground,Centre,"sb\mango1.png",388,344 R,0,96853,,0.6981317 C,0,96853,,255,0,0 F,2,96853,97053,1,0 S,2,96853,97053,1,0.2 P,0,96853,97053,A
Sprite,Foreground,Centre,"sb\mango1.png",0,0 R,0,96947,,0.06981317 R,0,96947,,0.3141593 C,0,96947,,255,0,0 M,0,96947,96993,388,344,365.3003,337.0155 F,2,96947,97240,1,0 S,2,96947,97240,1,0.2 P,0,96947,97240,A R,0,96993,,0.3141593 M,0,96993,97040,365.3003,337.0155,342.6005,330.0309
Sprite,Foreground,Centre,"sb\mango1.png",256,400 R,0,97135,,1.047198 C,0,97135,,255,0,0 F,2,97135,97335,1,0 S,2,97135,97335,1,0.2 P,0,97135,97335,A
Sprite,Foreground,Centre,"sb\mango1.png",0,0 R,0,97228,,0.6981317 R,0,97228,,0.8028514 C,0,97228,,255,0,0 M,0,97228,97274,256,400,239.9515,382.4926 F,2,97228,97521,1,0 S,2,97228,97521,1,0.2 P,0,97228,97521,A R,0,97274,,0.8028514 M,0,97274,97321,239.9515,382.4926,223.9031,364.9852
Sprite,Foreground,Centre,"sb\mango1.png",0,0 R,0,97416,,0.6457718 R,0,97416,,1.204277 C,0,97416,,255,0,0 M,0,97416,97462,104,352,111.2384,329.3799 F,2,97416,97803,1,0 S,2,97416,97803,1,0.2 P,0,97416,97803,A R,0,97462,,1.204277 M,0,97462,97509,111.2384,329.3799,118.4768,306.7599 R,0,97509,,1.204277 M,0,97509,97556,118.4768,306.7599,125.7153,284.1398 R,0,97556,,1.204277 M,0,97556,97603,125.7153,284.1398,132.9537,261.5197
Sprite,Foreground,Centre,"sb\mango1.png",0,0 R,0,97697,,0.08726646 R,0,97697,,0.6283185 C,0,97697,,255,0,0 M,0,97697,97743,156,168,132.5715,166.4889 F,2,97697,97990,1,0 S,2,97697,97990,1,0.2 P,0,97697,97990,A R,0,97743,,0.6283185 M,0,97743,97790,132.5715,166.4889,110.2625,173.4749
Sprite,Foreground,Centre,"sb\mango1.png",0,0 R,0,97885,,0.1919862 R,0,97885,,1.012291 C,0,97885,,255,0,0 M,0,97885,97931,224,232,252.0663,227.0471 F,2,97885,98178,1,0 S,2,97885,98178,1,0.2 P,0,97885,98178,A R,0,97931,,1.012291 M,0,97931,97978,252.0663,227.0471,280.1327,222.0942
Sprite,Foreground,Centre,"sb\mango1.png",0,0 R,0,98072,,0.8028514 R,0,98072,,0.715585 C,0,98072,,255,0,0 M,0,98072,98118,340,144,353.5118,169.0934 F,2,98072,98365,1,0 S,2,98072,98365,1,0.2 P,0,98072,98365,A R,0,98118,,0.715585 M,0,98118,98165,353.5118,169.0934,367.0237,194.1869
Sprite,Foreground,Centre,"sb\mango1.png",0,0 R,0,98260,,0.6806784 R,0,98260,,0.8377581 C,0,98260,,255,0,0 M,0,98260,98306,476,208,458.9,230.8 F,2,98260,98553,1,0 S,2,98260,98553,1,0.2 P,0,98260,98553,A R,0,98306,,0.8377581 M,0,98306,98353,458.9,230.8,441.8,253.6
Sprite,Foreground,Centre,"sb\mango1.png",0,0 R,0,98447,,1.239184 R,0,98447,,0.3665192 C,0,98447,,255,0,0 M,0,98447,98493,452,360,426.1232,348.0569 F,2,98447,98740,1,0 S,2,98447,98740,1,0.2 P,0,98447,98740,A R,0,98493,,0.3665192 M,0,98493,98540,426.1232,348.0569,400.2463,336.1137
Sprite,Foreground,Centre,"sb\mango1.png",0,0 R,0,98635,,0.06981317 R,0,98635,,0.5759587 C,0,98635,,255,0,0 M,0,98635,98681,288,344,306.2452,322.1057 F,2,98635,99116,1,0 S,2,98635,99116,1,0.2 P,0,98635,99116,A R,0,98681,,0.5759587 M,0,98681,98728,306.2452,322.1057,288,344 R,0,98728,,0.5759587 M,0,98728,98775,288,344,306.2452,322.1057 R,0,98775,,0.5759587 M,0,98775,98822,306.2452,322.1057,288,344 R,0,98822,,0.5759587 M,0,98822,98869,288,344,306.2452,322.1057 R,0,98869,,0.5759587 M,0,98869,98916,306.2452,322.1057,288,344
Sprite,Foreground,Centre,"sb\mango1.png",0,0 R,0,99010,,0.5934119 R,0,99010,,0.2617994 C,0,99010,,255,0,0 M,0,99010,99056,272,380,260.4869,366.4679 F,2,99010,99491,1,0 S,2,99010,99491,1,0.2 P,0,99010,99491,A R,0,99056,,0.2617994 M,0,99056,99103,260.4869,366.4679,246.4854,355.5559 R,0,99103,,0.2617994 M,0,99103,99150,246.4854,355.5559,230.5771,347.71 R,0,99150,,0.2617994 M,0,99150,99197,230.5771,347.71,213.4209,343.2498 R,0,99197,,0.2617994 M,0,99197,99244,213.4209,343.2498,195.7261,342.3558 R,0,99244,,0.2617994 M,0,99244,99291,195.7261,342.3558,178.2236,345.0618
Sprite,Foreground,Centre,"sb\mango1.png",0,0 R,0,99385,,0.08726646 R,0,99385,,0.2792527 C,0,99385,,255,0,0 M,0,99385,99431,96,252,118.167,260.5258 F,2,99385,99678,1,0 S,2,99385,99678,1,0.2 P,0,99385,99678,A R,0,99431,,0.2792527 M,0,99431,99478,118.167,260.5258,140.3339,269.0515
Sprite,Foreground,Centre,"sb\mango1.png",0,0 R,0,99572,,0.1745329 R,0,99572,,0.5585054 C,0,99572,,255,0,0 M,0,99572,99618,232,192,208.5262,195.6114 F,2,99572,99865,1,0 S,2,99572,99865,1,0.2 P,0,99572,99865,A R,0,99618,,0.5585054 M,0,99618,99665,208.5262,195.6114,185.0523,199.2227
Sprite,Foreground,Centre,"sb\mango1.png",0,0 R,0,99760,,0.5585054 R,0,99760,,0.01745329 C,0,99760,,255,0,0 M,0,99760,99806,84,112,106.3201,120.1164 F,2,99760,100147,1,0 S,2,99760,100147,1,0.2 P,0,99760,100147,A R,0,99806,,0.01745329 M,0,99806,99853,106.3201,120.1164,128.6462,127.7846 R,0,99853,,0.01745329 M,0,99853,99900,128.6462,127.7846,151.1775,120.2742 R,0,99900,,0.01745329 M,0,99900,99947,151.1775,120.2742,173.7087,112.7638
Sprite,Foreground,Centre,"sb\mango1.png",260,116 R,0,100041,,0.4712389 C,0,100041,,255,0,0 F,2,100041,100241,1,0 S,2,100041,100241,1,0.2 P,0,100041,100241,A
Sprite,Foreground,Centre,"sb\mango1.png",296,92 R,0,100135,,1.012291 C,0,100135,,255,0,0 F,2,100135,100335,1,0 S,2,100135,100335,1,0.2 P,0,100135,100335,A
Sprite,Foreground,Centre,"sb\mango1.png",344,88 R,0,100228,,0.2443461 C,0,100228,,255,0,0 F,2,100228,100428,1,0 S,2,100228,100428,1,0.2 P,0,100228,100428,A
Sprite,Foreground,Centre,"sb\mango1.png",0,0 R,0,100322,,1.134464 R,0,100322,,0.03490658 C,0,100322,,255,0,0 M,0,100322,100368,376,100,368.4896,122.5312 F,2,100322,100615,1,0 S,2,100322,100615,1,0.2 P,0,100322,100615,A R,0,100368,,0.03490658 M,0,100368,100415,368.4896,122.5312,376,100
Sprite,Foreground,Centre,"sb\mango1.png",0,0 R,0,100510,,0.6283185 R,0,100510,,1.204277 C,0,100510,,255,0,0 M,0,100510,100556,420,188,397.6336,195.988 F,2,100510,100803,1,0 S,2,100510,100803,1,0.2 P,0,100510,100803,A R,0,100556,,1.204277 M,0,100556,100603,397.6336,195.988,375.2673,203.976
Sprite,Foreground,Centre,"sb\mango1.png",0,0 R,0,100697,,1.239184 R,0,100697,,0.01745329 C,0,100697,,255,0,0 M,0,100697,100743,480,124,491.4052,137.6295 F,2,100697,101272,1,0 S,2,100697,101272,1,0.2 P,0,100697,101272,A R,0,100743,,0.01745329 M,0,100743,100790,491.4052,137.6295,500.0099,153.1631 R,0,100790,,0.01745329 M,0,100790,100837,500.0099,153.1631,505.5066,170.0358 R,0,100837,,0.01745329 M,0,100837,100884,505.5066,170.0358,507.6999,187.635 R,0,100884,,0.01745329 M,0,100884,100931,507.6999,187.635,506.5135,205.3227 R,0,100931,,0.01745329 M,0,100931,100978,506.5135,205.3227,501.9928,222.4581 R,0,100978,,0.01745329 M,0,100978,101025,501.9928,222.4581,494.3033,238.4206 R,0,101025,,0.01745329 M,0,101025,101072,494.3033,238.4206,483.9823,252.8617
Sprite,Foreground,Centre,"sb\mango1.png",483,252 R,0,101166,,0.8203048 C,0,101166,,255,0,0 F,2,101166,101366,1,0 S,2,101166,101366,1,0.2 P,0,101166,101366,A
Sprite,Foreground,Centre,"sb\mango1.png",0,0 R,0,101260,,0.3490658 R,0,101260,,1.204277 C,0,101260,,255,0,0 M,0,101260,101306,483,252,500.7426,250.4229 F,2,101260,101553,1,0 S,2,101260,101553,1,0.2 P,0,101260,101553,A R,0,101306,,1.204277 M,0,101306,101353,500.7426,250.4229,518.4851,248.8458
Sprite,Foreground,Centre,"sb\mango1.png",576,348 R,0,101447,,0.7330383 C,0,101447,,255,0,0 F,2,101447,101647,1,0 S,2,101447,101647,1,0.2 P,0,101447,101647,A
Sprite,Foreground,Centre,"sb\mango1.png",538,329 R,0,101540,,0.9599311 C,0,101540,,255,0,0 F,2,101540,101740,1,0 S,2,101540,101740,1,0.2 P,0,101540,101740,A
Sprite,Foreground,Centre,"sb\mango1.png",499,326 R,0,101634,,0.4014257 C,0,101634,,255,0,0 F,2,101634,101834,1,0 S,2,101634,101834,1,0.2 P,0,101634,101834,A
Sprite,Foreground,Centre,"sb\mango1.png",460,335 R,0,101728,,0.5235988 C,0,101728,,255,0,0 F,2,101728,101928,1,0 S,2,101728,101928,1,0.2 P,0,101728,101928,A
Sprite,Foreground,Centre,"sb\mango1.png",429,358 R,0,101822,,1.22173 C,0,101822,,255,0,0 F,2,101822,102022,1,0 S,2,101822,102022,1,0.2 P,0,101822,102022,A
Sprite,Foreground,Centre,"sb\mango1.png",406,392 R,0,101915,,1.099557 C,0,101915,,255,0,0 F,2,101915,102115,1,0 S,2,101915,102115,1,0.2 P,0,101915,102115,A
Sprite,Foreground,BottomCentre,"sb\pl.png",0,0 F,2,103460,103510,0,1 R,0,103510,,1.570796 C,0,103510,,0,0,255 M,0,103510,103556,-107,100,-107,117.6492 F,2,103510,103897,1,0 V,2,103510,103897,1,7.5,0.5,1.5 P,0,103510,103897,A M,0,103556,103603,-107,117.6492,-107,135.2983 M,0,103603,103650,-107,135.2983,-107,152.9475 M,0,103650,103697,-107,152.9475,-107,170.5966
Sprite,Foreground,BottomCentre,"sb\pl.png",0,0 F,2,103460,103510,0,1 R,0,103510,,-1.570796 C,0,103510,,0,0,255 M,0,103510,103556,747,100,747,117.6492 F,2,103510,103897,1,0 V,2,103510,103897,1,7.5,0.5,1.5 P,0,103510,103897,A M,0,103556,103603,747,117.6492,747,135.2983 M,0,103603,103650,747,135.2983,747,152.9475 M,0,103650,103697,747,152.9475,747,170.5966
Sprite,Foreground,BottomCentre,"sb\pl.png",0,0 F,2,103835,103885,0,1 R,0,103885,,1.570796 C,0,103885,,0,0,255 M,0,103885,103931,-107,112,-107,101.0917 F,2,103885,104272,1,0 V,2,103885,104272,1,7.5,0.5,1.5 P,0,103885,104272,A M,0,103931,103978,-107,101.0917,-107,90.18333 M,0,103978,104025,-107,90.18333,-107,79.27499 M,0,104025,104072,-107,79.27499,-107,68.36665
Sprite,Foreground,BottomCentre,"sb\pl.png",0,0 F,2,103835,103885,0,1 R,0,103885,,-1.570796 C,0,103885,,0,0,255 M,0,103885,103931,747,112,747,101.0917 F,2,103885,104272,1,0 V,2,103885,104272,1,7.5,0.5,1.5 P,0,103885,104272,A M,0,103931,103978,747,101.0917,747,90.18333 M,0,103978,104025,747,90.18333,747,79.27499 M,0,104025,104072,747,79.27499,747,68.36665
Sprite,Foreground,BottomCentre,"sb\pl.png",0,0 F,2,104210,104260,0,1 R,0,104260,,1.570796 C,0,104260,,0,0,255 M,0,104260,104306,-107,248,-107,232.2541 F,2,104260,104835,1,0 V,2,104260,104835,1,7.5,0.5,1.5 P,0,104260,104835,A M,0,104306,104353,-107,232.2541,-107,218.5983 M,0,104353,104400,-107,218.5983,-107,207.6343 M,0,104400,104447,-107,207.6343,-107,199.8443 M,0,104447,104494,-107,199.8443,-107,195.5704 M,0,104494,104541,-107,195.5704,-107,194.9994 M,0,104541,104588,-107,194.9994,-107,197.7914 M,0,104588,104635,-107,197.7914,-107,204.6014
Sprite,Foreground,BottomCentre,"sb\pl.png",0,0 F,2,104210,104260,0,1 R,0,104260,,-1.570796 C,0,104260,,0,0,255 M,0,104260,104306,747,248,747,232.2541 F,2,104260,104835,1,0 V,2,104260,104835,1,7.5,0.5,1.5 P,0,104260,104835,A M,0,104306,104353,747,232.2541,747,218.5983 M,0,104353,104400,747,218.5983,747,207.6343 M,0,104400,104447,747,207.6343,747,199.8443 M,0,104447,104494,747,199.8443,747,195.5704 M,0,104494,104541,747,195.5704,747,194.9994 M,0,104541,104588,747,194.9994,747,197.7914 M,0,104588,104635,747,197.7914,747,204.6014
Sprite,Foreground,BottomCentre,"sb\pl.png",-107,292 F,2,104772,104822,0,1 R,0,104822,,1.570796 C,0,104822,,0,0,255 F,2,104822,105022,1,0 V,2,104822,105022,1,7.5,0.5,1.5 P,0,104822,105022,A
Sprite,Foreground,BottomCentre,"sb\pl.png",747,292 F,2,104772,104822,0,1 R,0,104822,,-1.570796 C,0,104822,,0,0,255 F,2,104822,105022,1,0 V,2,104822,105022,1,7.5,0.5,1.5 P,0,104822,105022,A
Sprite,Foreground,BottomCentre,"sb\pl.png",0,0 F,2,104960,105010,0,1 R,0,105010,,1.570796 C,0,105010,,0,0,255 M,0,105010,105056,-107,384,-107,388.2729 F,2,105010,105491,1,0 V,2,105010,105491,1,7.5,0.5,1.5 P,0,105010,105491,A M,0,105056,105103,-107,388.2729,-107,390.2981 M,0,105103,105150,-107,390.2981,-107,389.6036 M,0,105150,105197,-107,389.6036,-107,385.8539 M,0,105197,105244,-107,385.8539,-107,379.0444 M,0,105244,105291,-107,379.0444,-107,387.4646
Sprite,Foreground,BottomCentre,"sb\pl.png",0,0 F,2,104960,105010,0,1 R,0,105010,,-1.570796 C,0,105010,,0,0,255 M,0,105010,105056,747,384,747,388.2729 F,2,105010,105491,1,0 V,2,105010,105491,1,7.5,0.5,1.5 P,0,105010,105491,A M,0,105056,105103,747,388.2729,747,390.2981 M,0,105103,105150,747,390.2981,747,389.6036 M,0,105150,105197,747,389.6036,747,385.8539 M,0,105197,105244,747,385.8539,747,379.0444 M,0,105244,105291,747,379.0444,747,387.4646
Sprite,Foreground,BottomCentre,"sb\pl.png",-107,387 F,2,105335,105385,0,1 R,0,105385,,1.570796 C,0,105385,,0,0,255 F,2,105385,105585,1,0 V,2,105385,105585,1,7.5,0.5,1.5 P,0,105385,105585,A
Sprite,Foreground,BottomCentre,"sb\pl.png",747,387 F,2,105335,105385,0,1 R,0,105385,,-1.570796 C,0,105385,,0,0,255 F,2,105385,105585,1,0 V,2,105385,105585,1,7.5,0.5,1.5 P,0,105385,105585,A
Sprite,Foreground,BottomCentre,"sb\pl.png",-107,408 F,2,105522,105572,0,1 R,0,105572,,1.570796 C,0,105572,,0,0,255 F,2,105572,105772,1,0 V,2,105572,105772,1,7.5,0.5,1.5 P,0,105572,105772,A
Sprite,Foreground,BottomCentre,"sb\pl.png",747,408 F,2,105522,105572,0,1 R,0,105572,,-1.570796 C,0,105572,,0,0,255 F,2,105572,105772,1,0 V,2,105572,105772,1,7.5,0.5,1.5 P,0,105572,105772,A
Sprite,Foreground,BottomCentre,"sb\pl.png",-107,408 F,2,105616,105666,0,1 R,0,105666,,1.570796 C,0,105666,,0,0,255 F,2,105666,105866,1,0 V,2,105666,105866,1,7.5,0.5,1.5 P,0,105666,105866,A
Sprite,Foreground,BottomCentre,"sb\pl.png",747,408 F,2,105616,105666,0,1 R,0,105666,,-1.570796 C,0,105666,,0,0,255 F,2,105666,105866,1,0 V,2,105666,105866,1,7.5,0.5,1.5 P,0,105666,105866,A
Sprite,Foreground,BottomCentre,"sb\pl.png",0,0 F,2,105710,105760,0,1 R,0,105760,,1.570796 C,0,105760,,0,0,255 M,0,105760,105806,-107,408,-107,390.5686 F,2,105760,106147,1,0 V,2,105760,106147,1,7.5,0.5,1.5 P,0,105760,106147,A M,0,105806,105853,-107,390.5686,-107,372.8549 M,0,105853,105900,-107,372.8549,-107,355.7521 M,0,105900,105947,-107,355.7521,-107,340.122
Sprite,Foreground,BottomCentre,"sb\pl.png",0,0 F,2,105710,105760,0,1 R,0,105760,,-1.570796 C,0,105760,,0,0,255 M,0,105760,105806,747,408,747,390.5686 F,2,105760,106147,1,0 V,2,105760,106147,1,7.5,0.5,1.5 P,0,105760,106147,A M,0,105806,105853,747,390.5686,747,372.8549 M,0,105853,105900,747,372.8549,747,355.7521 M,0,105900,105947,747,355.7521,747,340.122
Sprite,Foreground,BottomCentre,"sb\pl.png",0,0 F,2,106085,106135,0,1 R,0,106135,,1.570796 C,0,106135,,0,0,255 M,0,106135,106181,-107,188,-107,204.2867 F,2,106135,106522,1,0 V,2,106135,106522,1,7.5,0.5,1.5 P,0,106135,106522,A M,0,106181,106228,-107,204.2867,-107,218.3659 M,0,106228,106275,-107,218.3659,-107,229.4013 M,0,106275,106322,-107,229.4013,-107,236.7385
Sprite,Foreground,BottomCentre,"sb\pl.png",0,0 F,2,106085,106135,0,1 R,0,106135,,-1.570796 C,0,106135,,0,0,255 M,0,106135,106181,747,188,747,204.2867 F,2,106135,106522,1,0 V,2,106135,106522,1,7.5,0.5,1.5 P,0,106135,106522,A M,0,106181,106228,747,204.2867,747,218.3659 M,0,106228,106275,747,218.3659,747,229.4013 M,0,106275,106322,747,229.4013,747,236.7385
Sprite,Foreground,BottomCentre,"sb\pl.png",0,0 F,2,106460,106510,0,1 R,0,106510,,1.570796 C,0,106510,,0,0,255 M,0,106510,106556,-107,248,-107,251.9282 F,2,106510,107085,1,0 V,2,106510,107085,1,7.5,0.5,1.5 P,0,106510,107085,A M,0,106556,106603,-107,251.9282,-107,259.3909 M,0,106603,106650,-107,259.3909,-107,270.0516 M,0,106650,106697,-107,270.0516,-107,283.4346 M,0,106697,106744,-107,283.4346,-107,298.9455 M,0,106744,106791,-107,298.9455,-107,315.8238 M,0,106791,106838,-107,315.8238,-107,333.5343 M,0,106838,106885,-107,333.5343,-107,351.1027
Sprite,Foreground,BottomCentre,"sb\pl.png",0,0 F,2,106460,106510,0,1 R,0,106510,,-1.570796 C,0,106510,,0,0,255 M,0,106510,106556,747,248,747,251.9282 F,2,106510,107085,1,0 V,2,106510,107085,1,7.5,0.5,1.5 P,0,106510,107085,A M,0,106556,106603,747,251.9282,747,259.3909 M,0,106603,106650,747,259.3909,747,270.0516 M,0,106650,106697,747,270.0516,747,283.4346 M,0,106697,106744,747,283.4346,747,298.9455 M,0,106744,106791,747,298.9455,747,315.8238 M,0,106791,106838,747,315.8238,747,333.5343 M,0,106838,106885,747,333.5343,747,351.1027
Sprite,Foreground,BottomCentre,"sb\pl.png",-107,332 F,2,107022,107072,0,1 R,0,107072,,1.570796 C,0,107072,,0,0,255 F,2,107072,107272,1,0 V,2,107072,107272,1,7.5,0.5,1.5 P,0,107072,107272,A
Sprite,Foreground,BottomCentre,"sb\pl.png",747,332 F,2,107022,107072,0,1 R,0,107072,,-1.570796 C,0,107072,,0,0,255 F,2,107072,107272,1,0 V,2,107072,107272,1,7.5,0.5,1.5 P,0,107072,107272,A
Sprite,Foreground,BottomCentre,"sb\pl.png",0,0 F,2,107210,107260,0,1 R,0,107260,,1.570796 C,0,107260,,0,0,255 M,0,107260,107306,-107,160,-107,158.341 F,2,107260,107741,1,0 V,2,107260,107741,1,7.5,0.5,1.5 P,0,107260,107741,A M,0,107306,107353,-107,158.341,-107,158.8192 M,0,107353,107400,-107,158.8192,-107,161.4264 M,0,107400,107447,-107,161.4264,-107,166.1242 M,0,107447,107494,-107,166.1242,-107,172.8442 M,0,107494,107541,-107,172.8442,-107,181.489
Sprite,Foreground,BottomCentre,"sb\pl.png",0,0 F,2,107210,107260,0,1 R,0,107260,,-1.570796 C,0,107260,,0,0,255 M,0,107260,107306,747,160,747,158.341 F,2,107260,107741,1,0 V,2,107260,107741,1,7.5,0.5,1.5 P,0,107260,107741,A M,0,107306,107353,747,158.341,747,158.8192 M,0,107353,107400,747,158.8192,747,161.4264 M,0,107400,107447,747,161.4264,747,166.1242 M,0,107447,107494,747,166.1242,747,172.8442 M,0,107494,107541,747,172.8442,747,181.489
Sprite,Foreground,BottomCentre,"sb\pl.png",0,0 F,2,107585,107635,0,1 R,0,107635,,1.570796 C,0,107635,,0,0,255 M,0,107635,107681,-107,181,-107,163.5472 F,2,107635,107928,1,0 V,2,107635,107928,1,7.5,0.5,1.5 P,0,107635,107928,A M,0,107681,107728,-107,163.5472,-107,146.0945
Sprite,Foreground,BottomCentre,"sb\pl.png",0,0 F,2,107585,107635,0,1 R,0,107635,,-1.570796 C,0,107635,,0,0,255 M,0,107635,107681,747,181,747,163.5472 F,2,107635,107928,1,0 V,2,107635,107928,1,7.5,0.5,1.5 P,0,107635,107928,A M,0,107681,107728,747,163.5472,747,146.0945
Sprite,Foreground,BottomCentre,"sb\pl.png",0,0 F,2,107772,107822,0,1 R,0,107822,,1.570796 C,0,107822,,0,0,255 M,0,107822,107868,-107,84,-107,101.7393 F,2,107822,108115,1,0 V,2,107822,108115,1,7.5,0.5,1.5 P,0,107822,108115,A M,0,107868,107915,-107,101.7393,-107,119.4787
Sprite,Foreground,BottomCentre,"sb\pl.png",0,0 F,2,107772,107822,0,1 R,0,107822,,-1.570796 C,0,107822,,0,0,255 M,0,107822,107868,747,84,747,101.7393 F,2,107822,108115,1,0 V,2,107822,108115,1,7.5,0.5,1.5 P,0,107822,108115,A M,0,107868,107915,747,101.7393,747,119.4787
Sprite,Foreground,BottomCentre,"sb\pl.png",0,0 F,2,107960,108010,0,1 R,0,108010,,1.570796 C,0,108010,,0,0,255 M,0,108010,108056,-107,236,-107,221.3607 F,2,108010,108491,1,0 V,2,108010,108491,1,7.5,0.5,1.5 P,0,108010,108491,A M,0,108056,108103,-107,221.3607,-107,209.0113 M,0,108103,108150,-107,209.0113,-107,199.4315 M,0,108150,108197,-107,199.4315,-107,192.9928 M,0,108197,108244,-107,192.9928,-107,189.9451 M,0,108244,108291,-107,189.9451,-107,190.1287
Sprite,Foreground,BottomCentre,"sb\pl.png",0,0 F,2,107960,108010,0,1 R,0,108010,,-1.570796 C,0,108010,,0,0,255 M,0,108010,108056,747,236,747,221.3607 F,2,108010,108491,1,0 V,2,108010,108491,1,7.5,0.5,1.5 P,0,108010,108491,A M,0,108056,108103,747,221.3607,747,209.0113 M,0,108103,108150,747,209.0113,747,199.4315 M,0,108150,108197,747,199.4315,747,192.9928 M,0,108197,108244,747,192.9928,747,189.9451 M,0,108244,108291,747,189.9451,747,190.1287
Sprite,Foreground,BottomCentre,"sb\pl.png",-107,190 F,2,108335,108385,0,1 R,0,108385,,1.570796 C,0,108385,,0,0,255 F,2,108385,108585,1,0 V,2,108385,108585,1,7.5,0.5,1.5 P,0,108385,108585,A
Sprite,Foreground,BottomCentre,"sb\pl.png",747,190 F,2,108335,108385,0,1 R,0,108385,,-1.570796 C,0,108385,,0,0,255 F,2,108385,108585,1,0 V,2,108385,108585,1,7.5,0.5,1.5 P,0,108385,108585,A
Sprite,Foreground,BottomCentre,"sb\pl.png",-107,292 F,2,108522,108572,0,1 R,0,108572,,1.570796 C,0,108572,,0,0,255 F,2,108572,108772,1,0 V,2,108572,108772,1,7.5,0.5,1.5 P,0,108572,108772,A
Sprite,Foreground,BottomCentre,"sb\pl.png",747,292 F,2,108522,108572,0,1 R,0,108572,,-1.570796 C,0,108572,,0,0,255 F,2,108572,108772,1,0 V,2,108572,108772,1,7.5,0.5,1.5 P,0,108572,108772,A
Sprite,Foreground,BottomCentre,"sb\pl.png",-107,168 F,2,108710,108760,0,1 R,0,108760,,1.570796 C,0,108760,,0,0,255 F,2,108760,108960,1,0 V,2,108760,108960,1,7.5,0.5,1.5 P,0,108760,108960,A
Sprite,Foreground,BottomCentre,"sb\pl.png",747,168 F,2,108710,108760,0,1 R,0,108760,,-1.570796 C,0,108760,,0,0,255 F,2,108760,108960,1,0 V,2,108760,108960,1,7.5,0.5,1.5 P,0,108760,108960,A
Sprite,Foreground,BottomCentre,"sb\pl.png",-107,336 F,2,108897,108947,0,1 R,0,108947,,1.570796 C,0,108947,,0,0,255 F,2,108947,109147,1,0 V,2,108947,109147,1,7.5,0.5,1.5 P,0,108947,109147,A
Sprite,Foreground,BottomCentre,"sb\pl.png",747,336 F,2,108897,108947,0,1 R,0,108947,,-1.570796 C,0,108947,,0,0,255 F,2,108947,109147,1,0 V,2,108947,109147,1,7.5,0.5,1.5 P,0,108947,109147,A
Sprite,Foreground,BottomCentre,"sb\pl.png",0,0 F,2,109085,109135,0,1 R,0,109135,,1.570796 C,0,109135,,0,0,255 M,0,109135,109181,-107,248,-107,248.8473 F,2,109135,109522,1,0 V,2,109135,109522,1,7.5,0.5,1.5 P,0,109135,109522,A M,0,109181,109228,-107,248.8473,-107,249.6945 M,0,109228,109275,-107,249.6945,-107,250.5418 M,0,109275,109322,-107,250.5418,-107,251.389
Sprite,Foreground,BottomCentre,"sb\pl.png",0,0 F,2,109085,109135,0,1 R,0,109135,,-1.570796 C,0,109135,,0,0,255 M,0,109135,109181,747,248,747,248.8473 F,2,109135,109522,1,0 V,2,109135,109522,1,7.5,0.5,1.5 P,0,109135,109522,A M,0,109181,109228,747,248.8473,747,249.6945 M,0,109228,109275,747,249.6945,747,250.5418 M,0,109275,109322,747,250.5418,747,251.389
Sprite,Foreground,BottomCentre,"sb\pl.png",0,0 F,2,109460,109510,0,1 R,0,109510,,1.570796 C,0,109510,,0,0,255 M,0,109510,109556,-107,324,-107,310.9942 F,2,109510,110085,1,0 V,2,109510,110085,1,7.5,0.5,1.5 P,0,109510,110085,A M,0,109556,109603,-107,310.9942,-107,293.2238 M,0,109603,109650,-107,293.2238,-107,271.7923 M,0,109650,109697,-107,271.7923,-107,248.4647 M,0,109697,109744,-107,248.4647,-107,225.1621 M,0,109744,109791,-107,225.1621,-107,203.8043 M,0,109791,109838,-107,203.8043,-107,186.1515 M,0,109838,109885,-107,186.1515,-107,173.4551
Sprite,Foreground,BottomCentre,"sb\pl.png",0,0 F,2,109460,109510,0,1 R,0,109510,,-1.570796 C,0,109510,,0,0,255 M,0,109510,109556,747,324,747,310.9942 F,2,109510,110085,1,0 V,2,109510,110085,1,7.5,0.5,1.5 P,0,109510,110085,A M,0,109556,109603,747,310.9942,747,293.2238 M,0,109603,109650,747,293.2238,747,271.7923 M,0,109650,109697,747,271.7923,747,248.4647 M,0,109697,109744,747,248.4647,747,225.1621 M,0,109744,109791,747,225.1621,747,203.8043 M,0,109791,109838,747,203.8043,747,186.1515 M,0,109838,109885,747,186.1515,747,173.4551
Sprite,Foreground,BottomCentre,"sb\pl.png",0,0 F,2,110022,110072,0,1 R,0,110072,,1.570796 C,0,110072,,0,0,255 M,0,110072,110118,-107,88,-107,110.8362 F,2,110072,110365,1,0 V,2,110072,110365,1,7.5,0.5,1.5 P,0,110072,110365,A M,0,110118,110165,-107,110.8362,-107,133.6724
Sprite,Foreground,BottomCentre,"sb\pl.png",0,0 F,2,110022,110072,0,1 R,0,110072,,-1.570796 C,0,110072,,0,0,255 M,0,110072,110118,747,88,747,110.8362 F,2,110072,110365,1,0 V,2,110072,110365,1,7.5,0.5,1.5 P,0,110072,110365,A M,0,110118,110165,747,110.8362,747,133.6724
Sprite,Foreground,BottomCentre,"sb\pl.png",0,0 F,2,110210,110260,0,1 R,0,110260,,1.570796 C,0,110260,,0,0,255 M,0,110260,110306,-107,168,-107,151.4643 F,2,110260,110647,1,0 V,2,110260,110647,1,7.5,0.5,1.5 P,0,110260,110647,A M,0,110306,110353,-107,151.4643,-107,139.011 M,0,110353,110400,-107,139.011,-107,131.5217 M,0,110400,110447,-107,131.5217,-107,129.4034
Sprite,Foreground,BottomCentre,"sb\pl.png",0,0 F,2,110210,110260,0,1 R,0,110260,,-1.570796 C,0,110260,,0,0,255 M,0,110260,110306,747,168,747,151.4643 F,2,110260,110647,1,0 V,2,110260,110647,1,7.5,0.5,1.5 P,0,110260,110647,A M,0,110306,110353,747,151.4643,747,139.011 M,0,110353,110400,747,139.011,747,131.5217 M,0,110400,110447,747,131.5217,747,129.4034
Sprite,Foreground,BottomCentre,"sb\pl.png",0,0 F,2,110585,110635,0,1 R,0,110635,,1.570796 C,0,110635,,0,0,255 M,0,110635,110681,-107,228,-107,224.6412 F,2,110635,111022,1,0 V,2,110635,111022,1,7.5,0.5,1.5 P,0,110635,111022,A M,0,110681,110728,-107,224.6412,-107,221.2825 M,0,110728,110775,-107,221.2825,-107,217.9237 M,0,110775,110822,-107,217.9237,-107,214.565
Sprite,Foreground,BottomCentre,"sb\pl.png",0,0 F,2,110585,110635,0,1 R,0,110635,,-1.570796 C,0,110635,,0,0,255 M,0,110635,110681,747,228,747,224.6412 F,2,110635,111022,1,0 V,2,110635,111022,1,7.5,0.5,1.5 P,0,110635,111022,A M,0,110681,110728,747,224.6412,747,221.2825 M,0,110728,110775,747,221.2825,747,217.9237 M,0,110775,110822,747,217.9237,747,214.565
Sprite,Foreground,BottomCentre,"sb\pl.png",-107,300 F,2,110960,111010,0,1 R,0,111010,,1.570796 C,0,111010,,0,0,255 F,2,111010,111210,1,0 V,2,111010,111210,1,7.5,0.5,1.5 P,0,111010,111210,A
Sprite,Foreground,BottomCentre,"sb\pl.png",747,300 F,2,110960,111010,0,1 R,0,111010,,-1.570796 C,0,111010,,0,0,255 F,2,111010,111210,1,0 V,2,111010,111210,1,7.5,0.5,1.5 P,0,111010,111210,A
Sprite,Foreground,BottomCentre,"sb\pl.png",-107,208 F,2,111147,111197,0,1 R,0,111197,,1.570796 C,0,111197,,0,0,255 F,2,111197,111397,1,0 V,2,111197,111397,1,7.5,0.5,1.5 P,0,111197,111397,A
Sprite,Foreground,BottomCentre,"sb\pl.png",747,208 F,2,111147,111197,0,1 R,0,111197,,-1.570796 C,0,111197,,0,0,255 F,2,111197,111397,1,0 V,2,111197,111397,1,7.5,0.5,1.5 P,0,111197,111397,A
Sprite,Foreground,BottomCentre,"sb\pl.png",-107,308 F,2,111335,111385,0,1 R,0,111385,,1.570796 C,0,111385,,0,0,255 F,2,111385,111585,1,0 V,2,111385,111585,1,7.5,0.5,1.5 P,0,111385,111585,A
Sprite,Foreground,BottomCentre,"sb\pl.png",747,308 F,2,111335,111385,0,1 R,0,111385,,-1.570796 C,0,111385,,0,0,255 F,2,111385,111585,1,0 V,2,111385,111585,1,7.5,0.5,1.5 P,0,111385,111585,A
Sprite,Foreground,BottomCentre,"sb\pl.png",-107,272 F,2,111522,111572,0,1 R,0,111572,,1.570796 C,0,111572,,0,0,255 F,2,111572,111772,1,0 V,2,111572,111772,1,7.5,0.5,1.5 P,0,111572,111772,A
Sprite,Foreground,BottomCentre,"sb\pl.png",747,272 F,2,111522,111572,0,1 R,0,111572,,-1.570796 C,0,111572,,0,0,255 F,2,111572,111772,1,0 V,2,111572,111772,1,7.5,0.5,1.5 P,0,111572,111772,A
Sprite,Foreground,BottomCentre,"sb\pl.png",0,0 F,2,111710,111760,0,1 R,0,111760,,1.570796 C,0,111760,,0,0,255 M,0,111760,111806,-107,412,-107,407.9647 F,2,111760,112147,1,0 V,2,111760,112147,1,7.5,0.5,1.5 P,0,111760,112147,A M,0,111806,111853,-107,407.9647,-107,403.9294 M,0,111853,111900,-107,403.9294,-107,399.8941 M,0,111900,111947,-107,399.8941,-107,395.8589
Sprite,Foreground,BottomCentre,"sb\pl.png",0,0 F,2,111710,111760,0,1 R,0,111760,,-1.570796 C,0,111760,,0,0,255 M,0,111760,111806,747,412,747,407.9647 F,2,111760,112147,1,0 V,2,111760,112147,1,7.5,0.5,1.5 P,0,111760,112147,A M,0,111806,111853,747,407.9647,747,403.9294 M,0,111853,111900,747,403.9294,747,399.8941 M,0,111900,111947,747,399.8941,747,395.8589
Sprite,Foreground,BottomCentre,"sb\pl.png",-107,424 F,2,112085,112135,0,1 R,0,112135,,1.570796 C,0,112135,,0,0,255 F,2,112135,112335,1,0 V,2,112135,112335,1,7.5,0.5,1.5 P,0,112135,112335,A
Sprite,Foreground,BottomCentre,"sb\pl.png",747,424 F,2,112085,112135,0,1 R,0,112135,,-1.570796 C,0,112135,,0,0,255 F,2,112135,112335,1,0 V,2,112135,112335,1,7.5,0.5,1.5 P,0,112135,112335,A
Sprite,Foreground,BottomCentre,"sb\pl.png",-107,348 F,2,112272,112322,0,1 R,0,112322,,1.570796 C,0,112322,,0,0,255 F,2,112322,112522,1,0 V,2,112322,112522,1,7.5,0.5,1.5 P,0,112322,112522,A
Sprite,Foreground,BottomCentre,"sb\pl.png",747,348 F,2,112272,112322,0,1 R,0,112322,,-1.570796 C,0,112322,,0,0,255 F,2,112322,112522,1,0 V,2,112322,112522,1,7.5,0.5,1.5 P,0,112322,112522,A
Sprite,Foreground,BottomCentre,"sb\pl.png",-107,348 F,2,112366,112416,0,1 R,0,112416,,1.570796 C,0,112416,,0,0,255 F,2,112416,112616,1,0 V,2,112416,112616,1,7.5,0.5,1.5 P,0,112416,112616,A
Sprite,Foreground,BottomCentre,"sb\pl.png",747,348 F,2,112366,112416,0,1 R,0,112416,,-1.570796 C,0,112416,,0,0,255 F,2,112416,112616,1,0 V,2,112416,112616,1,7.5,0.5,1.5 P,0,112416,112616,A
Sprite,Foreground,BottomCentre,"sb\pl.png",0,0 F,2,112460,112510,0,1 R,0,112510,,1.570796 C,0,112510,,0,0,255 M,0,112510,112556,-107,348,-107,329.6776 F,2,112510,113085,1,0 V,2,112510,113085,1,7.5,0.5,1.5 P,0,112510,113085,A M,0,112556,112603,-107,329.6776,-107,317.1739 M,0,112603,112650,-107,317.1739,-107,312.2409 M,0,112650,112697,-107,312.2409,-107,315.4845 M,0,112697,112744,-107,315.4845,-107,326.5209 M,0,112744,112791,-107,326.5209,-107,344.022 M,0,112791,112838,-107,344.022,-107,365.8735 M,0,112838,112885,-107,365.8735,-107,389.429
Sprite,Foreground,BottomCentre,"sb\pl.png",0,0 F,2,112460,112510,0,1 R,0,112510,,-1.570796 C,0,112510,,0,0,255 M,0,112510,112556,747,348,747,329.6776 F,2,112510,113085,1,0 V,2,112510,113085,1,7.5,0.5,1.5 P,0,112510,113085,A M,0,112556,112603,747,329.6776,747,317.1739 M,0,112603,112650,747,317.1739,747,312.2409 M,0,112650,112697,747,312.2409,747,315.4845 M,0,112697,112744,747,315.4845,747,326.5209 M,0,112744,112791,747,326.5209,747,344.022 M,0,112791,112838,747,344.022,747,365.8735 M,0,112838,112885,747,365.8735,747,389.429
Sprite,Foreground,BottomCentre,"sb\pl.png",0,0 F,2,113022,113072,0,1 R,0,113072,,1.570796 C,0,113072,,0,0,255 M,0,113072,113118,-107,284,-107,267.0049 F,2,113072,113365,1,0 V,2,113072,113365,1,7.5,0.5,1.5 P,0,113072,113365,A M,0,113118,113165,-107,267.0049,-107,252.2709
Sprite,Foreground,BottomCentre,"sb\pl.png",0,0 F,2,113022,113072,0,1 R,0,113072,,-1.570796 C,0,113072,,0,0,255 M,0,113072,113118,747,284,747,267.0049 F,2,113072,113365,1,0 V,2,113072,113365,1,7.5,0.5,1.5 P,0,113072,113365,A M,0,113118,113165,747,267.0049,747,252.2709
Sprite,Foreground,BottomCentre,"sb\pl.png",0,0 F,2,113210,113260,0,1 R,0,113260,,1.570796 C,0,113260,,0,0,255 M,0,113260,113306,-107,228,-107,226.3963 F,2,113260,113647,1,0 V,2,113260,113647,1,7.5,0.5,1.5 P,0,113260,113647,A M,0,113306,113353,-107,226.3963,-107,218.0824 M,0,113353,113400,-107,218.0824,-107,203.4378 M,0,113400,113447,-107,203.4378,-107,183.8645
Sprite,Foreground,BottomCentre,"sb\pl.png",0,0 F,2,113210,113260,0,1 R,0,113260,,-1.570796 C,0,113260,,0,0,255 M,0,113260,113306,747,228,747,226.3963 F,2,113260,113647,1,0 V,2,113260,113647,1,7.5,0.5,1.5 P,0,113260,113647,A M,0,113306,113353,747,226.3963,747,218.0824 M,0,113353,113400,747,218.0824,747,203.4378 M,0,113400,113447,747,203.4378,747,183.8645
Sprite,Foreground,BottomCentre,"sb\pl.png",-107,183 F,2,113491,113541,0,1 R,0,113541,,1.570796 C,0,113541,,0,0,255 F,2,113541,113741,1,0 V,2,113541,113741,1,7.5,0.5,1.5 P,0,113541,113741,A
Sprite,Foreground,BottomCentre,"sb\pl.png",747,183 F,2,113491,113541,0,1 R,0,113541,,-1.570796 C,0,113541,,0,0,255 F,2,113541,113741,1,0 V,2,113541,113741,1,7.5,0.5,1.5 P,0,113541,113741,A
Sprite,Foreground,BottomCentre,"sb\pl.png",-107,183 F,2,113585,113635,0,1 R,0,113635,,1.570796 C,0,113635,,0,0,255 F,2,113635,113835,1,0 V,2,113635,113835,1,7.5,0.5,1.5 P,0,113635,113835,A
Sprite,Foreground,BottomCentre,"sb\pl.png",747,183 F,2,113585,113635,0,1 R,0,113635,,-1.570796 C,0,113635,,0,0,255 F,2,113635,113835,1,0 V,2,113635,113835,1,7.5,0.5,1.5 P,0,113635,113835,A
Sprite,Foreground,BottomCentre,"sb\pl.png",-107,128 F,2,113772,113822,0,1 R,0,113822,,1.570796 C,0,113822,,0,0,255 F,2,113822,114022,1,0 V,2,113822,114022,1,7.5,0.5,1.5 P,0,113822,114022,A
Sprite,Foreground,BottomCentre,"sb\pl.png",747,128 F,2,113772,113822,0,1 R,0,113822,,-1.570796 C,0,113822,,0,0,255 F,2,113822,114022,1,0 V,2,113822,114022,1,7.5,0.5,1.5 P,0,113822,114022,A
Sprite,Foreground,BottomCentre,"sb\pl.png",-107,228 F,2,113960,114010,0,1 R,0,114010,,1.570796 C,0,114010,,0,0,255 F,2,114010,114210,1,0 V,2,114010,114210,1,7.5,0.5,1.5 P,0,114010,114210,A
Sprite,Foreground,BottomCentre,"sb\pl.png",747,228 F,2,113960,114010,0,1 R,0,114010,,-1.570796 C,0,114010,,0,0,255 F,2,114010,114210,1,0 V,2,114010,114210,1,7.5,0.5,1.5 P,0,114010,114210,A
Sprite,Foreground,BottomCentre,"sb\pl.png",0,0 F,2,114147,114197,0,1 R,0,114197,,1.570796 C,0,114197,,0,0,255 M,0,114197,114243,-107,192,-107,168.3771 F,2,114197,114490,1,0 V,2,114197,114490,1,7.5,0.5,1.5 P,0,114197,114490,A M,0,114243,114290,-107,168.3771,-107,145.5483
Sprite,Foreground,BottomCentre,"sb\pl.png",0,0 F,2,114147,114197,0,1 R,0,114197,,-1.570796 C,0,114197,,0,0,255 M,0,114197,114243,747,192,747,168.3771 F,2,114197,114490,1,0 V,2,114197,114490,1,7.5,0.5,1.5 P,0,114197,114490,A M,0,114243,114290,747,168.3771,747,145.5483
Sprite,Foreground,BottomCentre,"sb\pl.png",0,0 F,2,114335,114385,0,1 R,0,114385,,1.570796 C,0,114385,,0,0,255 M,0,114385,114431,-107,104,-107,116.4126 F,2,114385,114772,1,0 V,2,114385,114772,1,7.5,0.5,1.5 P,0,114385,114772,A M,0,114431,114478,-107,116.4126,-107,123.463 M,0,114478,114525,-107,123.463,-107,124.3824 M,0,114525,114572,-107,124.3824,-107,119.1062
Sprite,Foreground,BottomCentre,"sb\pl.png",0,0 F,2,114335,114385,0,1 R,0,114385,,-1.570796 C,0,114385,,0,0,255 M,0,114385,114431,747,104,747,116.4126 F,2,114385,114772,1,0 V,2,114385,114772,1,7.5,0.5,1.5 P,0,114385,114772,A M,0,114431,114478,747,116.4126,747,123.463 M,0,114478,114525,747,123.463,747,124.3824 M,0,114525,114572,747,124.3824,747,119.1062
Sprite,Foreground,BottomCentre,"sb\pl.png",-107,119 F,2,114616,114666,0,1 R,0,114666,,1.570796 C,0,114666,,0,0,255 F,2,114666,114866,1,0 V,2,114666,114866,1,7.5,0.5,1.5 P,0,114666,114866,A
Sprite,Foreground,BottomCentre,"sb\pl.png",747,119 F,2,114616,114666,0,1 R,0,114666,,-1.570796 C,0,114666,,0,0,255 F,2,114666,114866,1,0 V,2,114666,114866,1,7.5,0.5,1.5 P,0,114666,114866,A
Sprite,Foreground,BottomCentre,"sb\pl.png",-107,119 F,2,114710,114760,0,1 R,0,114760,,1.570796 C,0,114760,,0,0,255 F,2,114760,114960,1,0 V,2,114760,114960,1,7.5,0.5,1.5 P,0,114760,114960,A
Sprite,Foreground,BottomCentre,"sb\pl.png",747,119 F,2,114710,114760,0,1 R,0,114760,,-1.570796 C,0,114760,,0,0,255 F,2,114760,114960,1,0 V,2,114760,114960,1,7.5,0.5,1.5 P,0,114760,114960,A
Sprite,Foreground,BottomCentre,"sb\pl.png",-107,180 F,2,114897,114947,0,1 R,0,114947,,1.570796 C,0,114947,,0,0,255 F,2,114947,115147,1,0 V,2,114947,115147,1,7.5,0.5,1.5 P,0,114947,115147,A
Sprite,Foreground,BottomCentre,"sb\pl.png",747,180 F,2,114897,114947,0,1 R,0,114947,,-1.570796 C,0,114947,,0,0,255 F,2,114947,115147,1,0 V,2,114947,115147,1,7.5,0.5,1.5 P,0,114947,115147,A
Sprite,Foreground,BottomCentre,"sb\pl.png",-107,172 F,2,114990,115040,0,1 R,0,115040,,1.570796 C,0,115040,,0,0,255 F,2,115040,115240,1,0 V,2,115040,115240,1,7.5,0.5,1.5 P,0,115040,115240,A
Sprite,Foreground,BottomCentre,"sb\pl.png",747,172 F,2,114990,115040,0,1 R,0,115040,,-1.570796 C,0,115040,,0,0,255 F,2,115040,115240,1,0 V,2,115040,115240,1,7.5,0.5,1.5 P,0,115040,115240,A
Sprite,Foreground,BottomCentre,"sb\pl.png",-107,178 F,2,115084,115134,0,1 R,0,115134,,1.570796 C,0,115134,,0,0,255 F,2,115134,115334,1,0 V,2,115134,115334,1,7.5,0.5,1.5 P,0,115134,115334,A
Sprite,Foreground,BottomCentre,"sb\pl.png",747,178 F,2,115084,115134,0,1 R,0,115134,,-1.570796 C,0,115134,,0,0,255 F,2,115134,115334,1,0 V,2,115134,115334,1,7.5,0.5,1.5 P,0,115134,115334,A
Sprite,Foreground,BottomCentre,"sb\pl.png",-107,197 F,2,115178,115228,0,1 R,0,115228,,1.570796 C,0,115228,,0,0,255 F,2,115228,115428,1,0 V,2,115228,115428,1,7.5,0.5,1.5 P,0,115228,115428,A
Sprite,Foreground,BottomCentre,"sb\pl.png",747,197 F,2,115178,115228,0,1 R,0,115228,,-1.570796 C,0,115228,,0,0,255 F,2,115228,115428,1,0 V,2,115228,115428,1,7.5,0.5,1.5 P,0,115228,115428,A
Sprite,Foreground,BottomCentre,"sb\pl.png",-107,224 F,2,115272,115322,0,1 R,0,115322,,1.570796 C,0,115322,,0,0,255 F,2,115322,115522,1,0 V,2,115322,115522,1,7.5,0.5,1.5 P,0,115322,115522,A
Sprite,Foreground,BottomCentre,"sb\pl.png",747,224 F,2,115272,115322,0,1 R,0,115322,,-1.570796 C,0,115322,,0,0,255 F,2,115322,115522,1,0 V,2,115322,115522,1,7.5,0.5,1.5 P,0,115322,115522,A
Sprite,Foreground,BottomCentre,"sb\pl.png",-107,256 F,2,115365,115415,0,1 R,0,115415,,1.570796 C,0,115415,,0,0,255 F,2,115415,115615,1,0 V,2,115415,115615,1,7.5,0.5,1.5 P,0,115415,115615,A
Sprite,Foreground,BottomCentre,"sb\pl.png",747,256 F,2,115365,115415,0,1 R,0,115415,,-1.570796 C,0,115415,,0,0,255 F,2,115415,115615,1,0 V,2,115415,115615,1,7.5,0.5,1.5 P,0,115415,115615,A
Sprite,Foreground,BottomCentre,"sb\pl.png",0,0 F,2,115460,115510,0,1 R,0,115510,,1.570796 C,0,115510,,0,0,255 M,0,115510,115556,-107,292,-107,289.1703 F,2,115510,115991,1,0 V,2,115510,115991,1,7.5,0.5,1.5 P,0,115510,115991,A M,0,115556,115603,-107,289.1703,-107,286.3406 M,0,115603,115650,-107,286.3406,-107,283.5109 M,0,115650,115697,-107,283.5109,-107,280.6812 M,0,115697,115744,-107,280.6812,-107,294.7729 M,0,115744,115791,-107,294.7729,-107,314.2296
Sprite,Foreground,BottomCentre,"sb\pl.png",0,0 F,2,115460,115510,0,1 R,0,115510,,-1.570796 C,0,115510,,0,0,255 M,0,115510,115556,747,292,747,289.1703 F,2,115510,115991,1,0 V,2,115510,115991,1,7.5,0.5,1.5 P,0,115510,115991,A M,0,115556,115603,747,289.1703,747,286.3406 M,0,115603,115650,747,286.3406,747,283.5109 M,0,115650,115697,747,283.5109,747,280.6812 M,0,115697,115744,747,280.6812,747,294.7729 M,0,115744,115791,747,294.7729,747,314.2296
Sprite,Foreground,BottomCentre,"sb\pl.png",0,0 F,2,115835,115885,0,1 R,0,115885,,1.570796 C,0,115885,,0,0,255 M,0,115885,115931,-107,314,-107,311.7831 F,2,115885,116178,1,0 V,2,115885,116178,1,7.5,0.5,1.5 P,0,115885,116178,A M,0,115931,115978,-107,311.7831,-107,309.5663
Sprite,Foreground,BottomCentre,"sb\pl.png",0,0 F,2,115835,115885,0,1 R,0,115885,,-1.570796 C,0,115885,,0,0,255 M,0,115885,115931,747,314,747,311.7831 F,2,115885,116178,1,0 V,2,115885,116178,1,7.5,0.5,1.5 P,0,115885,116178,A M,0,115931,115978,747,311.7831,747,309.5663
Sprite,Foreground,BottomCentre,"sb\pl.png",0,0 F,2,116022,116072,0,1 R,0,116072,,1.570796 C,0,116072,,0,0,255 M,0,116072,116118,-107,380,-107,363.2062 F,2,116072,116365,1,0 V,2,116072,116365,1,7.5,0.5,1.5 P,0,116072,116365,A M,0,116118,116165,-107,363.2062,-107,346.4124
Sprite,Foreground,BottomCentre,"sb\pl.png",0,0 F,2,116022,116072,0,1 R,0,116072,,-1.570796 C,0,116072,,0,0,255 M,0,116072,116118,747,380,747,363.2062 F,2,116072,116365,1,0 V,2,116072,116365,1,7.5,0.5,1.5 P,0,116072,116365,A M,0,116118,116165,747,363.2062,747,346.4124
Sprite,Foreground,BottomCentre,"sb\pl.png",0,0 F,2,116210,116260,0,1 R,0,116260,,1.570796 C,0,116260,,0,0,255 M,0,116260,116306,-107,368,-107,350.9593 F,2,116260,116647,1,0 V,2,116260,116647,1,7.5,0.5,1.5 P,0,116260,116647,A M,0,116306,116353,-107,350.9593,-107,333.9185 M,0,116353,116400,-107,333.9185,-107,316.8777 M,0,116400,116447,-107,316.8777,-107,299.837
Sprite,Foreground,BottomCentre,"sb\pl.png",0,0 F,2,116210,116260,0,1 R,0,116260,,-1.570796 C,0,116260,,0,0,255 M,0,116260,116306,747,368,747,350.9593 F,2,116260,116647,1,0 V,2,116260,116647,1,7.5,0.5,1.5 P,0,116260,116647,A M,0,116306,116353,747,350.9593,747,333.9185 M,0,116353,116400,747,333.9185,747,316.8777 M,0,116400,116447,747,316.8777,747,299.837
Sprite,Foreground,BottomCentre,"sb\pl.png",0,0 F,2,116585,116635,0,1 R,0,116635,,1.570796 C,0,116635,,0,0,255 M,0,116635,116681,-107,228,-107,215.7584 F,2,116635,117022,1,0 V,2,116635,117022,1,7.5,0.5,1.5 P,0,116635,117022,A M,0,116681,116728,-107,215.7584,-107,206.5791 M,0,116728,116775,-107,206.5791,-107,200.8852 M,0,116775,116822,-107,200.8852,-107,198.9373
Sprite,Foreground,BottomCentre,"sb\pl.png",0,0 F,2,116585,116635,0,1 R,0,116635,,-1.570796 C,0,116635,,0,0,255 M,0,116635,116681,747,228,747,215.7584 F,2,116635,117022,1,0 V,2,116635,117022,1,7.5,0.5,1.5 P,0,116635,117022,A M,0,116681,116728,747,215.7584,747,206.5791 M,0,116728,116775,747,206.5791,747,200.8852 M,0,116775,116822,747,200.8852,747,198.9373
Sprite,Foreground,BottomCentre,"sb\pl.png",-107,198 F,2,116866,116916,0,1 R,0,116916,,1.570796 C,0,116916,,0,0,255 F,2,116916,117116,1,0 V,2,116916,117116,1,7.5,0.5,1.5 P,0,116916,117116,A
Sprite,Foreground,BottomCentre,"sb\pl.png",747,198 F,2,116866,116916,0,1 R,0,116916,,-1.570796 C,0,116916,,0,0,255 F,2,116916,117116,1,0 V,2,116916,117116,1,7.5,0.5,1.5 P,0,116916,117116,A
Sprite,Foreground,BottomCentre,"sb\pl.png",0,0 F,2,116960,117010,0,1 R,0,117010,,1.570796 C,0,117010,,0,0,255 M,0,117010,117056,-107,198,-107,198.8973 F,2,117010,117772,1,0 V,2,117010,117772,1,7.5,0.5,1.5 P,0,117010,117772,A M,0,117056,117103,-107,198.8973,-107,198.4005 M,0,117103,117150,-107,198.4005,-107,196.7157 M,0,117150,117197,-107,196.7157,-107,193.1699 M,0,117197,117244,-107,193.1699,-107,188.6213 M,0,117244,117291,-107,188.6213,-107,182.2661 M,0,117291,117338,-107,182.2661,-107,174.787 M,0,117338,117385,-107,174.787,-107,166.3922 M,0,117385,117431,-107,166.3922,-107,156.7894 M,0,117431,117478,-107,156.7894,-107,146.5742 M,0,117478,117525,-107,146.5742,-107,135.5018 M,0,117525,117572,-107,135.5018,-107,124.0223
Sprite,Foreground,BottomCentre,"sb\pl.png",0,0 F,2,116960,117010,0,1 R,0,117010,,-1.570796 C,0,117010,,0,0,255 M,0,117010,117056,747,198,747,198.8973 F,2,117010,117772,1,0 V,2,117010,117772,1,7.5,0.5,1.5 P,0,117010,117772,A M,0,117056,117103,747,198.8973,747,198.4005 M,0,117103,117150,747,198.4005,747,196.7157 M,0,117150,117197,747,196.7157,747,193.1699 M,0,117197,117244,747,193.1699,747,188.6213 M,0,117244,117291,747,188.6213,747,182.2661 M,0,117291,117338,747,182.2661,747,174.787 M,0,117338,117385,747,174.787,747,166.3922 M,0,117385,117431,747,166.3922,747,156.7894 M,0,117431,117478,747,156.7894,747,146.5742 M,0,117478,117525,747,146.5742,747,135.5018 M,0,117525,117572,747,135.5018,747,124.0223
Sprite,Foreground,BottomCentre,"sb\pl.png",0,0 F,2,117710,117760,0,1 R,0,117760,,1.570796 C,0,117760,,0,0,255 M,0,117760,117806,-107,84,-107,94.03044 F,2,117760,118522,1,0 V,2,117760,118522,1,7.5,0.5,1.5 P,0,117760,118522,A M,0,117806,117853,-107,94.03044,-107,104.8136 M,0,117853,117900,-107,104.8136,-107,116.1055 M,0,117900,117947,-107,116.1055,-107,127.8493 M,0,117947,117994,-107,127.8493,-107,139.6694 M,0,117994,118041,-107,139.6694,-107,151.2715 M,0,118041,118088,-107,151.2715,-107,162.5717 M,0,118088,118135,-107,162.5717,-107,172.9421 M,0,118135,118181,-107,172.9421,-107,182.4225 M,0,118181,118228,-107,182.4225,-107,190.8801 M,0,118228,118275,-107,190.8801,-107,197.7803 M,0,118275,118322,-107,197.7803,-107,203.4411
Sprite,Foreground,BottomCentre,"sb\pl.png",0,0 F,2,117710,117760,0,1 R,0,117760,,-1.570796 C,0,117760,,0,0,255 M,0,117760,117806,747,84,747,94.03044 F,2,117760,118522,1,0 V,2,117760,118522,1,7.5,0.5,1.5 P,0,117760,118522,A M,0,117806,117853,747,94.03044,747,104.8136 M,0,117853,117900,747,104.8136,747,116.1055 M,0,117900,117947,747,116.1055,747,127.8493 M,0,117947,117994,747,127.8493,747,139.6694 M,0,117994,118041,747,139.6694,747,151.2715 M,0,118041,118088,747,151.2715,747,162.5717 M,0,118088,118135,747,162.5717,747,172.9421 M,0,118135,118181,747,172.9421,747,182.4225 M,0,118181,118228,747,182.4225,747,190.8801 M,0,118228,118275,747,190.8801,747,197.7803 M,0,118275,118322,747,197.7803,747,203.4411
//Storyboard Sound Samples

[TimingPoints]
10,375,4,2,1,40,1,0
1510,-200,4,2,6,35,0,0
12947,-300,4,2,6,35,0,0
13510,-400,4,2,6,35,0,0
19135,-400,4,2,6,15,0,0
19510,-100,4,3,1,40,0,0
20260,-100,4,3,6,50,0,0
20541,-100,4,3,1,40,0,0
21760,-100,4,3,6,50,0,0
22135,-100,4,3,1,40,0,0
22697,-100,4,2,3,20,0,0
23260,-100,4,3,6,30,0,0
23447,-100,4,2,3,20,0,0
24010,-100,4,3,6,30,0,0
24197,-100,4,2,3,20,0,0
24760,-100,4,3,6,30,0,0
24947,-100,4,2,3,40,0,0
25135,-100,4,3,6,50,0,0
25322,-100,4,3,1,60,0,0
25510,-100,4,3,1,45,0,0
26260,-100,4,3,6,55,0,0
26447,-100,4,3,1,45,0,0
27760,-100,4,3,6,55,0,0
27947,-100,4,3,1,45,0,0
28510,-100,4,2,3,20,0,0
29259,-100,4,3,6,30,0,0
29447,-100,4,2,3,20,0,0
30010,-200,4,2,0,35,0,0
32072,-200,4,2,0,15,0,0
33010,-200,4,2,2,45,0,0
33385,-133.333333333333,4,2,2,45,0,0
43510,-100,4,2,3,55,0,1
43885,-100,4,2,0,35,0,1
44260,-100,4,2,3,55,0,1
44635,-100,4,2,0,35,0,1
45010,-100,4,2,3,55,0,1
45385,-100,4,2,0,35,0,1
45760,-100,4,2,3,55,0,1
46135,-100,4,2,0,35,0,1
46510,-100,4,2,3,55,0,1
48197,-100,4,2,3,35,0,1
48947,-100,4,2,3,65,0,1
49510,-100,4,2,3,55,0,1
49885,-100,4,2,0,35,0,1
50260,-100,4,2,3,55,0,1
50635,-100,4,2,0,35,0,1
51010,-100,4,2,3,55,0,1
51385,-100,4,2,0,35,0,1
51760,-100,4,2,3,55,0,1
52135,-100,4,2,0,35,0,1
52510,-100,4,2,3,55,0,1
54010,-100,4,2,3,65,0,1
55510,-100,4,2,3,55,0,1
55885,-100,4,2,0,45,0,1
56260,-100,4,2,3,55,0,1
56635,-100,4,2,0,45,0,1
57010,-100,4,2,3,55,0,1
60010,-100,4,2,3,35,0,1
61510,-100,4,2,3,55,0,1
61885,-100,4,2,0,45,0,1
62260,-100,4,2,3,55,0,1
62635,-100,4,2,0,45,0,1
63010,-100,4,2,3,55,0,1
66010,-100,4,2,3,45,0,0
69010,-100,4,2,3,50,0,0
70510,-100,4,2,3,40,0,0
71260,-83.3333333333333,4,2,3,40,0,0
71635,-133.333333333333,4,2,3,40,0,0
72010,-100,4,2,3,55,0,0
75010,-200,4,2,3,50,0,0
75760,-200,4,2,3,50,0,0
77260,-200,4,2,3,15,0,0
78010,-100,4,3,2,60,0,0
78385,-125,4,3,3,50,0,0
78760,-83.3333333333333,4,3,4,40,0,0
79041,-83.3333333333333,4,2,3,40,0,0
79135,-83.3333333333333,4,3,3,60,0,0
79885,-100,4,2,3,70,0,0
80635,-83.3333333333333,4,3,3,70,0,0
80822,-83.3333333333333,4,3,4,70,0,0
81010,-100,4,3,2,50,0,0
81385,-125,4,3,5,50,0,0
81760,-100,4,2,3,70,0,0
82697,-83.3333333333333,4,2,3,50,0,0
82885,-83.3333333333333,4,3,2,70,0,0
83072,-83.3333333333333,4,2,3,40,0,0
83822,-83.3333333333333,4,3,3,50,0,0
84010,-100,4,2,3,50,0,0
84291,-100,4,3,4,50,0,0
84572,-100,4,3,2,60,0,0
84760,-83.3333333333333,4,2,3,60,0,0
84947,-83.3333333333333,4,3,4,50,0,0
85135,-83.3333333333333,4,3,4,60,0,0
85322,-83.3333333333333,4,3,2,60,0,0
85416,-133.333333333333,4,2,3,40,0,0
85885,-83.3333333333333,4,2,3,60,0,0
85886,-100,4,2,3,60,0,0
86072,-100,4,2,3,40,0,0
86260,-83.3333333333333,4,2,3,70,0,0
86822,-83.3333333333333,4,3,3,70,0,0
87010,-100,4,2,3,50,0,0
87385,-100,4,2,3,70,0,0
87947,-83.3333333333333,4,3,4,70,0,0
88322,-100,4,3,4,70,0,0
88510,-100,4,2,3,70,0,0
88697,-200,4,3,5,70,0,0
88885,-133.333333333333,4,2,3,50,0,0
89260,-90.9090909090909,4,2,3,70,0,0
89635,-90.9090909090909,4,3,4,70,0,0
89822,-90.9090909090909,4,2,3,50,0,0
90010,-100,4,3,2,40,0,0
90385,-76.9230769230769,4,3,4,50,0,0
90760,-90.9090909090909,4,2,3,70,0,0
92635,-76.9230769230769,4,3,3,40,0,0
92822,-76.9230769230769,4,3,2,60,0,0
93010,-133.333333333333,4,3,4,60,0,0
93760,-100,4,2,3,60,0,0
93947,-100,4,3,4,60,0,0
94697,-100,4,2,3,60,0,0
95072,-100,4,2,3,40,0,0
95822,-100,4,3,2,40,0,0
96010,-83.3333333333333,4,3,3,50,0,0
96291,-83.3333333333333,4,3,4,40,0,0
96572,-71.4285714285714,4,3,4,50,0,0
96760,-100,4,2,3,70,0,0
97603,-100,4,2,3,50,0,0
97885,-83.3333333333333,4,2,3,50,0,0
98635,-83.3333333333333,4,3,4,60,0,0
99010,-133.333333333333,4,3,2,70,0,0
99385,-100,4,3,3,50,0,0
99760,-100,4,2,3,60,0,0
100322,-100,4,3,4,60,0,0
100697,-133.333333333333,4,2,3,70,0,0
101072,-133.333333333333,4,2,3,50,0,0
101447,-133.333333333333,4,2,3,20,0,0
102010,-100,4,2,2,45,0,0
103510,-133.333333333333,4,2,2,50,0,0
104260,-133.333333333333,4,2,2,30,0,0
104635,-133.333333333333,4,2,2,50,0,0
106510,-133.333333333333,4,2,2,30,0,0
106697,-133.333333333333,4,2,2,50,0,0
108010,-133.333333333333,4,2,2,30,0,0
108197,-133.333333333333,4,2,2,50,0,0
109510,-100,4,2,3,55,0,0
116260,-133.333333333333,4,2,3,55,0,0
117010,-200,4,2,3,45,0,0
117760,-200,4,2,3,30,0,0
118510,-133.333333333333,4,2,0,35,0,0
130510,-400,4,2,0,25,0,0
141010,-400,4,2,0,20,0,0

[Colours]
Combo1 : 141,209,224
Combo2 : 128,128,128
Combo3 : 0,128,192
Combo4 : 192,192,192

[HitObjects]
84,128,1510,6,0,B|136:104|188:140|188:140|240:128|252:76,1,190,4|2,0:0|0:0,0:0:0:0:
247,91,3010,6,0,P|243:143|259:187,1,95,4|2,0:0|0:0,0:0:0:0:
392,256,3760,2,0,P|408:200|396:144,1,95,2|2,0:0|0:0,0:0:0:0:
212,272,4510,6,0,B|256:288|292:272|292:272|280:316|304:344|304:344|324:336|344:336,1,190,4|2,0:0|0:0,0:0:0:0:
334,336,5635,1,2,0:0:0:0:
156,208,6010,6,0,P|128:276|132:300,1,95,4|2,0:0|0:0,0:0:0:0:
268,184,6760,2,0,P|233:118|212:106,1,95,2|2,0:0|0:0,0:0:0:0:
212,272,7510,6,0,P|283:287|306:279,1,95,4|2,0:0|0:0,0:0:0:0:
302,281,8260,1,2,0:0:0:0:
468,208,8635,2,0,P|433:202|400:212,1,47.5,2|0,0:0|0:0,0:0:0:0:
392,220,9010,6,0,B|404:176|388:144|388:144|412:140|412:140|396:108|400:52,1,190,4|2,0:0|0:0,0:0:0:0:
399,54,10135,1,0,0:0:0:0:
364,300,10510,6,0,P|320:256|312:212,1,95,4|0,0:0|0:0,0:0:0:0:
264,80,11260,2,0,P|248:144|224:168,1,95,2|2,0:0|0:0,0:0:0:0:
148,264,12010,6,0,P|192:256|240:276,1,95,6|0,0:0|0:0,0:0:0:0:
112,336,12760,2,0,P|77:307|68:248,1,95,4|0,0:0|0:0,0:0:0:0:
56,172,13510,6,0,B|84:164|112:184|112:184|148:128|120:76|120:76|160:116|224:96|224:96|260:108|260:108|280:92|312:92,1,380,4|0,0:0|0:0,0:0:0:0:
256,192,16603,12,0,19135,0:0:0:0:
284,116,19510,6,0,B|340:92|380:128|380:128|352:108|344:60,1,142.5,6|0,0:0|0:0,0:0:0:0:
348,88,19885,1,2,0:0:0:0:
332,188,20072,1,0,0:0:0:0:
332,188,20166,1,0,0:0:0:0:
332,188,20260,2,0,P|276:208|240:304,1,142.5,8|0,0:0|0:0,0:0:0:0:
238,278,20635,1,2,0:0:0:0:
376,300,20822,1,8,0:0:0:0:
268,360,21010,6,0,P|212:360|168:244,1,190,2|2,0:0|0:0,0:0:0:0:
112,176,21572,2,0,P|168:164|184:168,1,47.5
248,124,21760,2,0,P|192:96|160:40,1,95,8|0,0:0|0:0,0:0:0:0:
328,208,22135,2,0,P|264:208|224:228,1,95,8|0,0:0|0:0,0:0:0:0:
404,288,22510,5,6,0:0:0:0:
504,192,22697,1,2,0:0:0:0:
472,180,22790,1,2,0:0:0:0:
436,184,22884,1,2,0:0:0:0:
406,196,22978,1,2,0:0:0:0:
395,165,23072,1,2,0:0:0:0:
372,141,23165,1,2,0:0:0:0:
344,132,23260,5,12,0:0:0:0:
232,128,23447,1,2,0:0:0:0:
232,94,23540,1,2,0:0:0:0:
244,64,23634,1,2,0:0:0:0:
265,39,23728,1,2,0:0:0:0:
294,23,23822,1,2,0:0:0:0:
327,18,23915,1,2,0:0:0:0:
360,28,24010,5,12,0:0:0:0:
232,128,24197,2,0,P|176:136|160:132,1,47.5,2|0,0:0|0:0,0:0:0:0:
80,96,24385,2,0,L|72:156,1,47.5,2|2,0:0|0:0,0:0:0:0:
148,272,24572,2,0,L|136:212,1,47.5,2|2,0:0|0:0,0:0:0:0:
96,348,24760,5,12,0:0:0:0:
268,228,24947,2,0,L|256:296,1,47.5,6|0,0:0|0:0,0:0:0:0:
376,200,25135,2,0,L|364:264,1,47.5,6|0,0:0|0:0,0:0:0:0:
320,364,25322,2,0,L|328:300,1,47.5,8|0,0:0|0:0,0:0:0:0:
368,112,25510,6,0,B|440:108|464:184|464:184|456:140|476:124,1,190,6|2,0:0|0:0,0:0:0:0:
376,200,26072,1,0,0:0:0:0:
376,200,26166,1,0,0:0:0:0:
376,200,26260,2,0,P|300:200|256:192,1,95,8|0,0:0|0:0,0:0:0:0:
176,184,26635,1,2,0:0:0:0:
220,276,26822,1,8,0:0:0:0:
220,276,26916,1,0,0:0:0:0:
220,276,27010,6,0,P|144:276|100:284,1,95
48,324,27385,2,0,B|20:272|56:224|56:224|34:229|8:232,1,142.5,6|0,0:0|0:0,0:0:0:0:
12,232,27760,1,12,0:0:0:0:
125,278,27947,1,0,0:0:0:0:
125,278,28041,1,0,0:0:0:0:
125,278,28135,1,6,0:0:0:0:
44,344,28322,1,8,0:0:0:0:
204,332,28510,6,0,P|224:280|200:220,1,95,4|0,0:0|0:0,0:0:0:0:
200,212,28791,1,2,0:0:0:0:
224,234,28884,1,2,0:0:0:0:
254,246,28978,1,2,0:0:0:0:
288,246,29072,1,2,0:0:0:0:
318,235,29166,1,2,0:0:0:0:
343,212,29259,5,8,0:0:0:0:
440,144,29447,1,2,0:0:0:0:
418,118,29540,1,2,0:0:0:0:
390,100,29634,1,2,0:0:0:0:
358,93,29728,1,2,0:0:0:0:
325,98,29822,1,2,0:0:0:0:
300,108,29915,1,2,0:0:0:0:
308,76,30010,6,0,P|283:27|223:103,1,190,2|2,0:0|0:0,0:0:0:0:
219,98,30853,1,0,0:0:0:0:
219,98,30947,2,0,L|184:95,1,23.75
108,88,31135,2,0,L|120:124,1,23.75,2|0,0:0|0:0,0:0:0:0:
208,176,31322,2,0,L|172:184,1,23.75
92,192,31510,6,0,P|116:248|240:256,1,190,0|6,0:0|0:0,0:0:0:0:
232,261,33010,5,2,0:0:0:0:
400,368,33385,2,0,B|352:356|324:360|324:360|360:340|368:328,1,106.875004076958,2|0,0:0|0:0,0:0:0:0:
349,344,33760,1,2,0:0:0:0:
412,268,33947,1,0,0:0:0:0:
360,176,34135,1,0,0:0:0:0:
376,84,34322,1,0,0:0:0:0:
460,120,34510,6,0,P|464:56|396:-4,1,142.500005435944,2|0,0:0|0:0,0:0:0:0:
376,84,35072,1,0,0:0:0:0:
460,120,35260,5,2,0:0:0:0:
232,176,35635,1,2,0:0:0:0:
492,260,36010,6,0,P|436:244|396:252,1,71.2500027179719,2|0,0:0|0:0,0:0:0:0:
348,172,36385,2,0,P|324:228|332:264,1,71.2500027179719,2|0,0:0|0:0,0:0:0:0:
236,304,36760,2,0,P|285:348|352:344,1,106.875004076958,6|0,0:0|0:0,0:0:0:0:
323,352,37135,1,0,0:0:0:0:
324,236,37322,1,8,0:0:0:0:
136,320,37510,6,0,P|144:256|200:212,1,106.875004076958,12|0,0:0|0:0,0:0:0:0:
170,225,37885,1,2,0:0:0:0:
272,128,38072,1,0,0:0:0:0:
247,133,38165,1,0,0:0:0:0:
224,144,38260,2,0,P|276:140|320:152,1,71.2500027179719,6|0,0:0|0:0,0:0:0:0:
432,28,38635,2,0,P|356:32|336:24,1,71.2500027179719,6|8,0:0|0:0,0:0:0:0:
484,200,39010,5,8,0:0:0:0:
368,296,39385,2,0,B|404:280|444:288|444:288|408:268|404:252,1,106.875004076958,2|0,0:0|0:0,0:0:0:0:
419,271,39760,1,2,0:0:0:0:
340,204,39947,1,0,0:0:0:0:
368,296,40135,1,10,0:0:0:0:
300,360,40322,1,0,0:0:0:0:
196,344,40510,6,0,P|220:296|284:268,1,106.875004076958,8|0,0:0|0:0,0:0:0:0:
264,270,40885,1,8,0:0:0:0:
300,360,41072,1,0,0:0:0:0:
168,216,41260,2,0,P|240:184|288:184,1,106.875004076958,10|0,0:0|0:0,0:0:0:0:
267,182,41635,1,8,0:0:0:0:
368,104,41822,1,2,0:0:0:0:
376,128,41916,1,0,0:0:0:0:
380,152,42010,6,0,P|384:112|408:76,1,71.2500027179719,2|0,0:0|0:0,0:0:0:0:
492,196,42385,2,0,P|496:248|480:284,1,71.2500027179719,0|0,0:0|0:0,0:0:0:0:
384,336,42760,1,2,0:0:0:0:
368,316,42853,1,0,0:0:0:0:
348,302,42947,1,0,0:0:0:0:
325,292,43041,1,0,0:0:0:0:
300,288,43135,1,10,0:0:0:0:
275,289,43228,1,0,0:0:0:0:
252,297,43322,1,10,0:0:0:0:
230,310,43416,1,0,0:0:0:0:
216,328,43510,6,0,B|132:344|88:316|88:316|124:312|152:296,1,190,2|10,0:0|0:0,0:0:0:0:
143,300,44072,1,2,0:0:0:0:
16,176,44260,2,0,P|72:244|132:184,1,190,8|2,0:0|0:0,0:0:0:0:
131,188,44822,1,2,0:0:0:0:
216,64,45010,6,0,B|220:132|220:132|236:160|236:160|240:212,1,142.5,2|0,0:0|0:0,0:0:0:0:
220,236,45385,2,0,P|264:208|332:212,1,95,10|2,0:0|0:0,0:0:0:0:
428,308,45760,2,0,B|304:292|304:292|372:336,1,190,8|2,0:0|0:0,0:0:0:0:
358,327,46322,1,2,0:0:0:0:
496,216,46510,6,0,P|416:216|388:200,1,95,2|0,0:0|0:0,0:0:0:0:
272,96,46885,2,0,L|400:84,1,95
320,248,47260,1,8,0:0:0:0:
208,184,47447,1,0,0:0:0:0:
404,210,47635,2,0,P|413:256|403:302,1,95
256,344,48010,6,0,P|180:328|144:340,1,95,2|2,0:0|0:0,0:0:0:0:
120,364,48291,1,2,0:0:0:0:
139,337,48384,1,2,0:0:0:0:
148,305,48478,1,2,0:0:0:0:
144,272,48572,1,2,0:0:0:0:
129,243,48666,1,2,0:0:0:0:
104,224,48760,1,12,0:0:0:0:
0,92,48947,2,0,P|56:88|80:80,1,47.5,2|0,0:0|0:0,0:0:0:0:
140,52,49135,2,0,B|152:92|136:132|136:132|160:104|212:100,1,142.5,8|0,0:0|0:0,0:0:0:0:
212,100,49510,6,0,B|276:96|316:148|316:148|292:104|300:64,1,190,2|10,0:0|0:0,0:0:0:0:
304,60,50072,1,2,0:0:0:0:
268,232,50260,2,0,P|231:176|164:244,1,190,10|2,0:0|0:0,0:0:0:0:
163,243,50822,1,2,0:0:0:0:
256,344,51010,6,0,B|304:348|336:320|336:320|368:344|412:340,1,142.5,2|0,0:0|0:0,0:0:0:0:
412,340,51385,2,0,P|356:304|348:248,1,95,10|2,0:0|0:0,0:0:0:0:
396,128,51760,2,0,B|420:260|420:260|440:204,1,190,8|2,0:0|0:0,0:0:0:0:
438,207,52322,1,2,0:0:0:0:
360,48,52510,6,0,P|312:96|312:132,1,95,2|0,0:0|0:0,0:0:0:0:
248,276,52885,2,0,P|244:212|192:176,1,95,0|0,0:0|0:0,0:0:0:0:
116,56,53260,2,0,P|171:88|230:65,1,95,8|0,0:0|0:0,0:0:0:0:
104,148,53635,2,0,P|40:164|12:272,1,142.5
4,256,54010,5,6,0:0:0:0:
96,232,54197,1,2,0:0:0:0:
120,372,54385,1,2,0:0:0:0:
264,336,54572,1,2,0:0:0:0:
164,296,54760,1,8,0:0:0:0:
352,376,54947,1,0,0:0:0:0:
358,342,55040,1,0,0:0:0:0:
355,309,55134,1,8,0:0:0:0:
264,336,55322,1,2,0:0:0:0:
432,284,55510,6,0,B|420:245|381:215|332:229|332:229|371:196|365:139,1,190,6|10,0:0|0:0,0:0:0:0:
364,176,56072,1,2,0:0:0:0:
268,32,56260,2,0,P|296:108|200:152,1,190,10|2,0:0|0:0,0:0:0:0:
215,157,56822,1,2,0:0:0:0:
424,108,57010,6,0,P|452:172|440:212,1,95,2|0,0:0|0:0,0:0:0:0:
344,284,57385,2,0,B|300:268|300:268|228:288,1,95
240,284,57666,1,0,0:0:0:0:
224,288,57760,1,8,0:0:0:0:
296,352,57947,1,0,0:0:0:0:
164,212,58135,1,2,0:0:0:0:
164,352,58322,1,8,0:0:0:0:
60,232,58510,6,0,P|64:168|96:132,1,95,2|0,0:0|0:0,0:0:0:0:
232,44,58885,2,0,P|224:108|192:144,1,95,0|0,0:0|0:0,0:0:0:0:
16,64,59260,2,0,B|80:24|151:68|151:68|124:16,1,190,8|0,0:0|0:0,0:0:0:0:
130,27,59822,1,0,0:0:0:0:
116,240,60010,5,2,0:0:0:0:
241,219,60197,1,2,0:0:0:0:
268,201,60291,1,2,0:0:0:0:
289,175,60385,1,2,0:0:0:0:
299,144,60478,1,2,0:0:0:0:
300,112,60572,1,2,0:0:0:0:
292,80,60666,1,2,0:0:0:0:
272,52,60760,1,12,0:0:0:0:
156,128,60947,6,0,L|212:128,1,47.5,10|6,0:0|0:0,0:0:0:0:
112,44,61135,2,0,L|64:44,1,47.5,10|0,0:0|0:0,0:0:0:0:
9,171,61322,2,0,P|32:164|56:164,1,47.5,2|0,0:0|0:0,0:0:0:0:
184,240,61510,6,0,B|120:244|80:304|80:304|68:264|32:248,1,190,2|10,0:0|0:0,0:0:0:0:
43,254,62072,1,2,0:0:0:0:
136,380,62260,2,0,P|164:332|284:384,1,190,10|2,0:0|0:0,0:0:0:0:
276,358,62822,1,2,0:0:0:0:
424,264,63010,6,0,P|360:268|328:244,1,95,6|0,0:0|0:0,0:0:0:0:
496,208,63385,2,0,P|516:280|496:328,1,95,2|0,0:0|0:0,0:0:0:0:
416,156,63760,2,0,P|464:116|528:120,1,95,8|0,0:0|0:0,0:0:0:0:
320,64,64135,2,0,P|324:128|228:172,1,142.5,8|0,0:0|0:0,0:0:0:0:
244,180,64510,5,2,0:0:0:0:
244,92,64697,1,0,0:0:0:0:
112,140,64885,1,0,0:0:0:0:
136,32,65072,1,0,0:0:0:0:
24,108,65260,2,0,B|24:156|24:156|44:208,1,95,8|0,0:0|0:0,0:0:0:0:
56,340,65635,2,0,P|116:296|188:308,1,142.5,8|0,0:0|0:0,0:0:0:0:
200,324,66010,5,6,0:0:0:0:
368,264,66197,1,0,0:0:0:0:
256,232,66385,1,2,0:0:0:0:
296,308,66572,1,0,0:0:0:0:
432,176,66760,2,0,L|332:180,1,95,6|0,0:0|0:0,0:0:0:0:
216,64,67135,2,0,L|332:72,1,95,2|0,0:0|0:0,0:0:0:0:
260,224,67510,1,6,0:0:0:0:
188,172,67697,1,0,0:0:0:0:
337,179,67885,5,2,0:0:0:0:
264,136,68072,1,0,0:0:0:0:
116,236,68260,2,0,P|96:184|100:140,1,95,6|0,0:0|0:0,0:0:0:0:
68,316,68635,2,0,P|140:328|176:304,1,95,12|0,0:0|0:0,0:0:0:0:
157,319,68916,1,0,0:0:0:0:
157,319,69010,5,2,0:0:0:0:
116,236,69197,1,2,0:0:0:0:
240,352,69385,1,2,0:0:0:0:
202,175,69572,1,2,0:0:0:0:
328,320,69760,1,2,0:0:0:0:
260,88,69947,1,2,0:0:0:0:
400,256,70135,1,2,0:0:0:0:
300,8,70322,1,2,0:0:0:0:
484,120,70510,5,2,0:0:0:0:
469,144,70603,1,2,0:0:0:0:
445,159,70697,1,2,0:0:0:0:
417,163,70791,1,2,0:0:0:0:
390,155,70885,1,2,0:0:0:0:
370,135,70978,1,2,0:0:0:0:
360,109,71072,1,2,0:0:0:0:
364,84,71166,1,2,0:0:0:0:
376,64,71260,6,0,L|296:76,1,56.9999982604981,12|0,0:0|0:0,0:0:0:0:
160,148,71447,2,0,L|248:136,1,56.9999982604981,6|0,0:0|0:0,0:0:0:0:
400,256,71635,6,0,P|340:256|296:316,1,106.875004076958,10|0,0:0|0:0,0:0:0:0:
296,308,72010,5,6,0:0:0:0:
384,352,72197,1,0,0:0:0:0:
208,352,72385,2,0,B|200:304|200:304|216:232,1,95
312,120,72760,2,0,B|276:168|228:172|228:172|248:152|256:128,1,142.5,8|0,0:0|0:0,0:0:0:0:
248,56,73135,2,0,P|200:72|168:112,1,95,2|0,0:0|0:0,0:0:0:0:
100,208,73510,2,0,P|48:200|-12:196,1,95,2|0,0:0|0:0,0:0:0:0:
68,20,73885,2,0,P|72:68|83:124,1,95,2|0,0:0|0:0,0:0:0:0:
124,368,74260,2,0,P|68:352|44:264,1,142.5,2|0,0:0|0:0,0:0:0:0:
121,289,74635,2,0,P|168:296|220:292,1,95,12|0,0:0|0:0,0:0:0:0:
300,256,75010,6,0,B|352:276|356:336|356:336|380:320|416:324,1,166.25
496,308,75760,6,0,B|556:264|524:180|524:180|472:196|432:160|432:160|476:108|448:32|448:32|356:44|344:140,1,522.5
328,232,78010,6,0,P|280:212|244:124,1,142.5,2|0,0:0|0:0,0:0:0:0:
144,64,78385,6,0,P|140:124|72:168,1,114,2|0,0:0|0:0,0:0:0:0:
52,296,78760,6,0,P|96:259|200:300,1,170.999994781494,2|2,0:0|0:0,0:0:0:0:
256,348,79135,2,0,P|288:348|316:340,1,56.9999982604981,12|0,0:0|0:0,0:0:0:0:
424,287,79322,1,4,0:0:0:0:
432,272,79416,6,0,B|448:244|448:244|340:264,1,113.999996520996,4|0,0:0|0:0,0:0:0:0:
292,160,79697,2,0,L|368:172,1,56.9999982604981,12|0,0:0|0:0,0:0:0:0:
464,112,79885,6,0,P|404:104|372:60,1,95,8|0,0:0|0:0,0:0:0:0:
200,76,80260,2,0,P|256:52|276:12,1,95,8|0,0:0|0:0,0:0:0:0:
108,60,80635,6,0,P|116:116|140:144,1,56.9999982604981,2|0,0:0|0:0,0:0:0:0:
152,220,80822,2,0,P|116:204|64:204,1,56.9999982604981,2|0,0:0|0:0,0:0:0:0:
16,320,81010,6,0,P|76:280|156:344,1,142.5,6|0,0:0|0:0,0:0:0:0:
220,360,81385,6,0,B|228:320|228:320|224:280|224:280|240:216,1,114,2|0,0:0|0:0,0:0:0:0:
216,152,81760,6,0,L|276:164,1,47.5,2|0,0:0|0:0,0:0:0:0:
316,244,81947,2,0,L|356:198,1,47.5,2|2,0:0|0:0,0:0:0:0:
446,237,82135,2,0,L|448:176,1,47.5,2|0,0:0|0:0,0:0:0:0:
496,104,82322,2,0,B|468:112|468:112|444:104|444:104|412:116|384:104,1,95,10|0,0:0|0:0,0:0:0:0:
328,56,82603,5,0,0:0:0:0:
336,68,82697,2,0,L|272:48,1,56.9999982604981,12|0,0:0|0:0,0:0:0:0:
180,44,82885,2,0,P|192:100|236:136,1,113.999996520996,2|2,0:0|0:0,0:0:0:0:
296,224,83166,1,2,0:0:0:0:
296,224,83260,2,0,P|244:220|192:260,1,113.999996520996,2|2,0:0|0:0,0:0:0:0:
100,172,83541,2,0,L|156:172,1,56.9999982604981,2|0,0:0|0:0,0:0:0:0:
252,352,83728,1,0,0:0:0:0:
252,352,83822,2,0,L|272:256,1,56.9999982604981,10|0,0:0|0:0,0:0:0:0:
332,92,84010,6,0,B|344:124|332:160|332:160|372:188|372:212,1,95,2|0,0:0|0:0,0:0:0:0:
396,240,84291,2,0,L|388:284,4,23.75,2|0|0|0|0,0:0|0:0|0:0|0:0|0:0,0:0:0:0:
496,332,84572,2,0,L|488:272,1,47.5,4|0,0:0|0:0,0:0:0:0:
512,200,84760,6,0,P|464:200|444:192,1,56.9999982604981,10|0,0:0|0:0,0:0:0:0:
344,344,84947,2,0,L|416:344,1,56.9999982604981,12|0,0:0|0:0,0:0:0:0:
492,120,85135,6,0,P|408:124|380:160,1,113.999996520996,12|0,0:0|0:0,0:0:0:0:
316,240,85416,2,0,P|292:244|244:224,1,71.2500027179719,2|2,0:0|0:0,0:0:0:0:
136,164,85698,1,2,0:0:0:0:
136,164,85791,1,2,0:0:0:0:
136,164,85885,6,0,P|204:156|220:96,1,113.999996520996,8|2,0:0|0:0,0:0:0:0:
180,8,86166,1,2,0:0:0:0:
176,48,86260,1,8,0:0:0:0:
212,36,86353,1,0,0:0:0:0:
252,40,86447,1,2,0:0:0:0:
284,56,86541,1,2,0:0:0:0:
308,88,86635,6,0,L|376:64,1,56.9999982604981,8|0,0:0|0:0,0:0:0:0:
439,164,86822,2,0,L|417:240,1,56.9999982604981,2|0,0:0|0:0,0:0:0:0:
372,336,87010,6,0,P|296:316|272:328,1,95,2|0,0:0|0:0,0:0:0:0:
208,364,87291,1,0,0:0:0:0:
208,364,87385,2,0,P|196:304|204:276,1,47.5,8|0,0:0|0:0,0:0:0:0:
264,192,87572,1,2,0:0:0:0:
264,192,87666,1,2,0:0:0:0:
264,192,87760,2,0,P|256:244|244:260,1,47.5,8|0,0:0|0:0,0:0:0:0:
96,212,87947,6,0,P|180:192|136:148,1,170.999994781494,4|0,0:0|0:0,0:0:0:0:
88,96,88322,2,0,P|148:68|152:68,1,47.5,8|0,0:0|0:0,0:0:0:0:
208,36,88510,1,2,0:0:0:0:
364,232,88697,6,0,L|372:208,1,23.75,2|0,0:0|0:0,0:0:0:0:
376,192,88885,6,0,L|280:180,1,71.2500027179719,0|2,0:0|0:0,0:0:0:0:
305,183,89166,1,2,0:0:0:0:
380,108,89260,6,0,L|432:105,1,52.2500015945435,8|0,0:0|0:0,0:0:0:0:
488,208,89447,2,0,L|476:272,1,52.2500015945435,2|2,0:0|0:0,0:0:0:0:
392,336,89635,2,0,L|304:316,1,52.2500015945435,4|0,0:0|0:0,0:0:0:0:
160,352,89822,1,2,0:0:0:0:
160,352,89916,1,2,0:0:0:0:
160,352,90010,6,0,P|196:284|128:244,1,142.5,6|0,0:0|0:0,0:0:0:0:
136,232,90385,6,0,B|92:244|76:276|76:276|96:200|60:136,1,185.249991519928,6|0,0:0|0:0,0:0:0:0:
0,128,90760,6,0,P|40:88|80:84,1,52.2500015945435,2|0,0:0|0:0,0:0:0:0:
84,28,90947,2,0,L|152:72,1,52.2500015945435,2|0,0:0|0:0,0:0:0:0:
200,100,91135,1,8,0:0:0:0:
200,100,91228,2,0,L|252:72,1,52.2500015945435,0|2,0:0|0:0,0:0:0:0:
320,36,91416,2,0,P|324:116|296:144,1,104.500003189087,2|2,0:0|0:0,0:0:0:0:
264,204,91697,2,0,P|320:216|352:200,1,52.2500015945435,6|2,0:0|0:0,0:0:0:0:
424,236,91884,5,8,0:0:0:0:
432,220,91978,1,0,0:0:0:0:
440,204,92072,2,0,L|372:208,1,52.2500015945435,6|2,0:0|0:0,0:0:0:0:
280,328,92260,1,8,0:0:0:0:
272,344,92354,1,2,0:0:0:0:
264,360,92448,2,0,L|332:356,1,52.2500015945435,10|2,0:0|0:0,0:0:0:0:
452,312,92635,2,0,B|392:302|392:302|334:260|334:260|251:247,1,185.249991519928,2|0,0:0|0:0,0:0:0:0:
124,180,93010,6,0,P|136:247|75:287,1,142.500005435944,4|12,0:0|0:0,0:0:0:0:
82,288,93572,1,4,0:0:0:0:
140,84,93760,5,8,0:0:0:0:
169,99,93853,1,0,0:0:0:0:
202,101,93947,1,8,0:0:0:0:
233,89,94041,1,8,0:0:0:0:
257,66,94135,2,0,L|268:112,1,47.5,4|0,0:0|0:0,0:0:0:0:
316,184,94322,2,0,L|344:168,2,23.75,8|0|0,0:0|0:0|0:0,0:0:0:0:
268,288,94510,5,4,0:0:0:0:
268,288,94603,1,0,0:0:0:0:
268,288,94697,2,0,L|224:272,1,47.5,8|0,0:0|0:0,0:0:0:0:
136,312,94885,2,0,P|128:248|152:208,1,95,2|6,0:0|0:0,0:0:0:0:
168,136,95166,1,2,0:0:0:0:
168,136,95260,2,0,P|131:133|72:172,1,95,10|2,0:0|0:0,0:0:0:0:
0,108,95541,1,2,0:0:0:0:
0,108,95635,2,0,L|20:28,1,47.5,2|0,0:0|0:0,0:0:0:0:
104,20,95822,2,0,L|96:52,2,23.75,8|0|0,0:0|0:0|0:0,0:0:0:0:
168,136,96010,6,0,B|152:112|152:112|252:120,1,113.999996520996,2|0,0:0|0:0,0:0:0:0:
304,184,96291,2,0,L|348:172,2,28.4999991302491,2|0|0,0:0|0:0|0:0,0:0:0:0:
415,155,96572,6,0,P|417:188|408:220,1,66.4999979705811,4|0,0:0|0:0,0:0:0:0:
324,288,96760,5,8,0:0:0:0:
324,288,96853,1,0,0:0:0:0:
324,288,96947,2,0,L|272:272,1,47.5,2|0,0:0|0:0,0:0:0:0:
192,344,97135,1,8,0:0:0:0:
192,344,97228,2,0,L|148:296,1,47.5,0|2,0:0|0:0,0:0:0:0:
40,296,97416,2,0,L|72:196,1,95,2|2,0:0|0:0,0:0:0:0:
92,112,97697,2,0,P|48:116|36:124,1,47.5
160,176,97885,6,0,L|228:164,1,56.9999982604981,10|2,0:0|0:0,0:0:0:0:
276,88,98072,2,0,L|304:140,1,56.9999982604981
412,152,98260,2,0,L|364:216,1,56.9999982604981,10|2,0:0|0:0,0:0:0:0:
388,304,98447,2,0,L|336:280,1,56.9999982604981,10|0,0:0|0:0,0:0:0:0:
224,288,98635,6,0,L|244:264,6,28.4999991302491,4|0|0|0|0|0|0,0:0|0:0|0:0|0:0|0:0|0:0|0:0,0:0:0:0:
208,324,99010,6,0,P|168:292|104:292,1,106.875004076958,2|0,0:0|0:0,0:0:0:0:
32,196,99385,6,0,L|84:216,1,47.5,2|0,0:0|0:0,0:0:0:0:
168,136,99572,2,0,L|116:144,1,47.5,2|0,0:0|0:0,0:0:0:0:
20,56,99760,6,0,B|64:72|64:72|124:52,1,95,8|10,0:0|0:0,0:0:0:0:
196,60,100041,1,2,0:0:0:0:
232,36,100135,1,10,0:0:0:0:
280,32,100228,1,2,0:0:0:0:
312,44,100322,2,0,L|304:68,2,23.75,4|0|0,0:0|0:0|0:0,0:0:0:0:
356,132,100510,6,0,L|300:152,1,47.5,2|0,0:0|0:0,0:0:0:0:
416,68,100697,6,0,P|444:132|408:208,1,142.500005435944,8|2,0:0|0:0,0:0:0:0:
419,196,101166,1,0,0:0:0:0:
419,196,101260,2,0,L|464:192,1,35.625001358986,8|0,0:0|0:0,0:0:0:0:
512,292,101447,5,2,0:0:0:0:
474,273,101540,1,2,0:0:0:0:
435,270,101634,1,2,0:0:0:0:
396,279,101728,1,2,0:0:0:0:
365,302,101822,1,2,0:0:0:0:
342,336,101915,1,2,0:0:0:0:
331,372,102010,6,0,P|292:348|244:344,1,95,2|0,0:0|0:0,0:0:0:0:
136,344,102385,1,8,0:0:0:0:
48,248,102572,1,8,0:0:0:0:
48,248,102666,1,0,0:0:0:0:
48,248,102760,2,0,L|100:252,1,47.5,6|0,0:0|0:0,0:0:0:0:
228,196,102947,2,0,L|180:200,1,47.5,8|0,0:0|0:0,0:0:0:0:
76,132,103135,2,0,P|128:120|160:84,1,95,12|0,0:0|0:0,0:0:0:0:
256,44,103510,6,0,L|244:132,1,71.2500027179719,2|0,0:0|0:0,0:0:0:0:
400,56,103885,2,0,L|329:1,1,71.2500027179719,0|0,0:0|0:0,0:0:0:0:
296,192,104260,2,0,P|344:144|420:152,1,142.500005435944,4|0,0:0|0:0,0:0:0:0:
380,236,104822,1,0,0:0:0:0:
336,328,105010,6,0,B|388:344|428:320|428:320|424:348,1,106.875004076958,2|0,0:0|0:0,0:0:0:0:
426,331,105385,1,0,0:0:0:0:
256,352,105572,1,0,0:0:0:0:
256,352,105666,1,0,0:0:0:0:
256,352,105760,2,0,P|256:304|272:276,1,71.2500027179719,2|0,0:0|0:0,0:0:0:0:
232,132,106135,2,0,P|208:168|168:184,1,71.2500027179719,0|0,0:0|0:0,0:0:0:0:
44,192,106510,6,0,P|104:228|112:308,1,142.500005435944,4|0,0:0|0:0,0:0:0:0:
28,276,107072,1,0,0:0:0:0:
16,104,107260,2,0,P|80:108|128:132,1,106.875004076958,2|0,0:0|0:0,0:0:0:0:
118,125,107635,2,0,L|108:76,1,35.625001358986,0|0,0:0|0:0,0:0:0:0:
208,28,107822,2,0,L|204:72,1,35.625001358986,0|0,0:0|0:0,0:0:0:0:
204,180,108010,6,0,P|240:144|316:140,1,106.875004076958,4|0,0:0|0:0,0:0:0:0:
293,134,108385,1,0,0:0:0:0:
280,236,108572,1,0,0:0:0:0:
376,112,108760,1,2,0:0:0:0:
364,280,108947,1,0,0:0:0:0:
452,192,109135,2,0,L|368:196,1,71.2500027179719,2|0,0:0|0:0,0:0:0:0:
484,268,109510,6,0,P|528:220|480:116,1,190,2|0,0:0|0:0,0:0:0:0:
360,32,110072,2,0,L|376:88,1,47.5,2|0,0:0|0:0,0:0:0:0:
376,112,110260,2,0,P|320:76|272:76,1,95,0|0,0:0|0:0,0:0:0:0:
200,172,110635,2,0,L|312:156,1,95,8|8,0:0|0:0,0:0:0:0:
136,244,111010,5,2,0:0:0:0:
112,152,111197,1,8,0:0:0:0:
236,252,111385,1,0,0:0:0:0:
48,216,111572,1,8,0:0:0:0:
72,356,111760,2,0,L|188:336,1,95,10|0,0:0|0:0,0:0:0:0:
280,368,112135,1,10,0:0:0:0:
360,292,112322,1,0,0:0:0:0:
360,292,112416,1,0,0:0:0:0:
360,292,112510,6,0,P|407:257|483:348,1,190,2|0,0:0|0:0,0:0:0:0:
300,228,113072,2,0,P|348:188|364:180,1,47.5,2|0,0:0|0:0,0:0:0:0:
408,172,113260,2,0,P|344:148|324:88,1,95,0|0,0:0|0:0,0:0:0:0:
330,127,113541,1,0,0:0:0:0:
330,127,113635,1,10,0:0:0:0:
416,72,113822,1,8,0:0:0:0:
408,172,114010,5,2,0:0:0:0:
240,136,114197,2,0,P|248:88|256:72,1,47.5
264,48,114385,2,0,P|192:68|140:40,1,95,0|8,0:0|0:0,0:0:0:0:
174,63,114666,1,0,0:0:0:0:
174,63,114760,1,2,0:0:0:0:
24,124,114947,5,2,0:0:0:0:
56,116,115040,1,0,0:0:0:0:
88,122,115134,1,10,0:0:0:0:
116,141,115228,1,0,0:0:0:0:
135,168,115322,1,2,0:0:0:0:
141,200,115415,1,0,0:0:0:0:
136,236,115510,6,0,B|236:224|236:224|208:264,1,142.5,2|0,0:0|0:0,0:0:0:0:
212,258,115885,2,0,L|276:252,1,47.5,8|0,0:0|0:0,0:0:0:0:
320,324,116072,2,0,L|360:284,1,47.5,10|0,0:0|0:0,0:0:0:0:
460,312,116260,6,0,L|432:220,1,71.2500027179719,0|8,0:0|0:0,0:0:0:0:
368,172,116635,2,0,P|416:144|460:148,1,71.2500027179719,10|0,0:0|0:0,0:0:0:0:
430,142,116916,1,0,0:0:0:0:
430,142,117010,6,0,P|363:127|323:51,1,142.5,2|0,0:0|0:0,0:0:0:0:
204,28,117760,2,0,P|220:84|160:152,1,142.5,2|0,0:0|0:0,0:0:0:0:
240,248,118510,6,0,P|300:224|328:224,2,71.25,0|0|0,0:0|0:0|0:0,0:0:0:0:
172,304,119072,1,0,0:0:0:0:
172,304,119260,2,0,P|137:251|61:243,1,142.500005435944,2|0,0:0|0:0,0:0:0:0:
80,340,119822,1,0,0:0:0:0:
172,304,120010,6,0,L|144:216,1,71.2500027179719,2|0,0:0|0:0,0:0:0:0:
264,152,120385,2,0,L|260:224,1,71.2500027179719,0|0,0:0|0:0,0:0:0:0:
296,340,120760,2,0,P|344:312|384:304,1,71.2500027179719,2|0,0:0|0:0,0:0:0:0:
488,276,121135,2,0,P|432:260|404:228,1,71.2500027179719,0|0,0:0|0:0,0:0:0:0:
456,72,121510,6,0,P|508:76|480:192,1,213.750008153916,0|0,0:0|0:0,0:0:0:0:
340,124,122260,2,0,B|312:160|320:204|320:204|260:164|184:196,1,213.750008153916,2|0,0:0|0:0,0:0:0:0:
100,240,123010,6,0,P|84:188|96:148,1,71.2500027179719,2|0,0:0|0:0,0:0:0:0:
184,292,123385,2,0,P|144:332|108:336,1,71.2500027179719,0|0,0:0|0:0,0:0:0:0:
196,191,123760,2,0,P|252:216|272:248,1,71.2500027179719,2|0,0:0|0:0,0:0:0:0:
280,320,124135,1,0,0:0:0:0:
360,272,124322,1,0,0:0:0:0:
416,356,124510,6,0,P|456:308|396:184,1,213.750008153916,2|0,0:0|0:0,0:0:0:0:
256,160,125260,2,0,P|316:144|340:124,1,71.2500027179719,2|0,0:0|0:0,0:0:0:0:
472,104,125635,2,0,P|420:92|392:64,1,71.2500027179719,0|0,0:0|0:0,0:0:0:0:
215,49,126010,6,0,P|280:61|304:0,1,142.500005435944,2|0,0:0|0:0,0:0:0:0:
136,20,126572,1,0,0:0:0:0:
136,20,126760,2,0,P|132:72|144:108,1,71.2500027179719,2|2,0:0|0:0,0:0:0:0:
200,200,127135,2,0,P|152:188|104:196,1,71.2500027179719,0|0,0:0|0:0,0:0:0:0:
168,384,127510,6,0,P|204:332|92:360,1,285.000010871888,0|0,0:0|0:0,0:0:0:0:
256,192,128353,12,0,130135,0:0:0:0:
368,240,130510,5,4,0:0:0:0:
256,192,130885,1,0,0:0:0:0:
352,120,131260,1,0,0:0:0:0:
368,240,131635,1,0,0:0:0:0:
256,192,132010,2,0,L|156:204,1,95,2|2,0:0|0:0,0:0:0:0:
136,203,133510,5,2,0:0:0:0:
40,131,133885,1,0,0:0:0:0:
24,251,134260,1,0,0:0:0:0:
136,203,134635,1,0,0:0:0:0:
196,308,135010,2,0,P|264:284|292:288,1,95,0|2,0:0|0:0,0:0:0:0:
309,292,136135,1,2,0:0:0:0:
420,348,136510,6,0,L|392:252,1,95,2|2,0:0|0:0,0:0:0:0:
288,40,138010,2,0,L|312:136,1,95,2|2,0:0|0:0,0:0:0:0:
320,156,139510,6,0,P|280:140|272:140,1,47.5
192,208,140260,2,0,P|192:244|200:264,1,47.5
324,280,141010,2,0,L|332:272,1,7.91666666666667
