osu file format v14

[General]
AudioFilename: audio.mp3
AudioLeadIn: 0
PreviewTime: 43510
Countdown: 0
SampleSet: Soft
StackLeniency: 0.5
Mode: 0
LetterboxInBreaks: 0
EpilepsyWarning: 1
WidescreenStoryboard: 1

[Editor]
DistanceSpacing: 1.5
BeatDivisor: 4
GridSize: 4
TimelineZoom: 1

[Metadata]
Title:Myosotis (feat. Guriri & Lucy)
TitleUnicode:Myosotis (feat. Guriri & Lucy)
Artist:M2U & NICODE
ArtistUnicode:M2U & NICODE
Creator:Akareh
Version:Hard
Source:Deemo
Tags:mobile song collection vol. 2 rayark cytus M2UStudio _FlameL MaridiuS Mykaterasu Ayyri
BeatmapID:1377150
BeatmapSetID:643513

[Difficulty]
HPDrainRate:5
CircleSize:4
OverallDifficulty:6
ApproachRate:7.5
SliderMultiplier:1.2
SliderTickRate:1

[Events]
//Background and Video events
0,0,"bg.jpg",0,0
//Break Periods
//Storyboard Layer 0 (Background)
//Storyboard Layer 1 (Fail)
//Storyboard Layer 2 (Pass)
//Storyboard Layer 3 (Foreground)
Sprite,Foreground,BottomCentre,"sb\pl.png",0,0 C,0,79885,,255,0,0 M,0,79885,79931,292,404,304.8648,396.3464 R,2,79885,80260,2.268928,5.410521 V,2,79885,80260,15,1,15,0 M,0,79931,79978,304.8648,396.3464,318.5135,390.2509 M,0,79978,80025,318.5135,390.2509,332.8671,386.0656 M,0,80025,80072,332.8671,386.0656,347.6613,383.8692
Sprite,Foreground,BottomCentre,"sb\pl.png",0,0 C,0,79885,,255,0,0 M,0,79885,79931,292,404,304.8648,396.3464 R,2,79885,80260,5.410521,8.552114 V,2,79885,80260,15,1,15,0 P,0,79885,80260,A M,0,79931,79978,304.8648,396.3464,318.5135,390.2509 M,0,79978,80025,318.5135,390.2509,332.8671,386.0656 M,0,80025,80072,332.8671,386.0656,347.6613,383.8692
Sprite,Foreground,BottomCentre,"sb\pl.png",0,0 C,0,80260,,255,0,0 M,0,80260,80306,488,344,473.0289,344.2112 R,2,80260,80635,2.565634,5.707227 V,2,80260,80635,15,1,15,0 M,0,80306,80353,473.0289,344.2112,458.135,342.8571 M,0,80353,80400,458.135,342.8571,443.5164,339.6674 M,0,80400,80447,443.5164,339.6674,429.3953,334.688
Sprite,Foreground,BottomCentre,"sb\pl.png",0,0 C,0,80260,,255,0,0 M,0,80260,80306,488,344,473.0289,344.2112 R,2,80260,80635,5.707227,8.848819 V,2,80260,80635,15,1,15,0 P,0,80260,80635,A M,0,80306,80353,473.0289,344.2112,458.135,342.8571 M,0,80353,80400,458.135,342.8571,443.5164,339.6674 M,0,80400,80447,443.5164,339.6674,429.3953,334.688
Sprite,Foreground,BottomCentre,"sb\pl.png",0,0 C,0,80635,,255,0,0 M,0,80635,80681,344,248,346.466,262.7959 R,2,80635,81010,2.408554,5.550147 V,2,80635,81010,15,1,15,0 M,0,80681,80728,346.466,262.7959,348.932,277.5918 M,0,80728,80775,348.932,277.5918,346.466,262.7959 M,0,80775,80822,346.466,262.7959,344,248
Sprite,Foreground,BottomCentre,"sb\pl.png",0,0 C,0,80635,,255,0,0 M,0,80635,80681,344,248,346.466,262.7959 R,2,80635,81010,5.550147,8.69174 V,2,80635,81010,15,1,15,0 P,0,80635,81010,A M,0,80681,80728,346.466,262.7959,348.932,277.5918 M,0,80728,80775,348.932,277.5918,346.466,262.7959 M,0,80775,80822,346.466,262.7959,344,248
Sprite,Foreground,BottomCentre,"sb\pl.png",348,172 C,0,85885,,255,0,0 R,2,85885,86260,1.745329,4.886922 V,2,85885,86260,15,1,15,0
Sprite,Foreground,BottomCentre,"sb\pl.png",348,172 C,0,85885,,255,0,0 R,2,85885,86260,4.886922,8.028515 V,2,85885,86260,15,1,15,0 P,0,85885,86260,A
Sprite,Foreground,BottomCentre,"sb\pl.png",0,0 C,0,86260,,255,0,0 M,0,86260,86306,268,104,254.3806,110.2859 R,2,86260,86635,0.6457718,3.787364 V,2,86260,86635,15,1,15,0 M,0,86306,86353,254.3806,110.2859,240.7612,116.5717 M,0,86353,86400,240.7612,116.5717,254.3806,110.2859 M,0,86400,86447,254.3806,110.2859,268,104
Sprite,Foreground,BottomCentre,"sb\pl.png",0,0 C,0,86260,,255,0,0 M,0,86260,86306,268,104,254.3806,110.2859 R,2,86260,86635,3.787364,6.928957 V,2,86260,86635,15,1,15,0 P,0,86260,86635,A M,0,86306,86353,254.3806,110.2859,240.7612,116.5717 M,0,86353,86400,240.7612,116.5717,254.3806,110.2859 M,0,86400,86447,254.3806,110.2859,268,104
Sprite,Foreground,BottomCentre,"sb\pl.png",0,0 C,0,86635,,255,0,0 M,0,86635,86681,160,168,162.9128,153.4092 R,2,86635,87010,1.745329,4.886922 V,2,86635,87010,15,1,15,0 M,0,86681,86728,162.9128,153.4092,162.6469,138.6037 M,0,86728,86775,162.6469,138.6037,158.6178,124.3088 M,0,86775,86822,158.6178,124.3088,151.0536,111.4515
Sprite,Foreground,BottomCentre,"sb\pl.png",0,0 C,0,86635,,255,0,0 M,0,86635,86681,160,168,162.9128,153.4092 R,2,86635,87010,4.886922,8.028515 V,2,86635,87010,15,1,15,0 P,0,86635,87010,A M,0,86681,86728,162.9128,153.4092,162.6469,138.6037 M,0,86728,86775,162.6469,138.6037,158.6178,124.3088 M,0,86775,86822,158.6178,124.3088,151.0536,111.4515
Sprite,Foreground,BottomCentre,"sb\pl.png",0,0 C,0,91885,,255,0,0 M,0,91885,91931,248,272,233.1158,270.1395 R,2,91885,92260,2.844887,5.986479 V,2,91885,92260,15,1,15,0 M,0,91931,91978,233.1158,270.1395,218.2317,268.279 M,0,91978,92025,218.2317,268.279,203.3475,266.4185 M,0,92025,92072,203.3475,266.4185,188.4633,264.5579
Sprite,Foreground,BottomCentre,"sb\pl.png",0,0 C,0,91885,,255,0,0 M,0,91885,91931,248,272,233.1158,270.1395 R,2,91885,92260,5.986479,9.128072 V,2,91885,92260,15,1,15,0 P,0,91885,92260,A M,0,91931,91978,233.1158,270.1395,218.2317,268.279 M,0,91978,92025,218.2317,268.279,203.3475,266.4185 M,0,92025,92072,203.3475,266.4185,188.4633,264.5579
Sprite,Foreground,BottomCentre,"sb\pl.png",228,384 C,0,92260,,255,0,0 R,2,92260,92635,1.37881,4.520403 V,2,92260,92635,15,1,15,0
Sprite,Foreground,BottomCentre,"sb\pl.png",228,384 C,0,92260,,255,0,0 R,2,92260,92635,4.520403,7.661995 V,2,92260,92635,15,1,15,0 P,0,92260,92635,A
Sprite,Foreground,BottomCentre,"sb\pl.png",0,0 C,0,92635,,255,0,0 M,0,92635,92681,356,332,341.1744,329.7191 R,2,92635,93010,3.054326,6.195919 V,2,92635,93010,15,1,15,0 M,0,92681,92728,341.1744,329.7191,326.3488,327.4383 M,0,92728,92775,326.3488,327.4383,341.1744,329.7191 M,0,92775,92822,341.1744,329.7191,356,332
Sprite,Foreground,BottomCentre,"sb\pl.png",0,0 C,0,92635,,255,0,0 M,0,92635,92681,356,332,341.1744,329.7191 R,2,92635,93010,6.195919,9.337511 V,2,92635,93010,15,1,15,0 P,0,92635,93010,A M,0,92681,92728,341.1744,329.7191,326.3488,327.4383 M,0,92728,92775,326.3488,327.4383,341.1744,329.7191 M,0,92775,92822,341.1744,329.7191,356,332
Sprite,Foreground,BottomCentre,"sb\pl.png",0,0 C,0,97885,,255,0,0 M,0,97885,97931,372,188,386.5921,184.5257 R,2,97885,98260,0.8552113,3.996804 V,2,97885,98260,15,1,15,0 M,0,97931,97978,386.5921,184.5257,401.1842,181.0514 M,0,97978,98025,401.1842,181.0514,415.7763,177.5771 M,0,98025,98072,415.7763,177.5771,430.3684,174.1028
Sprite,Foreground,BottomCentre,"sb\pl.png",0,0 C,0,97885,,255,0,0 M,0,97885,97931,372,188,386.5921,184.5257 R,2,97885,98260,3.996804,7.138397 V,2,97885,98260,15,1,15,0 P,0,97885,98260,A M,0,97931,97978,386.5921,184.5257,401.1842,181.0514 M,0,97978,98025,401.1842,181.0514,415.7763,177.5771 M,0,98025,98072,415.7763,177.5771,430.3684,174.1028
Sprite,Foreground,BottomCentre,"sb\pl.png",520,148 C,0,98260,,255,0,0 R,2,98260,98635,0.9075712,4.049164 V,2,98260,98635,15,1,15,0
Sprite,Foreground,BottomCentre,"sb\pl.png",520,148 C,0,98260,,255,0,0 R,2,98260,98635,4.049164,7.190756 V,2,98260,98635,15,1,15,0 P,0,98260,98635,A
Sprite,Foreground,BottomCentre,"sb\pl.png",0,0 C,0,98635,,255,0,0 M,0,98635,98681,488,268,488,253 R,2,98635,99010,1.466077,4.607669 V,2,98635,99010,15,1,15,0 M,0,98681,98728,488,253,488,238 M,0,98728,98775,488,238,488,253 M,0,98775,98822,488,253,488,268
Sprite,Foreground,BottomCentre,"sb\pl.png",0,0 C,0,98635,,255,0,0 M,0,98635,98681,488,268,488,253 R,2,98635,99010,4.607669,7.749262 V,2,98635,99010,15,1,15,0 P,0,98635,99010,A M,0,98681,98728,488,253,488,238 M,0,98728,98775,488,238,488,253 M,0,98775,98822,488,253,488,268
Sprite,Foreground,BottomCentre,"sb\monstrata.png",0,0 C,0,80635,,255,0,0 M,0,80635,80681,344,248,346.466,262.7959 F,1,80635,81010,0.8,0 S,2,80635,81010,0.5,0 R,2,80635,81010,1.972222,5.113815 P,0,80635,81010,A M,0,80681,80728,346.466,262.7959,348.932,277.5918 M,0,80728,80775,348.932,277.5918,346.466,262.7959 M,0,80775,80822,346.466,262.7959,344,248
Sprite,Foreground,BottomCentre,"sb\monstrata.png",0,0 C,0,80635,,255,0,0 M,0,80635,80681,344,248,346.466,262.7959 F,1,80635,81010,0.8,0 S,2,80635,81010,0.5,0 R,2,80635,81010,5.113815,8.255407 P,0,80635,81010,A M,0,80681,80728,346.466,262.7959,348.932,277.5918 M,0,80728,80775,348.932,277.5918,346.466,262.7959 M,0,80775,80822,346.466,262.7959,344,248
Sprite,Foreground,BottomCentre,"sb\monstrata.png",0,0 C,0,80635,,255,0,0 M,0,80635,80681,344,248,346.466,262.7959 F,1,80635,81010,0.8,0 S,2,80635,81010,0.5,0 R,2,80635,81010,3.543018,6.684611 P,0,80635,81010,A M,0,80681,80728,346.466,262.7959,348.932,277.5918 M,0,80728,80775,348.932,277.5918,346.466,262.7959 M,0,80775,80822,346.466,262.7959,344,248
Sprite,Foreground,BottomCentre,"sb\monstrata.png",0,0 C,0,80635,,255,0,0 M,0,80635,80681,344,248,346.466,262.7959 F,1,80635,81010,0.8,0 S,2,80635,81010,0.5,0 R,2,80635,81010,0.4014257,3.543018 P,0,80635,81010,A M,0,80681,80728,346.466,262.7959,348.932,277.5918 M,0,80728,80775,348.932,277.5918,346.466,262.7959 M,0,80775,80822,346.466,262.7959,344,248
Sprite,Foreground,BottomCentre,"sb\monstrata.png",0,0 C,0,86635,,255,0,0 M,0,86635,86681,160,168,162.9128,153.4092 F,1,86635,87010,0.8,0 S,2,86635,87010,0.5,0 R,2,86635,87010,3.071779,6.213372 P,0,86635,87010,A M,0,86681,86728,162.9128,153.4092,162.6469,138.6037 M,0,86728,86775,162.6469,138.6037,158.6178,124.3088 M,0,86775,86822,158.6178,124.3088,151.0536,111.4515
Sprite,Foreground,BottomCentre,"sb\monstrata.png",0,0 C,0,86635,,255,0,0 M,0,86635,86681,160,168,162.9128,153.4092 F,1,86635,87010,0.8,0 S,2,86635,87010,0.5,0 R,2,86635,87010,6.213372,9.354964 P,0,86635,87010,A M,0,86681,86728,162.9128,153.4092,162.6469,138.6037 M,0,86728,86775,162.6469,138.6037,158.6178,124.3088 M,0,86775,86822,158.6178,124.3088,151.0536,111.4515
Sprite,Foreground,BottomCentre,"sb\monstrata.png",0,0 C,0,86635,,255,0,0 M,0,86635,86681,160,168,162.9128,153.4092 F,1,86635,87010,0.8,0 S,2,86635,87010,0.5,0 R,2,86635,87010,4.642576,7.784168 P,0,86635,87010,A M,0,86681,86728,162.9128,153.4092,162.6469,138.6037 M,0,86728,86775,162.6469,138.6037,158.6178,124.3088 M,0,86775,86822,158.6178,124.3088,151.0536,111.4515
Sprite,Foreground,BottomCentre,"sb\monstrata.png",0,0 C,0,86635,,255,0,0 M,0,86635,86681,160,168,162.9128,153.4092 F,1,86635,87010,0.8,0 S,2,86635,87010,0.5,0 R,2,86635,87010,1.500983,4.642576 P,0,86635,87010,A M,0,86681,86728,162.9128,153.4092,162.6469,138.6037 M,0,86728,86775,162.6469,138.6037,158.6178,124.3088 M,0,86775,86822,158.6178,124.3088,151.0536,111.4515
Sprite,Foreground,BottomCentre,"sb\monstrata.png",0,0 C,0,90385,,255,0,0 M,0,90385,90431,320,80,321.0687,94.96188 F,1,90385,90760,0.8,0 S,2,90385,90760,0.5,0 R,2,90385,90760,0.08726646,3.228859 P,0,90385,90760,A M,0,90431,90478,321.0687,94.96188,322.1374,109.9238 M,0,90478,90525,322.1374,109.9238,323.2061,124.8856 M,0,90525,90572,323.2061,124.8856,324.2748,139.8475 M,0,90572,90619,324.2748,139.8475,325.3435,154.8094 M,0,90619,90666,325.3435,154.8094,326.4122,169.7713
Sprite,Foreground,BottomCentre,"sb\monstrata.png",0,0 C,0,90385,,255,0,0 M,0,90385,90431,320,80,321.0687,94.96188 F,1,90385,90760,0.8,0 S,2,90385,90760,0.5,0 R,2,90385,90760,3.228859,6.370452 P,0,90385,90760,A M,0,90431,90478,321.0687,94.96188,322.1374,109.9238 M,0,90478,90525,322.1374,109.9238,323.2061,124.8856 M,0,90525,90572,323.2061,124.8856,324.2748,139.8475 M,0,90572,90619,324.2748,139.8475,325.3435,154.8094 M,0,90619,90666,325.3435,154.8094,326.4122,169.7713
Sprite,Foreground,BottomCentre,"sb\monstrata.png",0,0 C,0,90385,,255,0,0 M,0,90385,90431,320,80,321.0687,94.96188 F,1,90385,90760,0.8,0 S,2,90385,90760,0.5,0 R,2,90385,90760,1.658063,4.799655 P,0,90385,90760,A M,0,90431,90478,321.0687,94.96188,322.1374,109.9238 M,0,90478,90525,322.1374,109.9238,323.2061,124.8856 M,0,90525,90572,323.2061,124.8856,324.2748,139.8475 M,0,90572,90619,324.2748,139.8475,325.3435,154.8094 M,0,90619,90666,325.3435,154.8094,326.4122,169.7713
Sprite,Foreground,BottomCentre,"sb\monstrata.png",0,0 C,0,90385,,255,0,0 M,0,90385,90431,320,80,321.0687,94.96188 F,1,90385,90760,0.8,0 S,2,90385,90760,0.5,0 R,2,90385,90760,-1.48353,1.658063 P,0,90385,90760,A M,0,90431,90478,321.0687,94.96188,322.1374,109.9238 M,0,90478,90525,322.1374,109.9238,323.2061,124.8856 M,0,90525,90572,323.2061,124.8856,324.2748,139.8475 M,0,90572,90619,324.2748,139.8475,325.3435,154.8094 M,0,90619,90666,325.3435,154.8094,326.4122,169.7713
Sprite,Foreground,BottomCentre,"sb\monstrata.png",0,0 C,0,92635,,255,0,0 M,0,92635,92681,356,332,341.1744,329.7191 F,1,92635,93010,0.8,0 S,2,92635,93010,0.5,0 R,2,92635,93010,2.70526,5.846853 P,0,92635,93010,A M,0,92681,92728,341.1744,329.7191,326.3488,327.4383 M,0,92728,92775,326.3488,327.4383,341.1744,329.7191 M,0,92775,92822,341.1744,329.7191,356,332
Sprite,Foreground,BottomCentre,"sb\monstrata.png",0,0 C,0,92635,,255,0,0 M,0,92635,92681,356,332,341.1744,329.7191 F,1,92635,93010,0.8,0 S,2,92635,93010,0.5,0 R,2,92635,93010,5.846853,8.988445 P,0,92635,93010,A M,0,92681,92728,341.1744,329.7191,326.3488,327.4383 M,0,92728,92775,326.3488,327.4383,341.1744,329.7191 M,0,92775,92822,341.1744,329.7191,356,332
Sprite,Foreground,BottomCentre,"sb\monstrata.png",0,0 C,0,92635,,255,0,0 M,0,92635,92681,356,332,341.1744,329.7191 F,1,92635,93010,0.8,0 S,2,92635,93010,0.5,0 R,2,92635,93010,4.276057,7.417649 P,0,92635,93010,A M,0,92681,92728,341.1744,329.7191,326.3488,327.4383 M,0,92728,92775,326.3488,327.4383,341.1744,329.7191 M,0,92775,92822,341.1744,329.7191,356,332
Sprite,Foreground,BottomCentre,"sb\monstrata.png",0,0 C,0,92635,,255,0,0 M,0,92635,92681,356,332,341.1744,329.7191 F,1,92635,93010,0.8,0 S,2,92635,93010,0.5,0 R,2,92635,93010,1.134464,4.276057 P,0,92635,93010,A M,0,92681,92728,341.1744,329.7191,326.3488,327.4383 M,0,92728,92775,326.3488,327.4383,341.1744,329.7191 M,0,92775,92822,341.1744,329.7191,356,332
Sprite,Foreground,BottomCentre,"sb\monstrata.png",0,0 C,0,98635,,255,0,0 M,0,98635,98681,488,268,488,253 F,1,98635,99010,0.8,0 S,2,98635,99010,0.5,0 R,2,98635,99010,2.111848,5.253441 P,0,98635,99010,A M,0,98681,98728,488,253,488,238 M,0,98728,98775,488,238,488,253 M,0,98775,98822,488,253,488,268
Sprite,Foreground,BottomCentre,"sb\monstrata.png",0,0 C,0,98635,,255,0,0 M,0,98635,98681,488,268,488,253 F,1,98635,99010,0.8,0 S,2,98635,99010,0.5,0 R,2,98635,99010,5.253441,8.395034 P,0,98635,99010,A M,0,98681,98728,488,253,488,238 M,0,98728,98775,488,238,488,253 M,0,98775,98822,488,253,488,268
Sprite,Foreground,BottomCentre,"sb\monstrata.png",0,0 C,0,98635,,255,0,0 M,0,98635,98681,488,268,488,253 F,1,98635,99010,0.8,0 S,2,98635,99010,0.5,0 R,2,98635,99010,3.682645,6.824237 P,0,98635,99010,A M,0,98681,98728,488,253,488,238 M,0,98728,98775,488,238,488,253 M,0,98775,98822,488,253,488,268
Sprite,Foreground,BottomCentre,"sb\monstrata.png",0,0 C,0,98635,,255,0,0 M,0,98635,98681,488,268,488,253 F,1,98635,99010,0.8,0 S,2,98635,99010,0.5,0 R,2,98635,99010,0.541052,3.682645 P,0,98635,99010,A M,0,98681,98728,488,253,488,238 M,0,98728,98775,488,238,488,253 M,0,98775,98822,488,253,488,268
Sprite,Foreground,BottomCentre,"sb\monstrata.png",0,0 C,0,99572,,255,0,0 M,0,99572,99618,323,420,325.172,405.1581 F,1,99572,99759,0.8,0 S,2,99572,99759,0.5,0 R,2,99572,99759,2.565634,5.707227 P,0,99572,99759,A M,0,99618,99665,325.172,405.1581,327.344,390.3162 M,0,99665,99712,327.344,390.3162,329.516,375.4742 M,0,99712,99759,329.516,375.4742,331.688,360.6323
Sprite,Foreground,BottomCentre,"sb\monstrata.png",0,0 C,0,99572,,255,0,0 M,0,99572,99618,323,420,325.172,405.1581 F,1,99572,99759,0.8,0 S,2,99572,99759,0.5,0 R,2,99572,99759,5.707227,8.848819 P,0,99572,99759,A M,0,99618,99665,325.172,405.1581,327.344,390.3162 M,0,99665,99712,327.344,390.3162,329.516,375.4742 M,0,99712,99759,329.516,375.4742,331.688,360.6323
Sprite,Foreground,BottomCentre,"sb\monstrata.png",0,0 C,0,99572,,255,0,0 M,0,99572,99618,323,420,325.172,405.1581 F,1,99572,99759,0.8,0 S,2,99572,99759,0.5,0 R,2,99572,99759,4.13643,7.278023 P,0,99572,99759,A M,0,99618,99665,325.172,405.1581,327.344,390.3162 M,0,99665,99712,327.344,390.3162,329.516,375.4742 M,0,99712,99759,329.516,375.4742,331.688,360.6323
Sprite,Foreground,BottomCentre,"sb\monstrata.png",0,0 C,0,99572,,255,0,0 M,0,99572,99618,323,420,325.172,405.1581 F,1,99572,99759,0.8,0 S,2,99572,99759,0.5,0 R,2,99572,99759,0.9948376,4.13643 P,0,99572,99759,A M,0,99618,99665,325.172,405.1581,327.344,390.3162 M,0,99665,99712,327.344,390.3162,329.516,375.4742 M,0,99712,99759,329.516,375.4742,331.688,360.6323
Sprite,Foreground,BottomCentre,"sb\monstrata.png",348,264 C,0,99947,,255,0,0 F,1,99947,100322,0.8,0 S,2,99947,100322,0.5,0 R,2,99947,100322,2.6529,5.794493 P,0,99947,100322,A
Sprite,Foreground,BottomCentre,"sb\monstrata.png",348,264 C,0,99947,,255,0,0 F,1,99947,100322,0.8,0 S,2,99947,100322,0.5,0 R,2,99947,100322,5.794493,8.936086 P,0,99947,100322,A
Sprite,Foreground,BottomCentre,"sb\monstrata.png",348,264 C,0,99947,,255,0,0 F,1,99947,100322,0.8,0 S,2,99947,100322,0.5,0 R,2,99947,100322,4.223697,7.365289 P,0,99947,100322,A
Sprite,Foreground,BottomCentre,"sb\monstrata.png",348,264 C,0,99947,,255,0,0 F,1,99947,100322,0.8,0 S,2,99947,100322,0.5,0 R,2,99947,100322,1.082104,4.223697 P,0,99947,100322,A
Sprite,Foreground,BottomCentre,"sb\monstrata.png",0,0 C,0,100322,,255,0,0 M,0,100322,100368,232,324,217.2419,326.6833 F,1,100322,100509,0.8,0 S,2,100322,100509,0.5,0 R,2,100322,100509,3.106686,6.248279 P,0,100322,100509,A M,0,100368,100415,217.2419,326.6833,202.4839,329.3666
Sprite,Foreground,BottomCentre,"sb\monstrata.png",0,0 C,0,100322,,255,0,0 M,0,100322,100368,232,324,217.2419,326.6833 F,1,100322,100509,0.8,0 S,2,100322,100509,0.5,0 R,2,100322,100509,6.248279,9.389872 P,0,100322,100509,A M,0,100368,100415,217.2419,326.6833,202.4839,329.3666
Sprite,Foreground,BottomCentre,"sb\monstrata.png",0,0 C,0,100322,,255,0,0 M,0,100322,100368,232,324,217.2419,326.6833 F,1,100322,100509,0.8,0 S,2,100322,100509,0.5,0 R,2,100322,100509,4.677482,7.819075 P,0,100322,100509,A M,0,100368,100415,217.2419,326.6833,202.4839,329.3666
Sprite,Foreground,BottomCentre,"sb\monstrata.png",0,0 C,0,100322,,255,0,0 M,0,100322,100368,232,324,217.2419,326.6833 F,1,100322,100509,0.8,0 S,2,100322,100509,0.5,0 R,2,100322,100509,1.53589,4.677482 P,0,100322,100509,A M,0,100368,100415,217.2419,326.6833,202.4839,329.3666
Sprite,Foreground,Centre,"sb\1\0041.png",0,307.15 F,2,133310,133510,0,1 MX,0,133310,136510,334.1,374.1 S,0,133510,,0.7 F,1,135710,136510,1,0
Sprite,Foreground,Centre,"sb\1\006b.png",0,306.45 F,2,133310,133510,0,1 MX,0,133310,136510,348.45,388.45 S,0,133510,,0.7 F,1,135710,136510,1,0
Sprite,Foreground,Centre,"sb\1\0061.png",0,309.95 F,2,133310,133510,0,1 MX,0,133310,136510,358.95,398.95 S,0,133510,,0.7 F,1,135710,136510,1,0
Sprite,Foreground,Centre,"sb\1\0072.png",0,310.65 F,2,133310,133510,0,1 MX,0,133310,136510,370.5,410.5 S,0,133510,,0.7 F,1,135710,136510,1,0
Sprite,Foreground,Centre,"sb\1\0065.png",0,310.3 F,2,133310,133510,0,1 MX,0,133310,136510,378.55,418.55 S,0,133510,,0.7 F,1,135710,136510,1,0
Sprite,Foreground,Centre,"sb\1\0068.png",0,304.7 F,2,133310,133510,0,1 MX,0,133310,136510,388.7,428.7 S,0,133510,,0.7 F,1,135710,136510,1,0
Sprite,Foreground,Centre,"sb\mango1.png",0,0 R,0,78760,,1.012291 R,0,78760,,0.9075712 C,0,78760,,255,0,0 M,0,78760,78806,302,253,292.9955,241.1521 F,2,78760,79335,1,0 S,2,78760,79335,1,0.2 P,0,78760,79335,A R,0,78806,,1.012291 M,0,78806,78853,292.9955,241.1521,281.5849,231.7288 R,0,78853,,1.012291 M,0,78853,78900,281.5849,231.7288,268.0687,225.6741 R,0,78900,,1.012291 M,0,78900,78947,268.0687,225.6741,253.4117,223.4295 R,0,78947,,1.012291 M,0,78947,78994,253.4117,223.4295,238.6625,225.1671 R,0,78994,,1.012291 M,0,78994,79041,238.6625,225.1671,224.8803,230.7773 R,0,79041,,1.012291 M,0,79041,79088,224.8803,230.7773,213.0607,239.8745 R,0,79088,,1.012291 M,0,79088,79135,213.0607,239.8745,204.1022,251.8404
Sprite,Foreground,Centre,"sb\mango1.png",180,356 R,0,79322,,0.9599311 C,0,79322,,255,0,0 F,2,79322,79522,1,0 S,2,79322,79522,1,0.2 P,0,79322,79522,A
Sprite,Foreground,Centre,"sb\mango1.png",172,348 R,0,79416,,0.6981317 C,0,79416,,255,0,0 F,2,79416,79616,1,0 S,2,79416,79616,1,0.2 P,0,79416,79616,A
Sprite,Foreground,Centre,"sb\mango1.png",0,0 R,0,79510,,0.6981317 R,0,79510,,0.2443461 C,0,79510,,255,0,0 M,0,79510,79556,164,340,178.6889,343.0391 F,2,79510,79897,1,0 S,2,79510,79897,1,0.2 P,0,79510,79897,A R,0,79556,,0.6981317 M,0,79556,79603,178.6889,343.0391,193.3778,346.0782 R,0,79603,,0.6981317 M,0,79603,79650,193.3778,346.0782,208.0667,349.1172 R,0,79650,,0.6981317 M,0,79650,79697,208.0667,349.1172,222,352
Sprite,Foreground,Centre,"sb\mango1.png",0,0 R,0,79885,,0.541052 R,0,79885,,1.134464 C,0,79885,,255,0,0 M,0,79885,79931,292,404,304.8648,396.3464 F,2,79885,80272,1,0 S,2,79885,80272,1,0.2 P,0,79885,80272,A R,0,79931,,0.541052 M,0,79931,79978,304.8648,396.3464,318.5135,390.2509 R,0,79978,,0.541052 M,0,79978,80025,318.5135,390.2509,332.8671,386.0656 R,0,80025,,0.541052 M,0,80025,80072,332.8671,386.0656,347.6613,383.8692
Sprite,Foreground,Centre,"sb\mango1.png",0,0 R,0,80260,,0.3316126 R,0,80260,,1.22173 C,0,80260,,255,0,0 M,0,80260,80306,488,344,473.0289,344.2112 F,2,80260,80647,1,0 S,2,80260,80647,1,0.2 P,0,80260,80647,A R,0,80306,,0.3316126 M,0,80306,80353,473.0289,344.2112,458.135,342.8571 R,0,80353,,0.3316126 M,0,80353,80400,458.135,342.8571,443.5164,339.6674 R,0,80400,,0.3316126 M,0,80400,80447,443.5164,339.6674,429.3953,334.688
Sprite,Foreground,Centre,"sb\mango1.png",0,0 R,0,80635,,0.5759587 R,0,80635,,0.3665192 C,0,80635,,255,0,0 M,0,80635,80681,344,248,346.466,262.7959 F,2,80635,81022,1,0 S,2,80635,81022,1,0.2 P,0,80635,81022,A R,0,80681,,0.5759587 M,0,80681,80728,346.466,262.7959,348.932,277.5918 R,0,80728,,0.5759587 M,0,80728,80775,348.932,277.5918,346.466,262.7959 R,0,80775,,0.5759587 M,0,80775,80822,346.466,262.7959,344,248
Sprite,Foreground,Centre,"sb\mango1.png",0,0 R,0,81010,,0.5759587 R,0,81010,,0.7853982 C,0,81010,,255,0,0 M,0,81010,81056,468,256,469.1081,241.041 F,2,81010,81491,1,0 S,2,81010,81491,1,0.2 P,0,81010,81491,A R,0,81056,,0.5759587 M,0,81056,81103,469.1081,241.041,470.2162,226.082 R,0,81103,,0.5759587 M,0,81103,81150,470.2162,226.082,471.3242,211.123 R,0,81150,,0.5759587 M,0,81150,81197,471.3242,211.123,472.4323,196.1639 R,0,81197,,0.5759587 M,0,81197,81244,472.4323,196.1639,473.5404,181.2049 R,0,81244,,0.5759587 M,0,81244,81291,473.5404,181.2049,474.6484,166.2459
Sprite,Foreground,Centre,"sb\mango1.png",0,0 R,0,81385,,0.03490658 R,0,81385,,1.22173 C,0,81385,,255,0,0 M,0,81385,81431,504,132,491.8364,140.6747 F,2,81385,81960,1,0 S,2,81385,81960,1,0.2 P,0,81385,81960,A R,0,81431,,0.03490658 M,0,81431,81478,491.8364,140.6747,478.4764,147.27 R,0,81478,,0.03490658 M,0,81478,81525,478.4764,147.27,464.1078,151.2437 R,0,81525,,0.03490658 M,0,81525,81572,464.1078,151.2437,449.2361,152.4513 R,0,81572,,0.03490658 M,0,81572,81619,449.2361,152.4513,434.385,150.8443 R,0,81619,,0.03490658 M,0,81619,81666,434.385,150.8443,420.0793,146.4716 R,0,81666,,0.03490658 M,0,81666,81713,420.0793,146.4716,407.0921,139.091 R,0,81713,,0.03490658 M,0,81713,81760,407.0921,139.091,395.5345,129.6932
Sprite,Foreground,Centre,"sb\mango1.png",0,0 R,0,81947,,1.239184 R,0,81947,,1.082104 C,0,81947,,255,0,0 M,0,81947,81993,312,80,307.2566,94.23025 F,2,81947,82334,1,0 S,2,81947,82334,1,0.2 P,0,81947,82334,A R,0,81993,,1.239184 M,0,81993,82040,307.2566,94.23025,302.5132,108.4605 R,0,82040,,1.239184 M,0,82040,82087,302.5132,108.4605,307.2566,94.23025 R,0,82087,,1.239184 M,0,82087,82134,307.2566,94.23025,312,80
Sprite,Foreground,Centre,"sb\mango1.png",0,0 R,0,82322,,0.3839724 R,0,82322,,0.8377581 C,0,82322,,255,0,0 M,0,82322,82368,208,120,211.8174,134.5061 F,2,82322,82709,1,0 S,2,82322,82709,1,0.2 P,0,82322,82709,A R,0,82368,,0.3839724 M,0,82368,82415,211.8174,134.5061,215.6348,149.0122 R,0,82415,,0.3839724 M,0,82415,82462,215.6348,149.0122,219.4522,163.5184 R,0,82462,,0.3839724 M,0,82462,82509,219.4522,163.5184,223.2696,178.0245
Sprite,Foreground,Centre,"sb\mango1.png",292,244 R,0,82697,,1.012291 C,0,82697,,255,0,0 F,2,82697,82897,1,0 S,2,82697,82897,1,0.2 P,0,82697,82897,A
Sprite,Foreground,Centre,"sb\mango1.png",172,264 R,0,82885,,1.064651 C,0,82885,,255,0,0 F,2,82885,83085,1,0 S,2,82885,83085,1,0.2 P,0,82885,83085,A
Sprite,Foreground,Centre,"sb\mango1.png",244,360 R,0,83072,,1.239184 C,0,83072,,255,0,0 F,2,83072,83272,1,0 S,2,83072,83272,1,0.2 P,0,83072,83272,A
Sprite,Foreground,Centre,"sb\mango1.png",244,360 R,0,83166,,0.03490658 C,0,83166,,255,0,0 F,2,83166,83366,1,0 S,2,83166,83366,1,0.2 P,0,83166,83366,A
Sprite,Foreground,Centre,"sb\mango1.png",0,0 R,0,83260,,0.6457718 R,0,83260,,0.8726646 C,0,83260,,255,0,0 M,0,83260,83306,244,360,258.9083,358.3435 F,2,83260,83647,1,0 S,2,83260,83647,1,0.2 P,0,83260,83647,A R,0,83306,,0.6457718 M,0,83306,83353,258.9083,358.3435,273.8165,356.687 R,0,83353,,0.6457718 M,0,83353,83400,273.8165,356.687,288.7248,355.0306 R,0,83400,,0.6457718 M,0,83400,83447,288.7248,355.0306,303.633,353.3741
Sprite,Foreground,Centre,"sb\mango1.png",0,0 R,0,83541,,0.8552113 R,0,83541,,1.169371 C,0,83541,,255,0,0 M,0,83541,83587,328,380,342.9083,378.3435 F,2,83541,83928,1,0 S,2,83541,83928,1,0.2 P,0,83541,83928,A R,0,83587,,0.8552113 M,0,83587,83634,342.9083,378.3435,357.8165,376.687 R,0,83634,,0.8552113 M,0,83634,83681,357.8165,376.687,372.7248,375.0306 R,0,83681,,0.8552113 M,0,83681,83728,372.7248,375.0306,387.633,373.3741
Sprite,Foreground,Centre,"sb\mango1.png",0,0 R,0,83822,,0.08726646 R,0,83822,,0.6806784 C,0,83822,,255,0,0 M,0,83822,83868,412,392,426.9384,390.642 F,2,83822,84115,1,0 S,2,83822,84115,1,0.2 P,0,83822,84115,A R,0,83868,,0.08726646 M,0,83868,83915,426.9384,390.642,441.8768,389.2839
Sprite,Foreground,Centre,"sb\mango1.png",0,0 R,0,84010,,0.5585054 R,0,84010,,0.2268928 C,0,84010,,255,0,0 M,0,84010,84056,476,416,474.0599,401.126 F,2,84010,84772,1,0 S,2,84010,84772,1,0.2 P,0,84010,84772,A R,0,84056,,0.5585054 M,0,84056,84103,474.0599,401.126,472.1198,386.252 R,0,84103,,0.5585054 M,0,84103,84150,472.1198,386.252,470.1797,371.378 R,0,84150,,0.5585054 M,0,84150,84197,470.1797,371.378,468.2397,356.504 R,0,84197,,0.5585054 M,0,84197,84244,468.2397,356.504,466.2996,341.63 R,0,84244,,0.5585054 M,0,84244,84291,466.2996,341.63,464.3595,326.756 R,0,84291,,0.5585054 M,0,84291,84338,464.3595,326.756,466.2996,341.63 R,0,84338,,0.5585054 M,0,84338,84385,466.2996,341.63,468.2397,356.504 R,0,84385,,0.5585054 M,0,84385,84431,468.2397,356.504,470.1797,371.378 R,0,84431,,0.5585054 M,0,84431,84478,470.1797,371.378,472.1198,386.252 R,0,84478,,0.5585054 M,0,84478,84525,472.1198,386.252,474.0599,401.126 R,0,84525,,0.5585054 M,0,84525,84572,474.0599,401.126,476,416
Sprite,Foreground,Centre,"sb\mango1.png",0,0 R,0,84760,,1.239184 R,0,84760,,0.3665192 C,0,84760,,255,0,0 M,0,84760,84806,408,264,419.6908,254.7052 F,2,84760,85147,1,0 S,2,84760,85147,1,0.2 P,0,84760,85147,A R,0,84806,,1.239184 M,0,84806,84853,419.6908,254.7052,432.592,247.2368 R,0,84853,,1.239184 M,0,84853,84900,432.592,247.2368,446.658,242.1704 R,0,84900,,1.239184 M,0,84900,84947,446.658,242.1704,461.4781,240.3483
Sprite,Foreground,Centre,"sb\mango1.png",0,0 R,0,85135,,0.9424778 R,0,85135,,0.8028514 C,0,85135,,255,0,0 M,0,85135,85181,560,192,545.1932,190.386 F,2,85135,85522,1,0 S,2,85135,85522,1,0.2 P,0,85135,85522,A R,0,85181,,0.9424778 M,0,85181,85228,545.1932,190.386,531.0222,185.9764 R,0,85228,,0.9424778 M,0,85228,85275,531.0222,185.9764,518.2063,178.3817 R,0,85275,,0.9424778 M,0,85275,85322,518.2063,178.3817,507.9967,167.5502
Sprite,Foreground,Centre,"sb\mango1.png",507,167 R,0,85416,,0.03490658 C,0,85416,,255,0,0 F,2,85416,85616,1,0 S,2,85416,85616,1,0.2 P,0,85416,85616,A
Sprite,Foreground,Centre,"sb\mango1.png",507,167 R,0,85510,,0.4712389 C,0,85510,,255,0,0 F,2,85510,85710,1,0 S,2,85510,85710,1,0.2 P,0,85510,85710,A
Sprite,Foreground,Centre,"sb\mango1.png",424,92 R,0,85697,,0.418879 C,0,85697,,255,0,0 F,2,85697,85897,1,0 S,2,85697,85897,1,0.2 P,0,85697,85897,A
Sprite,Foreground,Centre,"sb\mango1.png",348,172 R,0,85885,,1.186824 C,0,85885,,255,0,0 F,2,85885,86085,1,0 S,2,85885,86085,1,0.2 P,0,85885,86085,A
Sprite,Foreground,Centre,"sb\mango1.png",268,104 R,0,86072,,0.6283185 C,0,86072,,255,0,0 F,2,86072,86272,1,0 S,2,86072,86272,1,0.2 P,0,86072,86272,A
Sprite,Foreground,Centre,"sb\mango1.png",268,104 R,0,86166,,0.8901179 C,0,86166,,255,0,0 F,2,86166,86366,1,0 S,2,86166,86366,1,0.2 P,0,86166,86366,A
Sprite,Foreground,Centre,"sb\mango1.png",0,0 R,0,86260,,0.3316126 R,0,86260,,0.1396263 C,0,86260,,255,0,0 M,0,86260,86306,268,104,254.3806,110.2859 F,2,86260,86647,1,0 S,2,86260,86647,1,0.2 P,0,86260,86647,A R,0,86306,,0.3316126 M,0,86306,86353,254.3806,110.2859,240.7612,116.5717 R,0,86353,,0.3316126 M,0,86353,86400,240.7612,116.5717,254.3806,110.2859 R,0,86400,,0.3316126 M,0,86400,86447,254.3806,110.2859,268,104
Sprite,Foreground,Centre,"sb\mango1.png",0,0 R,0,86635,,0.9948376 R,0,86635,,1.134464 C,0,86635,,255,0,0 M,0,86635,86681,160,168,162.9128,153.4092 F,2,86635,87022,1,0 S,2,86635,87022,1,0.2 P,0,86635,87022,A R,0,86681,,0.9948376 M,0,86681,86728,162.9128,153.4092,162.6469,138.6037 R,0,86728,,0.9948376 M,0,86728,86775,162.6469,138.6037,158.6178,124.3088 R,0,86775,,0.9948376 M,0,86775,86822,158.6178,124.3088,151.0536,111.4515
Sprite,Foreground,Centre,"sb\mango1.png",0,0 R,0,87010,,0.5585054 R,0,87010,,0.418879 C,0,87010,,255,0,0 M,0,87010,87056,80,220,88.89187,232.0271 F,2,87010,87585,1,0 S,2,87010,87585,1,0.2 P,0,87010,87585,A R,0,87056,,0.5585054 M,0,87056,87103,88.89187,232.0271,99.32455,242.7038 R,0,87103,,0.5585054 M,0,87103,87150,99.32455,242.7038,111.3339,251.5786 R,0,87150,,0.5585054 M,0,87150,87197,111.3339,251.5786,124.6145,258.4229 R,0,87197,,0.5585054 M,0,87197,87244,124.6145,258.4229,138.8283,263.0591 R,0,87244,,0.5585054 M,0,87244,87291,138.8283,263.0591,153.6133,265.3647 R,0,87291,,0.5585054 M,0,87291,87338,153.6133,265.3647,168.5922,265.2762 R,0,87338,,0.5585054 M,0,87338,87385,168.5922,265.2762,183.2639,262.3696
Sprite,Foreground,Centre,"sb\mango1.png",0,0 R,0,87572,,0.2617994 R,0,87572,,0.1745329 C,0,87572,,255,0,0 M,0,87572,87618,280,232,276.8571,246.667 F,2,87572,87959,1,0 S,2,87572,87959,1,0.2 P,0,87572,87959,A R,0,87618,,0.2617994 M,0,87618,87665,276.8571,246.667,273.7141,261.3341 R,0,87665,,0.2617994 M,0,87665,87712,273.7141,261.3341,276.8571,246.667 R,0,87712,,0.2617994 M,0,87712,87759,276.8571,246.667,280,232
Sprite,Foreground,Centre,"sb\mango1.png",0,0 R,0,87947,,0.8901179 R,0,87947,,0.5061455 C,0,87947,,255,0,0 M,0,87947,87993,252,356,265.7863,350.269 F,2,87947,88522,1,0 S,2,87947,88522,1,0.2 P,0,87947,88522,A R,0,87993,,0.8901179 M,0,87993,88040,265.7863,350.269,280.2753,346.8328 R,0,88040,,0.8901179 M,0,88040,88087,280.2753,346.8328,295.1837,346.2401 R,0,88087,,0.8901179 M,0,88087,88134,295.1837,346.2401,309.9716,348.5289 R,0,88134,,0.8901179 M,0,88134,88181,309.9716,348.5289,323.7636,354.2437 R,0,88181,,0.8901179 M,0,88181,88228,323.7636,354.2437,336.4153,362.0934 R,0,88228,,0.8901179 M,0,88228,88275,336.4153,362.0934,347.3457,372.2444 R,0,88275,,0.8901179 M,0,88275,88322,347.3457,372.2444,356,384
Sprite,Foreground,Centre,"sb\mango1.png",356,384 R,0,88510,,0.7679449 C,0,88510,,255,0,0 F,2,88510,88710,1,0 S,2,88510,88710,1,0.2 P,0,88510,88710,A
Sprite,Foreground,Centre,"sb\mango1.png",440,336 R,0,88697,,0.6108652 C,0,88697,,255,0,0 F,2,88697,88897,1,0 S,2,88697,88897,1,0.2 P,0,88697,88897,A
Sprite,Foreground,Centre,"sb\mango1.png",0,0 R,0,88885,,1.099557 R,0,88885,,0.2443461 C,0,88885,,255,0,0 M,0,88885,88931,516,392,523.7367,379.222 F,2,88885,89366,1,0 S,2,88885,89366,1,0.2 P,0,88885,89366,A R,0,88931,,1.099557 M,0,88931,88978,523.7367,379.222,529.4141,365.4442 R,0,88978,,1.099557 M,0,88978,89025,529.4141,365.4442,532.4865,350.839 R,0,89025,,1.099557 M,0,89025,89072,532.4865,350.839,532.8412,335.8834 R,0,89072,,1.099557 M,0,89072,89119,532.8412,335.8834,529.8798,321.2444 R,0,89119,,1.099557 M,0,89119,89166,529.8798,321.2444,524.6704,307.2879
Sprite,Foreground,Centre,"sb\mango1.png",0,0 R,0,89260,,0.9075712 R,0,89260,,1.029744 C,0,89260,,255,0,0 M,0,89260,89306,508,288,512.517,273.6963 F,2,89260,89647,1,0 S,2,89260,89647,1,0.2 P,0,89260,89647,A R,0,89306,,0.9075712 M,0,89306,89353,512.517,273.6963,517.0339,259.3925 R,0,89353,,0.9075712 M,0,89353,89400,517.0339,259.3925,521.5509,245.0888 R,0,89400,,0.9075712 M,0,89400,89447,521.5509,245.0888,526.0679,230.785
Sprite,Foreground,Centre,"sb\mango1.png",532,212 R,0,89541,,1.064651 C,0,89541,,255,0,0 F,2,89541,89741,1,0 S,2,89541,89741,1,0.2 P,0,89541,89741,A
Sprite,Foreground,Centre,"sb\mango1.png",0,0 R,0,89635,,0.7679449 R,0,89635,,0.8377581 C,0,89635,,255,0,0 M,0,89635,89681,536,192,521.333,195.1429 F,2,89635,90022,1,0 S,2,89635,90022,1,0.2 P,0,89635,90022,A R,0,89681,,0.7679449 M,0,89681,89728,521.333,195.1429,506.6659,198.2859 R,0,89728,,0.7679449 M,0,89728,89775,506.6659,198.2859,521.333,195.1429 R,0,89775,,0.7679449 M,0,89775,89822,521.333,195.1429,536,192
Sprite,Foreground,Centre,"sb\mango1.png",0,0 R,0,90010,,1.117011 R,0,90010,,0.2617994 C,0,90010,,255,0,0 M,0,90010,90056,412,212,414.1213,197.1508 F,2,90010,90397,1,0 S,2,90010,90397,1,0.2 P,0,90010,90397,A R,0,90056,,1.117011 M,0,90056,90103,414.1213,197.1508,416.2426,182.3015 R,0,90103,,1.117011 M,0,90103,90150,416.2426,182.3015,418.364,167.4523 R,0,90150,,1.117011 M,0,90150,90197,418.364,167.4523,420.4853,152.603
Sprite,Foreground,Centre,"sb\mango1.png",0,0 R,0,90385,,0.1047198 R,0,90385,,1.117011 C,0,90385,,255,0,0 M,0,90385,90431,320,80,321.0687,94.96188 F,2,90385,90866,1,0 S,2,90385,90866,1,0.2 P,0,90385,90866,A R,0,90431,,0.1047198 M,0,90431,90478,321.0687,94.96188,322.1374,109.9238 R,0,90478,,0.1047198 M,0,90478,90525,322.1374,109.9238,323.2061,124.8856 R,0,90525,,0.1047198 M,0,90525,90572,323.2061,124.8856,324.2748,139.8475 R,0,90572,,0.1047198 M,0,90572,90619,324.2748,139.8475,325.3435,154.8094 R,0,90619,,0.1047198 M,0,90619,90666,325.3435,154.8094,326.4122,169.7713
Sprite,Foreground,Centre,"sb\mango1.png",0,0 R,0,90760,,0.2094395 R,0,90760,,1.047198 C,0,90760,,255,0,0 M,0,90760,90806,328,188,313.4479,184.362 F,2,90760,91147,1,0 S,2,90760,91147,1,0.2 P,0,90760,91147,A R,0,90806,,0.2094395 M,0,90806,90853,313.4479,184.362,298.8957,180.7239 R,0,90853,,0.2094395 M,0,90853,90900,298.8957,180.7239,313.4479,184.362 R,0,90900,,0.2094395 M,0,90900,90947,313.4479,184.362,328,188
Sprite,Foreground,Centre,"sb\mango1.png",208,140 R,0,91135,,0.8028514 C,0,91135,,255,0,0 F,2,91135,91335,1,0 S,2,91135,91335,1,0.2 P,0,91135,91335,A
Sprite,Foreground,Centre,"sb\mango1.png",208,140 R,0,91228,,1.029744 C,0,91228,,255,0,0 F,2,91228,91428,1,0 S,2,91228,91428,1,0.2 P,0,91228,91428,A
Sprite,Foreground,Centre,"sb\mango1.png",0,0 R,0,91322,,1.239184 R,0,91322,,0.2617994 C,0,91322,,255,0,0 M,0,91322,91368,208,140,203.0526,154.1133 F,2,91322,91897,1,0 S,2,91322,91897,1,0.2 P,0,91322,91897,A R,0,91368,,1.239184 M,0,91368,91415,203.0526,154.1133,200.0856,168.7411 R,0,91415,,1.239184 M,0,91415,91462,200.0856,168.7411,199.5064,183.6636 R,0,91462,,1.239184 M,0,91462,91509,199.5064,183.6636,201.3334,198.4975 R,0,91509,,1.239184 M,0,91509,91556,201.3334,198.4975,205.5247,212.8606 R,0,91556,,1.239184 M,0,91556,91603,205.5247,212.8606,212.302,226.1891 R,0,91603,,1.239184 M,0,91603,91650,212.302,226.1891,220.9099,238.3778 R,0,91650,,1.239184 M,0,91650,91697,220.9099,238.3778,231.3669,249.0289
Sprite,Foreground,Centre,"sb\mango1.png",240,260 R,0,91791,,0.5934119 C,0,91791,,255,0,0 F,2,91791,91991,1,0 S,2,91791,91991,1,0.2 P,0,91791,91991,A
Sprite,Foreground,Centre,"sb\mango1.png",0,0 R,0,91885,,0.8901179 R,0,91885,,0.8028514 C,0,91885,,255,0,0 M,0,91885,91931,248,272,233.1158,270.1395 F,2,91885,92272,1,0 S,2,91885,92272,1,0.2 P,0,91885,92272,A R,0,91931,,0.8901179 M,0,91931,91978,233.1158,270.1395,218.2317,268.279 R,0,91978,,0.8901179 M,0,91978,92025,218.2317,268.279,203.3475,266.4185 R,0,92025,,0.8901179 M,0,92025,92072,203.3475,266.4185,188.4633,264.5579
Sprite,Foreground,Centre,"sb\mango1.png",228,384 R,0,92260,,1.012291 C,0,92260,,255,0,0 F,2,92260,92460,1,0 S,2,92260,92460,1,0.2 P,0,92260,92460,A
Sprite,Foreground,Centre,"sb\mango1.png",228,384 R,0,92353,,0.122173 C,0,92353,,255,0,0 F,2,92353,92553,1,0 S,2,92353,92553,1,0.2 P,0,92353,92553,A
Sprite,Foreground,Centre,"sb\mango1.png",228,384 R,0,92447,,0.9075712 C,0,92447,,255,0,0 F,2,92447,92647,1,0 S,2,92447,92647,1,0.2 P,0,92447,92647,A
Sprite,Foreground,Centre,"sb\mango1.png",0,0 R,0,92635,,0.1570796 R,0,92635,,0.8901179 C,0,92635,,255,0,0 M,0,92635,92681,356,332,341.1744,329.7191 F,2,92635,93022,1,0 S,2,92635,93022,1,0.2 P,0,92635,93022,A R,0,92681,,0.1570796 M,0,92681,92728,341.1744,329.7191,326.3488,327.4383 R,0,92728,,0.1570796 M,0,92728,92775,326.3488,327.4383,341.1744,329.7191 R,0,92775,,0.1570796 M,0,92775,92822,341.1744,329.7191,356,332
Sprite,Foreground,Centre,"sb\mango1.png",0,0 R,0,93010,,0.2268928 R,0,93010,,1.134464 C,0,93010,,255,0,0 M,0,93010,93056,464,400,456.3445,387.1411 F,2,93010,93585,1,0 S,2,93010,93585,1,0.2 P,0,93010,93585,A R,0,93056,,0.2268928 M,0,93056,93103,456.3445,387.1411,450.2796,373.4844 R,0,93103,,0.2268928 M,0,93103,93150,450.2796,373.4844,446.1887,359.1041 R,0,93150,,0.2268928 M,0,93150,93197,446.1887,359.1041,444.1547,344.2798 R,0,93197,,0.2268928 M,0,93197,93244,444.1547,344.2798,444.2216,329.3005 R,0,93244,,0.2268928 M,0,93244,93291,444.2216,329.3005,446.797,314.5595 R,0,93291,,0.2268928 M,0,93291,93338,446.797,314.5595,451.1306,300.2604 R,0,93338,,0.2268928 M,0,93338,93385,451.1306,300.2604,457.4305,286.7045
Sprite,Foreground,Centre,"sb\mango1.png",540,340 R,0,93572,,0.5934119 C,0,93572,,255,0,0 F,2,93572,93772,1,0 S,2,93572,93772,1,0.2 P,0,93572,93772,A
Sprite,Foreground,Centre,"sb\mango1.png",536,252 R,0,93760,,0.6632251 C,0,93760,,255,0,0 F,2,93760,93960,1,0 S,2,93760,93960,1,0.2 P,0,93760,93960,A
Sprite,Foreground,Centre,"sb\mango1.png",0,0 R,0,93947,,0.8377581 R,0,93947,,0.4014257 C,0,93947,,255,0,0 M,0,93947,93993,564,160,549.2041,157.534 F,2,93947,94334,1,0 S,2,93947,94334,1,0.2 P,0,93947,94334,A R,0,93993,,0.8377581 M,0,93993,94040,549.2041,157.534,534.4082,155.068 R,0,94040,,0.8377581 M,0,94040,94087,534.4082,155.068,549.2041,157.534 R,0,94087,,0.8377581 M,0,94087,94134,549.2041,157.534,564,160
Sprite,Foreground,Centre,"sb\mango1.png",0,0 R,0,94322,,1.047198 R,0,94322,,0.5759587 C,0,94322,,255,0,0 M,0,94322,94368,456,108,450.1733,121.8101 F,2,94322,94897,1,0 S,2,94322,94897,1,0.2 P,0,94322,94897,A R,0,94368,,1.047198 M,0,94368,94415,450.1733,121.8101,446.3712,136.3047 R,0,94415,,1.047198 M,0,94415,94462,446.3712,136.3047,444.9323,151.2177 R,0,94462,,1.047198 M,0,94462,94509,444.9323,151.2177,446.0078,166.1612 R,0,94509,,1.047198 M,0,94509,94556,446.0078,166.1612,449.4864,180.7364 R,0,94556,,1.047198 M,0,94556,94603,449.4864,180.7364,455.0435,194.6564 R,0,94603,,1.047198 M,0,94603,94650,455.0435,194.6564,456.4638,201.3479 R,0,94650,,1.047198 M,0,94650,94697,456.4638,201.3479,444.4638,192.3479
Sprite,Foreground,Centre,"sb\mango1.png",348,160 R,0,94885,,1.012291 C,0,94885,,255,0,0 F,2,94885,95085,1,0 S,2,94885,95085,1,0.2 P,0,94885,95085,A
Sprite,Foreground,Centre,"sb\mango1.png",384,264 R,0,95072,,0.9948376 C,0,95072,,255,0,0 F,2,95072,95272,1,0 S,2,95072,95272,1,0.2 P,0,95072,95272,A
Sprite,Foreground,Centre,"sb\mango1.png",384,264 R,0,95166,,0.9599311 C,0,95166,,255,0,0 F,2,95166,95366,1,0 S,2,95166,95366,1,0.2 P,0,95166,95366,A
Sprite,Foreground,Centre,"sb\mango1.png",0,0 R,0,95260,,0.3665192 R,0,95260,,1.169371 C,0,95260,,255,0,0 M,0,95260,95306,384,264,369.1744,261.7191 F,2,95260,95647,1,0 S,2,95260,95647,1,0.2 P,0,95260,95647,A R,0,95306,,0.3665192 M,0,95306,95353,369.1744,261.7191,354.3488,259.4383 R,0,95353,,0.3665192 M,0,95353,95400,354.3488,259.4383,369.1744,261.7191 R,0,95400,,0.3665192 M,0,95400,95447,369.1744,261.7191,384,264
Sprite,Foreground,Centre,"sb\mango1.png",0,0 R,0,95635,,0.8203048 R,0,95635,,0.6457718 C,0,95635,,255,0,0 M,0,95635,95681,264,312,266.1213,297.1508 F,2,95635,96022,1,0 S,2,95635,96022,1,0.2 P,0,95635,96022,A R,0,95681,,0.8203048 M,0,95681,95728,266.1213,297.1508,268.2426,282.3015 R,0,95728,,0.8203048 M,0,95728,95775,268.2426,282.3015,270.364,267.4523 R,0,95775,,0.8203048 M,0,95775,95822,270.364,267.4523,272.4853,252.603
Sprite,Foreground,Centre,"sb\mango1.png",0,0 R,0,96010,,0.3490658 R,0,96010,,0.4014257 C,0,96010,,255,0,0 M,0,96010,96056,176,176,177.2457,190.9482 F,2,96010,96772,1,0 S,2,96010,96772,1,0.2 P,0,96010,96772,A R,0,96056,,0.3490658 M,0,96056,96103,177.2457,190.9482,178.4914,205.8964 R,0,96103,,0.3490658 M,0,96103,96150,178.4914,205.8964,179.737,220.8446 R,0,96150,,0.3490658 M,0,96150,96197,179.737,220.8446,180.9827,235.7928 R,0,96197,,0.3490658 M,0,96197,96244,180.9827,235.7928,182.2284,250.7409 R,0,96244,,0.3490658 M,0,96244,96291,182.2284,250.7409,183.4741,265.6891 R,0,96291,,0.3490658 M,0,96291,96338,183.4741,265.6891,182.2284,250.7409 R,0,96338,,0.3490658 M,0,96338,96385,182.2284,250.7409,180.9827,235.7928 R,0,96385,,0.3490658 M,0,96385,96431,180.9827,235.7928,179.737,220.8446 R,0,96431,,0.3490658 M,0,96431,96478,179.737,220.8446,178.4914,205.8964 R,0,96478,,0.3490658 M,0,96478,96525,178.4914,205.8964,177.2457,190.9482 R,0,96525,,0.3490658 M,0,96525,96572,177.2457,190.9482,176,176
Sprite,Foreground,Centre,"sb\mango1.png",0,0 R,0,96760,,0.2792527 R,0,96760,,1.029744 C,0,96760,,255,0,0 M,0,96760,96806,128,96,141.8899,90.41908 F,2,96760,97147,1,0 S,2,96760,97147,1,0.2 P,0,96760,97147,A R,0,96806,,0.2792527 M,0,96806,96853,141.8899,90.41908,156.3018,86.44791 R,0,96853,,0.2792527 M,0,96853,96900,156.3018,86.44791,171.1198,84.4284 R,0,96900,,0.2792527 M,0,96900,96947,171.1198,84.4284,186.0841,84.3983
Sprite,Foreground,Centre,"sb\mango1.png",0,0 R,0,97135,,0.06981317 R,0,97135,,0.2268928 C,0,97135,,255,0,0 M,0,97135,97181,260,148,273.0237,140.5579 F,2,97135,97522,1,0 S,2,97135,97522,1,0.2 P,0,97135,97522,A R,0,97181,,0.06981317 M,0,97181,97228,273.0237,140.5579,286.0473,133.1158 R,0,97228,,0.06981317 M,0,97228,97275,286.0473,133.1158,273.0237,140.5579 R,0,97275,,0.06981317 M,0,97275,97322,273.0237,140.5579,260,148
Sprite,Foreground,Centre,"sb\mango1.png",0,0 R,0,97510,,0.8552113 R,0,97510,,0.7679449 C,0,97510,,255,0,0 M,0,97510,97556,372,88,377.9953,101.6992 F,2,97510,97897,1,0 S,2,97510,97897,1,0.2 P,0,97510,97897,A R,0,97556,,0.8552113 M,0,97556,97603,377.9953,101.6992,382.0474,116.0624 R,0,97603,,0.8552113 M,0,97603,97650,382.0474,116.0624,383.7224,130.9026 R,0,97650,,0.8552113 M,0,97650,97697,383.7224,130.9026,382.9719,145.834
Sprite,Foreground,Centre,"sb\mango1.png",380,168 R,0,97791,,0.7853982 C,0,97791,,255,0,0 F,2,97791,97991,1,0 S,2,97791,97991,1,0.2 P,0,97791,97991,A
Sprite,Foreground,Centre,"sb\mango1.png",0,0 R,0,97885,,0.2617994 R,0,97885,,1.151917 C,0,97885,,255,0,0 M,0,97885,97931,372,188,386.5921,184.5257 F,2,97885,98272,1,0 S,2,97885,98272,1,0.2 P,0,97885,98272,A R,0,97931,,0.2617994 M,0,97931,97978,386.5921,184.5257,401.1842,181.0514 R,0,97978,,0.2617994 M,0,97978,98025,401.1842,181.0514,415.7763,177.5771 R,0,98025,,0.2617994 M,0,98025,98072,415.7763,177.5771,430.3684,174.1028
Sprite,Foreground,Centre,"sb\mango1.png",520,148 R,0,98260,,1.151917 C,0,98260,,255,0,0 F,2,98260,98460,1,0 S,2,98260,98460,1,0.2 P,0,98260,98460,A
Sprite,Foreground,Centre,"sb\mango1.png",520,148 R,0,98353,,0.06981317 C,0,98353,,255,0,0 F,2,98353,98553,1,0 S,2,98353,98553,1,0.2 P,0,98353,98553,A
Sprite,Foreground,Centre,"sb\mango1.png",520,148 R,0,98447,,1.117011 C,0,98447,,255,0,0 F,2,98447,98647,1,0 S,2,98447,98647,1,0.2 P,0,98447,98647,A
Sprite,Foreground,Centre,"sb\mango1.png",0,0 R,0,98635,,0.1047198 R,0,98635,,0.8377581 C,0,98635,,255,0,0 M,0,98635,98681,488,268,488,253 F,2,98635,99022,1,0 S,2,98635,99022,1,0.2 P,0,98635,99022,A R,0,98681,,0.1047198 M,0,98681,98728,488,253,488,238 R,0,98728,,0.1047198 M,0,98728,98775,488,238,488,253 R,0,98775,,0.1047198 M,0,98775,98822,488,253,488,268
Sprite,Foreground,Centre,"sb\mango1.png",0,0 R,0,99010,,0.122173 R,0,99010,,0.1745329 C,0,99010,,255,0,0 M,0,99010,99056,544,380,532.5957,370.3605 F,2,99010,99585,1,0 S,2,99010,99585,1,0.2 P,0,99010,99585,A R,0,99056,,0.122173 M,0,99056,99103,532.5957,370.3605,519.7822,362.7794 R,0,99103,,0.122173 M,0,99103,99150,519.7822,362.7794,505.7174,357.8553 R,0,99150,,0.122173 M,0,99150,99197,505.7174,357.8553,490.9395,355.7845 R,0,99197,,0.122173 M,0,99197,99244,490.9395,355.7845,476.0157,356.6567 R,0,99244,,0.122173 M,0,99244,99291,476.0157,356.6567,461.7092,360.9237 R,0,99291,,0.122173 M,0,99291,99338,461.7092,360.9237,448.4005,367.586 R,0,99338,,0.122173 M,0,99338,99385,448.4005,367.586,436.6502,376.7355
Sprite,Foreground,Centre,"sb\mango1.png",0,0 R,0,99572,,1.186824 R,0,99572,,0.7504916 C,0,99572,,255,0,0 M,0,99572,99618,323,420,325.172,405.1581 F,2,99572,99959,1,0 S,2,99572,99959,1,0.2 P,0,99572,99959,A R,0,99618,,1.186824 M,0,99618,99665,325.172,405.1581,327.344,390.3162 R,0,99665,,1.186824 M,0,99665,99712,327.344,390.3162,329.516,375.4742 R,0,99712,,1.186824 M,0,99712,99759,329.516,375.4742,331.688,360.6323
Sprite,Foreground,Centre,"sb\mango1.png",348,264 R,0,99947,,0.6108652 C,0,99947,,255,0,0 F,2,99947,100147,1,0 S,2,99947,100147,1,0.2 P,0,99947,100147,A
Sprite,Foreground,Centre,"sb\mango1.png",232,324 R,0,100135,,0.1745329 C,0,100135,,255,0,0 F,2,100135,100335,1,0 S,2,100135,100335,1,0.2 P,0,100135,100335,A
Sprite,Foreground,Centre,"sb\mango1.png",232,324 R,0,100228,,0.8377581 C,0,100228,,255,0,0 F,2,100228,100428,1,0 S,2,100228,100428,1,0.2 P,0,100228,100428,A
Sprite,Foreground,Centre,"sb\mango1.png",0,0 R,0,100322,,0.2792527 R,0,100322,,0.715585 C,0,100322,,255,0,0 M,0,100322,100368,232,324,217.2419,326.6833 F,2,100322,100615,1,0 S,2,100322,100615,1,0.2 P,0,100322,100615,A R,0,100368,,0.2792527 M,0,100368,100415,217.2419,326.6833,202.4839,329.3666
Sprite,Foreground,Centre,"sb\mango1.png",0,0 R,0,100510,,0 R,0,100510,,0.7679449 C,0,100510,,255,0,0 M,0,100510,100556,176,336,180.3102,321.6326 F,2,100510,100897,1,0 S,2,100510,100897,1,0.2 P,0,100510,100897,A R,0,100556,,0 M,0,100556,100603,180.3102,321.6326,184.6204,307.2652 R,0,100603,,0 M,0,100603,100650,184.6204,307.2652,188.9307,292.8978 R,0,100650,,0 M,0,100650,100697,188.9307,292.8978,193.2409,278.5304
Sprite,Foreground,Centre,"sb\mango1.png",0,0 R,0,100885,,1.064651 R,0,100885,,0.4363323 C,0,100885,,255,0,0 M,0,100885,100931,176,128,171.2566,142.2303 F,2,100885,101272,1,0 S,2,100885,101272,1,0.2 P,0,100885,101272,A R,0,100931,,1.064651 M,0,100931,100978,171.2566,142.2303,166.5132,156.4605 R,0,100978,,1.064651 M,0,100978,101025,166.5132,156.4605,161.7697,170.6908 R,0,101025,,1.064651 M,0,101025,101072,161.7697,170.6908,157.0263,184.921
Sprite,Foreground,Centre,"sb\mango1.png",0,0 R,0,101260,,0.3490658 R,0,101260,,0.06981317 C,0,101260,,255,0,0 M,0,101260,101306,252,204,266.8188,201.6755 F,2,101260,101647,1,0 S,2,101260,101647,1,0.2 P,0,101260,101647,A R,0,101306,,0.3490658 M,0,101306,101353,266.8188,201.6755,281.6376,199.351 R,0,101353,,0.3490658 M,0,101353,101400,281.6376,199.351,266.8188,201.6755 R,0,101400,,0.3490658 M,0,101400,101447,266.8188,201.6755,252,204
Sprite,Foreground,Centre,"sb\mango1.png",0,0 R,0,101635,,1.204277 R,0,101635,,0.8726646 C,0,101635,,255,0,0 M,0,101635,101681,360,152,362.3245,166.8188 F,2,101635,102022,1,0 S,2,101635,102022,1,0.2 P,0,101635,102022,A R,0,101681,,1.204277 M,0,101681,101728,362.3245,166.8188,364.649,181.6376 R,0,101728,,1.204277 M,0,101728,101775,364.649,181.6376,362.3245,166.8188 R,0,101775,,1.204277 M,0,101775,101822,362.3245,166.8188,360,152
Sprite,Foreground,BottomCentre,"sb\pl.png",0,0 F,2,103460,103510,0,1 R,0,103510,,1.570796 C,0,103510,,0,0,255 M,0,103510,103556,-107,313,-107,299.2367 F,2,103510,104085,1,0 V,2,103510,104085,1,7.5,0.5,1.5 P,0,103510,104085,A M,0,103556,103603,-107,299.2367,-107,284.8981 M,0,103603,103650,-107,284.8981,-107,270.1086 M,0,103650,103697,-107,270.1086,-107,255.1496 M,0,103697,103744,-107,255.1496,-107,240.3059 M,0,103744,103791,-107,240.3059,-107,225.9669 M,0,103791,103838,-107,225.9669,-107,212.2937 M,0,103838,103885,-107,212.2937,-107,199.583
Sprite,Foreground,BottomCentre,"sb\pl.png",0,0 F,2,103460,103510,0,1 R,0,103510,,-1.570796 C,0,103510,,0,0,255 M,0,103510,103556,747,313,747,299.2367 F,2,103510,104085,1,0 V,2,103510,104085,1,7.5,0.5,1.5 P,0,103510,104085,A M,0,103556,103603,747,299.2367,747,284.8981 M,0,103603,103650,747,284.8981,747,270.1086 M,0,103650,103697,747,270.1086,747,255.1496 M,0,103697,103744,747,255.1496,747,240.3059 M,0,103744,103791,747,240.3059,747,225.9669 M,0,103791,103838,747,225.9669,747,212.2937 M,0,103838,103885,747,212.2937,747,199.583
Sprite,Foreground,BottomCentre,"sb\pl.png",-107,257 F,2,104022,104072,0,1 R,0,104072,,1.570796 C,0,104072,,0,0,255 F,2,104072,104272,1,0 V,2,104072,104272,1,7.5,0.5,1.5 P,0,104072,104272,A
Sprite,Foreground,BottomCentre,"sb\pl.png",747,257 F,2,104022,104072,0,1 R,0,104072,,-1.570796 C,0,104072,,0,0,255 F,2,104072,104272,1,0 V,2,104072,104272,1,7.5,0.5,1.5 P,0,104072,104272,A
Sprite,Foreground,BottomCentre,"sb\pl.png",0,0 F,2,104210,104260,0,1 R,0,104260,,1.570796 C,0,104260,,0,0,255 M,0,104260,104306,-107,168,-107,170.7643 F,2,104260,104835,1,0 V,2,104260,104835,1,7.5,0.5,1.5 P,0,104260,104835,A M,0,104306,104353,-107,170.7643,-107,173.5287 M,0,104353,104400,-107,173.5287,-107,176.293 M,0,104400,104447,-107,176.293,-107,179.0573 M,0,104447,104494,-107,179.0573,-107,175.8577 M,0,104494,104541,-107,175.8577,-107,169.5719 M,0,104541,104588,-107,169.5719,-107,163.286 M,0,104588,104635,-107,163.286,-107,157.0001
Sprite,Foreground,BottomCentre,"sb\pl.png",0,0 F,2,104210,104260,0,1 R,0,104260,,-1.570796 C,0,104260,,0,0,255 M,0,104260,104306,747,168,747,170.7643 F,2,104260,104835,1,0 V,2,104260,104835,1,7.5,0.5,1.5 P,0,104260,104835,A M,0,104306,104353,747,170.7643,747,173.5287 M,0,104353,104400,747,173.5287,747,176.293 M,0,104400,104447,747,176.293,747,179.0573 M,0,104447,104494,747,179.0573,747,175.8577 M,0,104494,104541,747,175.8577,747,169.5719 M,0,104541,104588,747,169.5719,747,163.286 M,0,104588,104635,747,163.286,747,157.0001
Sprite,Foreground,BottomCentre,"sb\pl.png",-107,120 F,2,104772,104822,0,1 R,0,104822,,1.570796 C,0,104822,,0,0,255 F,2,104822,105022,1,0 V,2,104822,105022,1,7.5,0.5,1.5 P,0,104822,105022,A
Sprite,Foreground,BottomCentre,"sb\pl.png",747,120 F,2,104772,104822,0,1 R,0,104822,,-1.570796 C,0,104822,,0,0,255 F,2,104822,105022,1,0 V,2,104822,105022,1,7.5,0.5,1.5 P,0,104822,105022,A
Sprite,Foreground,BottomCentre,"sb\pl.png",0,0 F,2,104960,105010,0,1 R,0,105010,,1.570796 C,0,105010,,0,0,255 M,0,105010,105056,-107,116,-107,130.9079 F,2,105010,105585,1,0 V,2,105010,105585,1,7.5,0.5,1.5 P,0,105010,105585,A M,0,105056,105103,-107,130.9079,-107,145.756 M,0,105103,105150,-107,145.756,-107,160.1468 M,0,105150,105197,-107,160.1468,-107,173.6145 M,0,105197,105244,-107,173.6145,-107,185.3559 M,0,105244,105291,-107,185.3559,-107,195.4608 M,0,105291,105338,-107,195.4608,-107,203.4333 M,0,105338,105385,-107,203.4333,-107,209.0098
Sprite,Foreground,BottomCentre,"sb\pl.png",0,0 F,2,104960,105010,0,1 R,0,105010,,-1.570796 C,0,105010,,0,0,255 M,0,105010,105056,747,116,747,130.9079 F,2,105010,105585,1,0 V,2,105010,105585,1,7.5,0.5,1.5 P,0,105010,105585,A M,0,105056,105103,747,130.9079,747,145.756 M,0,105103,105150,747,145.756,747,160.1468 M,0,105150,105197,747,160.1468,747,173.6145 M,0,105197,105244,747,173.6145,747,185.3559 M,0,105244,105291,747,185.3559,747,195.4608 M,0,105291,105338,747,195.4608,747,203.4333 M,0,105338,105385,747,203.4333,747,209.0098
Sprite,Foreground,BottomCentre,"sb\pl.png",0,0 F,2,105522,105572,0,1 R,0,105572,,1.570796 C,0,105572,,0,0,255 M,0,105572,105618,-107,268,-107,281.5272 F,2,105572,105865,1,0 V,2,105572,105865,1,7.5,0.5,1.5 P,0,105572,105865,A M,0,105618,105665,-107,281.5272,-107,295.0545
Sprite,Foreground,BottomCentre,"sb\pl.png",0,0 F,2,105522,105572,0,1 R,0,105572,,-1.570796 C,0,105572,,0,0,255 M,0,105572,105618,747,268,747,281.5272 F,2,105572,105865,1,0 V,2,105572,105865,1,7.5,0.5,1.5 P,0,105572,105865,A M,0,105618,105665,747,281.5272,747,295.0545
Sprite,Foreground,BottomCentre,"sb\pl.png",0,0 F,2,105710,105760,0,1 R,0,105760,,1.570796 C,0,105760,,0,0,255 M,0,105760,105806,-107,324,-107,322.7006 F,2,105760,106241,1,0 V,2,105760,106241,1,7.5,0.5,1.5 P,0,105760,106241,A M,0,105806,105853,-107,322.7006,-107,321.4011 M,0,105853,105900,-107,321.4011,-107,320.1017 M,0,105900,105947,-107,320.1017,-107,318.8022 M,0,105947,105994,-107,318.8022,-107,317.5028 M,0,105994,106041,-107,317.5028,-107,316.2033
Sprite,Foreground,BottomCentre,"sb\pl.png",0,0 F,2,105710,105760,0,1 R,0,105760,,-1.570796 C,0,105760,,0,0,255 M,0,105760,105806,747,324,747,322.7006 F,2,105760,106241,1,0 V,2,105760,106241,1,7.5,0.5,1.5 P,0,105760,106241,A M,0,105806,105853,747,322.7006,747,321.4011 M,0,105853,105900,747,321.4011,747,320.1017 M,0,105900,105947,747,320.1017,747,318.8022 M,0,105947,105994,747,318.8022,747,317.5028 M,0,105994,106041,747,317.5028,747,316.2033
Sprite,Foreground,BottomCentre,"sb\pl.png",0,0 F,2,106085,106135,0,1 R,0,106135,,1.570796 C,0,106135,,0,0,255 M,0,106135,106181,-107,336,-107,334.8038 F,2,106135,106616,1,0 V,2,106135,106616,1,7.5,0.5,1.5 P,0,106135,106616,A M,0,106181,106228,-107,334.8038,-107,333.6076 M,0,106228,106275,-107,333.6076,-107,332.4115 M,0,106275,106322,-107,332.4115,-107,331.2153 M,0,106322,106369,-107,331.2153,-107,330.0191 M,0,106369,106416,-107,330.0191,-107,328.8229
Sprite,Foreground,BottomCentre,"sb\pl.png",0,0 F,2,106085,106135,0,1 R,0,106135,,-1.570796 C,0,106135,,0,0,255 M,0,106135,106181,747,336,747,334.8038 F,2,106135,106616,1,0 V,2,106135,106616,1,7.5,0.5,1.5 P,0,106135,106616,A M,0,106181,106228,747,334.8038,747,333.6076 M,0,106228,106275,747,333.6076,747,332.4115 M,0,106275,106322,747,332.4115,747,331.2153 M,0,106322,106369,747,331.2153,747,330.0191 M,0,106369,106416,747,330.0191,747,328.8229
Sprite,Foreground,BottomCentre,"sb\pl.png",-107,340 F,2,106460,106510,0,1 R,0,106510,,1.570796 C,0,106510,,0,0,255 F,2,106510,106710,1,0 V,2,106510,106710,1,7.5,0.5,1.5 P,0,106510,106710,A
Sprite,Foreground,BottomCentre,"sb\pl.png",747,340 F,2,106460,106510,0,1 R,0,106510,,-1.570796 C,0,106510,,0,0,255 F,2,106510,106710,1,0 V,2,106510,106710,1,7.5,0.5,1.5 P,0,106510,106710,A
Sprite,Foreground,BottomCentre,"sb\pl.png",-107,404 F,2,106647,106697,0,1 R,0,106697,,1.570796 C,0,106697,,0,0,255 F,2,106697,106897,1,0 V,2,106697,106897,1,7.5,0.5,1.5 P,0,106697,106897,A
Sprite,Foreground,BottomCentre,"sb\pl.png",747,404 F,2,106647,106697,0,1 R,0,106697,,-1.570796 C,0,106697,,0,0,255 F,2,106697,106897,1,0 V,2,106697,106897,1,7.5,0.5,1.5 P,0,106697,106897,A
Sprite,Foreground,BottomCentre,"sb\pl.png",0,0 F,2,106835,106885,0,1 R,0,106885,,1.570796 C,0,106885,,0,0,255 M,0,106885,106931,-107,312,-107,298.4073 F,2,106885,107272,1,0 V,2,106885,107272,1,7.5,0.5,1.5 P,0,106885,107272,A M,0,106931,106978,-107,298.4073,-107,284.8145 M,0,106978,107025,-107,284.8145,-107,271.2217 M,0,107025,107072,-107,271.2217,-107,257.629
Sprite,Foreground,BottomCentre,"sb\pl.png",0,0 F,2,106835,106885,0,1 R,0,106885,,-1.570796 C,0,106885,,0,0,255 M,0,106885,106931,747,312,747,298.4073 F,2,106885,107272,1,0 V,2,106885,107272,1,7.5,0.5,1.5 P,0,106885,107272,A M,0,106931,106978,747,298.4073,747,284.8145 M,0,106978,107025,747,284.8145,747,271.2217 M,0,107025,107072,747,271.2217,747,257.629
Sprite,Foreground,BottomCentre,"sb\pl.png",0,0 F,2,107210,107260,0,1 R,0,107260,,1.570796 C,0,107260,,0,0,255 M,0,107260,107306,-107,164,-107,160.2235 F,2,107260,107741,1,0 V,2,107260,107741,1,7.5,0.5,1.5 P,0,107260,107741,A M,0,107306,107353,-107,160.2235,-107,158.9566 M,0,107353,107400,-107,158.9566,-107,160.6804 M,0,107400,107447,-107,160.6804,-107,165.3341 M,0,107447,107494,-107,165.3341,-107,172.743 M,0,107494,107541,-107,172.743,-107,182.9768
Sprite,Foreground,BottomCentre,"sb\pl.png",0,0 F,2,107210,107260,0,1 R,0,107260,,-1.570796 C,0,107260,,0,0,255 M,0,107260,107306,747,164,747,160.2235 F,2,107260,107741,1,0 V,2,107260,107741,1,7.5,0.5,1.5 P,0,107260,107741,A M,0,107306,107353,747,160.2235,747,158.9566 M,0,107353,107400,747,158.9566,747,160.6804 M,0,107400,107447,747,160.6804,747,165.3341 M,0,107447,107494,747,165.3341,747,172.743 M,0,107494,107541,747,172.743,747,182.9768
Sprite,Foreground,BottomCentre,"sb\pl.png",-107,200 F,2,107585,107635,0,1 R,0,107635,,1.570796 C,0,107635,,0,0,255 F,2,107635,107835,1,0 V,2,107635,107835,1,7.5,0.5,1.5 P,0,107635,107835,A
Sprite,Foreground,BottomCentre,"sb\pl.png",747,200 F,2,107585,107635,0,1 R,0,107635,,-1.570796 C,0,107635,,0,0,255 F,2,107635,107835,1,0 V,2,107635,107835,1,7.5,0.5,1.5 P,0,107635,107835,A
Sprite,Foreground,BottomCentre,"sb\pl.png",-107,257 F,2,107772,107822,0,1 R,0,107822,,1.570796 C,0,107822,,0,0,255 F,2,107822,108022,1,0 V,2,107822,108022,1,7.5,0.5,1.5 P,0,107822,108022,A
Sprite,Foreground,BottomCentre,"sb\pl.png",747,257 F,2,107772,107822,0,1 R,0,107822,,-1.570796 C,0,107822,,0,0,255 F,2,107822,108022,1,0 V,2,107822,108022,1,7.5,0.5,1.5 P,0,107822,108022,A
Sprite,Foreground,BottomCentre,"sb\pl.png",0,0 F,2,107960,108010,0,1 R,0,108010,,1.570796 C,0,108010,,0,0,255 M,0,108010,108056,-107,260,-107,247.3773 F,2,108010,108585,1,0 V,2,108010,108585,1,7.5,0.5,1.5 P,0,108010,108585,A M,0,108056,108103,-107,247.3773,-107,233.838 M,0,108103,108150,-107,233.838,-107,219.4898 M,0,108150,108197,-107,219.4898,-107,204.6671 M,0,108197,108244,-107,204.6671,-107,189.7153 M,0,108244,108291,-107,189.7153,-107,174.9838 M,0,108291,108338,-107,174.9838,-107,160.9566 M,0,108338,108385,-107,160.9566,-107,147.7947
Sprite,Foreground,BottomCentre,"sb\pl.png",0,0 F,2,107960,108010,0,1 R,0,108010,,-1.570796 C,0,108010,,0,0,255 M,0,108010,108056,747,260,747,247.3773 F,2,108010,108585,1,0 V,2,108010,108585,1,7.5,0.5,1.5 P,0,108010,108585,A M,0,108056,108103,747,247.3773,747,233.838 M,0,108103,108150,747,233.838,747,219.4898 M,0,108150,108197,747,219.4898,747,204.6671 M,0,108197,108244,747,204.6671,747,189.7153 M,0,108244,108291,747,189.7153,747,174.9838 M,0,108291,108338,747,174.9838,747,160.9566 M,0,108338,108385,747,160.9566,747,147.7947
Sprite,Foreground,BottomCentre,"sb\pl.png",-107,200 F,2,108522,108572,0,1 R,0,108572,,1.570796 C,0,108572,,0,0,255 F,2,108572,108772,1,0 V,2,108572,108772,1,7.5,0.5,1.5 P,0,108572,108772,A
Sprite,Foreground,BottomCentre,"sb\pl.png",747,200 F,2,108522,108572,0,1 R,0,108572,,-1.570796 C,0,108572,,0,0,255 F,2,108572,108772,1,0 V,2,108572,108772,1,7.5,0.5,1.5 P,0,108572,108772,A
Sprite,Foreground,BottomCentre,"sb\pl.png",0,0 F,2,108710,108760,0,1 R,0,108760,,1.570796 C,0,108760,,0,0,255 M,0,108760,108806,-107,340,-107,345.7316 F,2,108760,109147,1,0 V,2,108760,109147,1,7.5,0.5,1.5 P,0,108760,109147,A M,0,108806,108853,-107,345.7316,-107,349.2847 M,0,108853,108900,-107,349.2847,-107,350.1662 M,0,108900,108947,-107,350.1662,-107,348.339
Sprite,Foreground,BottomCentre,"sb\pl.png",0,0 F,2,108710,108760,0,1 R,0,108760,,-1.570796 C,0,108760,,0,0,255 M,0,108760,108806,747,340,747,345.7316 F,2,108760,109147,1,0 V,2,108760,109147,1,7.5,0.5,1.5 P,0,108760,109147,A M,0,108806,108853,747,345.7316,747,349.2847 M,0,108853,108900,747,349.2847,747,350.1662 M,0,108900,108947,747,350.1662,747,348.339
Sprite,Foreground,BottomCentre,"sb\pl.png",0,0 F,2,109085,109135,0,1 R,0,109135,,1.570796 C,0,109135,,0,0,255 M,0,109135,109181,-107,288,-107,283.5117 F,2,109135,109522,1,0 V,2,109135,109522,1,7.5,0.5,1.5 P,0,109135,109522,A M,0,109181,109228,-107,283.5117,-107,280.8035 M,0,109228,109275,-107,280.8035,-107,280.2343 M,0,109275,109322,-107,280.2343,-107,281.8183
Sprite,Foreground,BottomCentre,"sb\pl.png",0,0 F,2,109085,109135,0,1 R,0,109135,,-1.570796 C,0,109135,,0,0,255 M,0,109135,109181,747,288,747,283.5117 F,2,109135,109522,1,0 V,2,109135,109522,1,7.5,0.5,1.5 P,0,109135,109522,A M,0,109181,109228,747,283.5117,747,280.8035 M,0,109228,109275,747,280.8035,747,280.2343 M,0,109275,109322,747,280.2343,747,281.8183
Sprite,Foreground,BottomCentre,"sb\pl.png",0,0 F,2,109460,109510,0,1 R,0,109510,,1.570796 C,0,109510,,0,0,255 M,0,109510,109556,-107,348,-107,333.9998 F,2,109510,110085,1,0 V,2,109510,110085,1,7.5,0.5,1.5 P,0,109510,110085,A M,0,109556,109603,-107,333.9998,-107,319.9996 M,0,109603,109650,-107,319.9996,-107,305.9995 M,0,109650,109697,-107,305.9995,-107,291.718 M,0,109697,109744,-107,291.718,-107,276.7335 M,0,109744,109791,-107,276.7335,-107,261.7489 M,0,109791,109838,-107,261.7489,-107,246.7644 M,0,109838,109885,-107,246.7644,-107,231.7799
Sprite,Foreground,BottomCentre,"sb\pl.png",0,0 F,2,109460,109510,0,1 R,0,109510,,-1.570796 C,0,109510,,0,0,255 M,0,109510,109556,747,348,747,333.9998 F,2,109510,110085,1,0 V,2,109510,110085,1,7.5,0.5,1.5 P,0,109510,110085,A M,0,109556,109603,747,333.9998,747,319.9996 M,0,109603,109650,747,319.9996,747,305.9995 M,0,109650,109697,747,305.9995,747,291.718 M,0,109697,109744,747,291.718,747,276.7335 M,0,109744,109791,747,276.7335,747,261.7489 M,0,109791,109838,747,261.7489,747,246.7644 M,0,109838,109885,747,246.7644,747,231.7799
Sprite,Foreground,BottomCentre,"sb\pl.png",-107,128 F,2,110022,110072,0,1 R,0,110072,,1.570796 C,0,110072,,0,0,255 F,2,110072,110272,1,0 V,2,110072,110272,1,7.5,0.5,1.5 P,0,110072,110272,A
Sprite,Foreground,BottomCentre,"sb\pl.png",747,128 F,2,110022,110072,0,1 R,0,110072,,-1.570796 C,0,110072,,0,0,255 F,2,110072,110272,1,0 V,2,110072,110272,1,7.5,0.5,1.5 P,0,110072,110272,A
Sprite,Foreground,BottomCentre,"sb\pl.png",-107,128 F,2,110116,110166,0,1 R,0,110166,,1.570796 C,0,110166,,0,0,255 F,2,110166,110366,1,0 V,2,110166,110366,1,7.5,0.5,1.5 P,0,110166,110366,A
Sprite,Foreground,BottomCentre,"sb\pl.png",747,128 F,2,110116,110166,0,1 R,0,110166,,-1.570796 C,0,110166,,0,0,255 F,2,110166,110366,1,0 V,2,110166,110366,1,7.5,0.5,1.5 P,0,110166,110366,A
Sprite,Foreground,BottomCentre,"sb\pl.png",0,0 F,2,110210,110260,0,1 R,0,110260,,1.570796 C,0,110260,,0,0,255 M,0,110260,110306,-107,128,-107,142.983 F,2,110260,110647,1,0 V,2,110260,110647,1,7.5,0.5,1.5 P,0,110260,110647,A M,0,110306,110353,-107,142.983,-107,157.966 M,0,110353,110400,-107,157.966,-107,172.9491 M,0,110400,110447,-107,172.9491,-107,187.9321
Sprite,Foreground,BottomCentre,"sb\pl.png",0,0 F,2,110210,110260,0,1 R,0,110260,,-1.570796 C,0,110260,,0,0,255 M,0,110260,110306,747,128,747,142.983 F,2,110260,110647,1,0 V,2,110260,110647,1,7.5,0.5,1.5 P,0,110260,110647,A M,0,110306,110353,747,142.983,747,157.966 M,0,110353,110400,747,157.966,747,172.9491 M,0,110400,110447,747,172.9491,747,187.9321
Sprite,Foreground,BottomCentre,"sb\pl.png",0,0 F,2,110585,110635,0,1 R,0,110635,,1.570796 C,0,110635,,0,0,255 M,0,110635,110681,-107,152,-107,137.0207 F,2,110635,111022,1,0 V,2,110635,111022,1,7.5,0.5,1.5 P,0,110635,111022,A M,0,110681,110728,-107,137.0207,-107,122.0415 M,0,110728,110775,-107,122.0415,-107,107.0622 M,0,110775,110822,-107,107.0622,-107,92.08293
Sprite,Foreground,BottomCentre,"sb\pl.png",0,0 F,2,110585,110635,0,1 R,0,110635,,-1.570796 C,0,110635,,0,0,255 M,0,110635,110681,747,152,747,137.0207 F,2,110635,111022,1,0 V,2,110635,111022,1,7.5,0.5,1.5 P,0,110635,111022,A M,0,110681,110728,747,137.0207,747,122.0415 M,0,110728,110775,747,122.0415,747,107.0622 M,0,110775,110822,747,107.0622,747,92.08293
Sprite,Foreground,BottomCentre,"sb\pl.png",-107,248 F,2,110960,111010,0,1 R,0,111010,,1.570796 C,0,111010,,0,0,255 F,2,111010,111210,1,0 V,2,111010,111210,1,7.5,0.5,1.5 P,0,111010,111210,A
Sprite,Foreground,BottomCentre,"sb\pl.png",747,248 F,2,110960,111010,0,1 R,0,111010,,-1.570796 C,0,111010,,0,0,255 F,2,111010,111210,1,0 V,2,111010,111210,1,7.5,0.5,1.5 P,0,111010,111210,A
Sprite,Foreground,BottomCentre,"sb\pl.png",-107,184 F,2,111147,111197,0,1 R,0,111197,,1.570796 C,0,111197,,0,0,255 F,2,111197,111397,1,0 V,2,111197,111397,1,7.5,0.5,1.5 P,0,111197,111397,A
Sprite,Foreground,BottomCentre,"sb\pl.png",747,184 F,2,111147,111197,0,1 R,0,111197,,-1.570796 C,0,111197,,0,0,255 F,2,111197,111397,1,0 V,2,111197,111397,1,7.5,0.5,1.5 P,0,111197,111397,A
Sprite,Foreground,BottomCentre,"sb\pl.png",0,0 F,2,111335,111385,0,1 R,0,111385,,1.570796 C,0,111385,,0,0,255 M,0,111385,111431,-107,296,-107,289.4097 F,2,111385,111772,1,0 V,2,111385,111772,1,7.5,0.5,1.5 P,0,111385,111772,A M,0,111431,111478,-107,289.4097,-107,283.8992 M,0,111478,111525,-107,283.8992,-107,279.7355 M,0,111525,111572,-107,279.7355,-107,277.2791
Sprite,Foreground,BottomCentre,"sb\pl.png",0,0 F,2,111335,111385,0,1 R,0,111385,,-1.570796 C,0,111385,,0,0,255 M,0,111385,111431,747,296,747,289.4097 F,2,111385,111772,1,0 V,2,111385,111772,1,7.5,0.5,1.5 P,0,111385,111772,A M,0,111431,111478,747,289.4097,747,283.8992 M,0,111478,111525,747,283.8992,747,279.7355 M,0,111525,111572,747,279.7355,747,277.2791
Sprite,Foreground,BottomCentre,"sb\pl.png",0,0 F,2,111710,111760,0,1 R,0,111760,,1.570796 C,0,111760,,0,0,255 M,0,111760,111806,-107,232,-107,245.7331 F,2,111760,112147,1,0 V,2,111760,112147,1,7.5,0.5,1.5 P,0,111760,112147,A M,0,111806,111853,-107,245.7331,-107,260.088 M,0,111853,111900,-107,260.088,-107,274.9317 M,0,111900,111947,-107,274.9317,-107,289.8481
Sprite,Foreground,BottomCentre,"sb\pl.png",0,0 F,2,111710,111760,0,1 R,0,111760,,-1.570796 C,0,111760,,0,0,255 M,0,111760,111806,747,232,747,245.7331 F,2,111760,112147,1,0 V,2,111760,112147,1,7.5,0.5,1.5 P,0,111760,112147,A M,0,111806,111853,747,245.7331,747,260.088 M,0,111853,111900,747,260.088,747,274.9317 M,0,111900,111947,747,274.9317,747,289.8481
Sprite,Foreground,BottomCentre,"sb\pl.png",0,0 F,2,112085,112135,0,1 R,0,112135,,1.570796 C,0,112135,,0,0,255 M,0,112135,112181,-107,368,-107,375.4599 F,2,112135,112522,1,0 V,2,112135,112522,1,7.5,0.5,1.5 P,0,112135,112522,A M,0,112181,112228,-107,375.4599,-107,380.791 M,0,112228,112275,-107,380.791,-107,383.4927 M,0,112275,112322,-107,383.4927,-107,383.4715
Sprite,Foreground,BottomCentre,"sb\pl.png",0,0 F,2,112085,112135,0,1 R,0,112135,,-1.570796 C,0,112135,,0,0,255 M,0,112135,112181,747,368,747,375.4599 F,2,112135,112522,1,0 V,2,112135,112522,1,7.5,0.5,1.5 P,0,112135,112522,A M,0,112181,112228,747,375.4599,747,380.791 M,0,112228,112275,747,380.791,747,383.4927 M,0,112275,112322,747,383.4927,747,383.4715
Sprite,Foreground,BottomCentre,"sb\pl.png",0,0 F,2,112460,112510,0,1 R,0,112510,,1.570796 C,0,112510,,0,0,255 M,0,112510,112556,-107,416,-107,408.2826 F,2,112510,113085,1,0 V,2,112510,113085,1,7.5,0.5,1.5 P,0,112510,113085,A M,0,112556,112603,-107,408.2826,-107,400.5651 M,0,112603,112650,-107,400.5651,-107,392.8477 M,0,112650,112697,-107,392.8477,-107,395.8368 M,0,112697,112744,-107,395.8368,-107,400.147 M,0,112744,112791,-107,400.147,-107,404.4572 M,0,112791,112838,-107,404.4572,-107,408.7674 M,0,112838,112885,-107,408.7674,-107,413.0776
Sprite,Foreground,BottomCentre,"sb\pl.png",0,0 F,2,112460,112510,0,1 R,0,112510,,-1.570796 C,0,112510,,0,0,255 M,0,112510,112556,747,416,747,408.2826 F,2,112510,113085,1,0 V,2,112510,113085,1,7.5,0.5,1.5 P,0,112510,113085,A M,0,112556,112603,747,408.2826,747,400.5651 M,0,112603,112650,747,400.5651,747,392.8477 M,0,112650,112697,747,392.8477,747,395.8368 M,0,112697,112744,747,395.8368,747,400.147 M,0,112744,112791,747,400.147,747,404.4572 M,0,112791,112838,747,404.4572,747,408.7674 M,0,112838,112885,747,408.7674,747,413.0776
Sprite,Foreground,BottomCentre,"sb\pl.png",-107,360 F,2,113022,113072,0,1 R,0,113072,,1.570796 C,0,113072,,0,0,255 F,2,113072,113272,1,0 V,2,113072,113272,1,7.5,0.5,1.5 P,0,113072,113272,A
Sprite,Foreground,BottomCentre,"sb\pl.png",747,360 F,2,113022,113072,0,1 R,0,113072,,-1.570796 C,0,113072,,0,0,255 F,2,113072,113272,1,0 V,2,113072,113272,1,7.5,0.5,1.5 P,0,113072,113272,A
Sprite,Foreground,BottomCentre,"sb\pl.png",-107,360 F,2,113116,113166,0,1 R,0,113166,,1.570796 C,0,113166,,0,0,255 F,2,113166,113366,1,0 V,2,113166,113366,1,7.5,0.5,1.5 P,0,113166,113366,A
Sprite,Foreground,BottomCentre,"sb\pl.png",747,360 F,2,113116,113166,0,1 R,0,113166,,-1.570796 C,0,113166,,0,0,255 F,2,113166,113366,1,0 V,2,113166,113366,1,7.5,0.5,1.5 P,0,113166,113366,A
Sprite,Foreground,BottomCentre,"sb\pl.png",0,0 F,2,113210,113260,0,1 R,0,113260,,1.570796 C,0,113260,,0,0,255 M,0,113260,113306,-107,360,-107,355.6898 F,2,113260,113647,1,0 V,2,113260,113647,1,7.5,0.5,1.5 P,0,113260,113647,A M,0,113306,113353,-107,355.6898,-107,351.3796 M,0,113353,113400,-107,351.3796,-107,347.0693 M,0,113400,113447,-107,347.0693,-107,342.7591
Sprite,Foreground,BottomCentre,"sb\pl.png",0,0 F,2,113210,113260,0,1 R,0,113260,,-1.570796 C,0,113260,,0,0,255 M,0,113260,113306,747,360,747,355.6898 F,2,113260,113647,1,0 V,2,113260,113647,1,7.5,0.5,1.5 P,0,113260,113647,A M,0,113306,113353,747,355.6898,747,351.3796 M,0,113353,113400,747,351.3796,747,347.0693 M,0,113400,113447,747,347.0693,747,342.7591
Sprite,Foreground,BottomCentre,"sb\pl.png",0,0 F,2,113585,113635,0,1 R,0,113635,,1.570796 C,0,113635,,0,0,255 M,0,113635,113681,-107,260,-107,255.5259 F,2,113635,114022,1,0 V,2,113635,114022,1,7.5,0.5,1.5 P,0,113635,114022,A M,0,113681,113728,-107,255.5259,-107,251.0517 M,0,113728,113775,-107,251.0517,-107,246.5776 M,0,113775,113822,-107,246.5776,-107,242.1035
Sprite,Foreground,BottomCentre,"sb\pl.png",0,0 F,2,113585,113635,0,1 R,0,113635,,-1.570796 C,0,113635,,0,0,255 M,0,113635,113681,747,260,747,255.5259 F,2,113635,114022,1,0 V,2,113635,114022,1,7.5,0.5,1.5 P,0,113635,114022,A M,0,113681,113728,747,255.5259,747,251.0517 M,0,113728,113775,747,251.0517,747,246.5776 M,0,113775,113822,747,246.5776,747,242.1035
Sprite,Foreground,BottomCentre,"sb\pl.png",0,0 F,2,113960,114010,0,1 R,0,114010,,1.570796 C,0,114010,,0,0,255 M,0,114010,114056,-107,200,-107,214.6428 F,2,114010,114397,1,0 V,2,114010,114397,1,7.5,0.5,1.5 P,0,114010,114397,A M,0,114056,114103,-107,214.6428,-107,229.2856 M,0,114103,114150,-107,229.2856,-107,243.9284 M,0,114150,114197,-107,243.9284,-107,258.5712
Sprite,Foreground,BottomCentre,"sb\pl.png",0,0 F,2,113960,114010,0,1 R,0,114010,,-1.570796 C,0,114010,,0,0,255 M,0,114010,114056,747,200,747,214.6428 F,2,114010,114397,1,0 V,2,114010,114397,1,7.5,0.5,1.5 P,0,114010,114397,A M,0,114056,114103,747,214.6428,747,229.2856 M,0,114103,114150,747,229.2856,747,243.9284 M,0,114150,114197,747,243.9284,747,258.5712
Sprite,Foreground,BottomCentre,"sb\pl.png",0,0 F,2,114335,114385,0,1 R,0,114385,,1.570796 C,0,114385,,0,0,255 M,0,114385,114431,-107,154,-107,167.5122 F,2,114385,114960,1,0 V,2,114385,114960,1,7.5,0.5,1.5 P,0,114385,114960,A M,0,114431,114478,-107,167.5122,-107,181.7953 M,0,114478,114525,-107,181.7953,-107,196.6432 M,0,114525,114572,-107,196.6432,-107,211.5686 M,0,114572,114619,-107,211.5686,-107,196.6432 M,0,114619,114666,-107,196.6432,-107,181.7953 M,0,114666,114713,-107,181.7953,-107,167.5122 M,0,114713,114760,-107,167.5122,-107,154
Sprite,Foreground,BottomCentre,"sb\pl.png",0,0 F,2,114335,114385,0,1 R,0,114385,,-1.570796 C,0,114385,,0,0,255 M,0,114385,114431,747,154,747,167.5122 F,2,114385,114960,1,0 V,2,114385,114960,1,7.5,0.5,1.5 P,0,114385,114960,A M,0,114431,114478,747,167.5122,747,181.7953 M,0,114478,114525,747,181.7953,747,196.6432 M,0,114525,114572,747,196.6432,747,211.5686 M,0,114572,114619,747,211.5686,747,196.6432 M,0,114619,114666,747,196.6432,747,181.7953 M,0,114666,114713,747,181.7953,747,167.5122 M,0,114713,114760,747,167.5122,747,154
Sprite,Foreground,BottomCentre,"sb\pl.png",-107,112 F,2,114897,114947,0,1 R,0,114947,,1.570796 C,0,114947,,0,0,255 F,2,114947,115147,1,0 V,2,114947,115147,1,7.5,0.5,1.5 P,0,114947,115147,A
Sprite,Foreground,BottomCentre,"sb\pl.png",747,112 F,2,114897,114947,0,1 R,0,114947,,-1.570796 C,0,114947,,0,0,255 F,2,114947,115147,1,0 V,2,114947,115147,1,7.5,0.5,1.5 P,0,114947,115147,A
Sprite,Foreground,BottomCentre,"sb\pl.png",-107,112 F,2,114991,115041,0,1 R,0,115041,,1.570796 C,0,115041,,0,0,255 F,2,115041,115241,1,0 V,2,115041,115241,1,7.5,0.5,1.5 P,0,115041,115241,A
Sprite,Foreground,BottomCentre,"sb\pl.png",747,112 F,2,114991,115041,0,1 R,0,115041,,-1.570796 C,0,115041,,0,0,255 F,2,115041,115241,1,0 V,2,115041,115241,1,7.5,0.5,1.5 P,0,115041,115241,A
Sprite,Foreground,BottomCentre,"sb\pl.png",0,0 F,2,115085,115135,0,1 R,0,115135,,1.570796 C,0,115135,,0,0,255 M,0,115135,115181,-107,112,-107,113.4926 F,2,115135,115522,1,0 V,2,115135,115522,1,7.5,0.5,1.5 P,0,115135,115522,A M,0,115181,115228,-107,113.4926,-107,114.9851 M,0,115228,115275,-107,114.9851,-107,113.4926 M,0,115275,115322,-107,113.4926,-107,112
Sprite,Foreground,BottomCentre,"sb\pl.png",0,0 F,2,115085,115135,0,1 R,0,115135,,-1.570796 C,0,115135,,0,0,255 M,0,115135,115181,747,112,747,113.4926 F,2,115135,115522,1,0 V,2,115135,115522,1,7.5,0.5,1.5 P,0,115135,115522,A M,0,115181,115228,747,113.4926,747,114.9851 M,0,115228,115275,747,114.9851,747,113.4926 M,0,115275,115322,747,113.4926,747,112
Sprite,Foreground,BottomCentre,"sb\pl.png",0,0 F,2,115460,115510,0,1 R,0,115510,,1.570796 C,0,115510,,0,0,255 M,0,115510,115556,-107,136,-107,150.7718 F,2,115510,115897,1,0 V,2,115510,115897,1,7.5,0.5,1.5 P,0,115510,115897,A M,0,115556,115603,-107,150.7718,-107,165.5435 M,0,115603,115650,-107,165.5435,-107,180.3153 M,0,115650,115697,-107,180.3153,-107,195.087
Sprite,Foreground,BottomCentre,"sb\pl.png",0,0 F,2,115460,115510,0,1 R,0,115510,,-1.570796 C,0,115510,,0,0,255 M,0,115510,115556,747,136,747,150.7718 F,2,115510,115897,1,0 V,2,115510,115897,1,7.5,0.5,1.5 P,0,115510,115897,A M,0,115556,115603,747,150.7718,747,165.5435 M,0,115603,115650,747,165.5435,747,180.3153 M,0,115650,115697,747,180.3153,747,195.087
Sprite,Foreground,BottomCentre,"sb\pl.png",-107,288 F,2,115835,115885,0,1 R,0,115885,,1.570796 C,0,115885,,0,0,255 F,2,115885,116085,1,0 V,2,115885,116085,1,7.5,0.5,1.5 P,0,115885,116085,A
Sprite,Foreground,BottomCentre,"sb\pl.png",747,288 F,2,115835,115885,0,1 R,0,115885,,-1.570796 C,0,115885,,0,0,255 F,2,115885,116085,1,0 V,2,115885,116085,1,7.5,0.5,1.5 P,0,115885,116085,A
Sprite,Foreground,BottomCentre,"sb\pl.png",-107,256 F,2,116022,116072,0,1 R,0,116072,,1.570796 C,0,116072,,0,0,255 F,2,116072,116272,1,0 V,2,116072,116272,1,7.5,0.5,1.5 P,0,116072,116272,A
Sprite,Foreground,BottomCentre,"sb\pl.png",747,256 F,2,116022,116072,0,1 R,0,116072,,-1.570796 C,0,116072,,0,0,255 F,2,116072,116272,1,0 V,2,116072,116272,1,7.5,0.5,1.5 P,0,116072,116272,A
Sprite,Foreground,BottomCentre,"sb\pl.png",-107,256 F,2,116116,116166,0,1 R,0,116166,,1.570796 C,0,116166,,0,0,255 F,2,116166,116366,1,0 V,2,116166,116366,1,7.5,0.5,1.5 P,0,116166,116366,A
Sprite,Foreground,BottomCentre,"sb\pl.png",747,256 F,2,116116,116166,0,1 R,0,116166,,-1.570796 C,0,116166,,0,0,255 F,2,116166,116366,1,0 V,2,116166,116366,1,7.5,0.5,1.5 P,0,116166,116366,A
Sprite,Foreground,BottomCentre,"sb\pl.png",0,0 F,2,116210,116260,0,1 R,0,116260,,1.570796 C,0,116260,,0,0,255 M,0,116260,116306,-107,256,-107,247.6298 F,2,116260,116835,1,0 V,2,116260,116835,1,7.5,0.5,1.5 P,0,116260,116835,A M,0,116306,116353,-107,247.6298,-107,241.2763 M,0,116353,116400,-107,241.2763,-107,237.4432 M,0,116400,116447,-107,237.4432,-107,236.2571 M,0,116447,116494,-107,236.2571,-107,237.7604 M,0,116494,116541,-107,237.7604,-107,241.9101 M,0,116541,116588,-107,241.9101,-107,248.5789 M,0,116588,116635,-107,248.5789,-107,257.9056
Sprite,Foreground,BottomCentre,"sb\pl.png",0,0 F,2,116210,116260,0,1 R,0,116260,,-1.570796 C,0,116260,,0,0,255 M,0,116260,116306,747,256,747,247.6298 F,2,116260,116835,1,0 V,2,116260,116835,1,7.5,0.5,1.5 P,0,116260,116835,A M,0,116306,116353,747,247.6298,747,241.2763 M,0,116353,116400,747,241.2763,747,237.4432 M,0,116400,116447,747,237.4432,747,236.2571 M,0,116447,116494,747,236.2571,747,237.7604 M,0,116494,116541,747,237.7604,747,241.9101 M,0,116541,116588,747,241.9101,747,248.5789 M,0,116588,116635,747,248.5789,747,257.9056
Sprite,Foreground,BottomCentre,"sb\pl.png",-107,336 F,2,116772,116822,0,1 R,0,116822,,1.570796 C,0,116822,,0,0,255 F,2,116822,117022,1,0 V,2,116822,117022,1,7.5,0.5,1.5 P,0,116822,117022,A
Sprite,Foreground,BottomCentre,"sb\pl.png",747,336 F,2,116772,116822,0,1 R,0,116822,,-1.570796 C,0,116822,,0,0,255 F,2,116822,117022,1,0 V,2,116822,117022,1,7.5,0.5,1.5 P,0,116822,117022,A
Sprite,Foreground,BottomCentre,"sb\pl.png",0,0 F,2,116960,117010,0,1 R,0,117010,,1.570796 C,0,117010,,0,0,255 M,0,117010,117056,-107,412,-107,420.5124 F,2,117010,117585,1,0 V,2,117010,117585,1,7.5,0.5,1.5 P,0,117010,117585,A M,0,117056,117103,-107,420.5124,-107,427.1371 M,0,117103,117150,-107,427.1371,-107,431.3437 M,0,117150,117197,-107,431.3437,-107,432.995 M,0,117197,117244,-107,432.995,-107,431.3896 M,0,117244,117291,-107,431.3896,-107,427.6484 M,0,117291,117338,-107,427.6484,-107,421.4427 M,0,117338,117385,-107,421.4427,-107,413
Sprite,Foreground,BottomCentre,"sb\pl.png",0,0 F,2,116960,117010,0,1 R,0,117010,,-1.570796 C,0,117010,,0,0,255 M,0,117010,117056,747,412,747,420.5124 F,2,117010,117585,1,0 V,2,117010,117585,1,7.5,0.5,1.5 P,0,117010,117585,A M,0,117056,117103,747,420.5124,747,427.1371 M,0,117103,117150,747,427.1371,747,431.3437 M,0,117150,117197,747,431.3437,747,432.995 M,0,117197,117244,747,432.995,747,431.3896 M,0,117244,117291,747,431.3896,747,427.6484 M,0,117291,117338,747,427.6484,747,421.4427 M,0,117338,117385,747,421.4427,747,413
Sprite,Foreground,BottomCentre,"sb\pl.png",0,0 F,2,117710,117760,0,1 R,0,117760,,1.570796 C,0,117760,,0,0,255 M,0,117760,117806,-107,376,-107,378.5676 F,2,117760,118522,1,0 V,2,117760,118522,1,7.5,0.5,1.5 P,0,117760,118522,A M,0,117806,117853,-107,378.5676,-107,383.4506 M,0,117853,117900,-107,383.4506,-107,390.7311 M,0,117900,117947,-107,390.7311,-107,400.1969 M,0,117947,117994,-107,400.1969,-107,411.4205 M,0,117994,118041,-107,411.4205,-107,397.7371 M,0,118041,118088,-107,397.7371,-107,382.9147 M,0,118088,118135,-107,382.9147,-107,368.6562 M,0,118135,118181,-107,368.6562,-107,355.3782 M,0,118181,118228,-107,355.3782,-107,343.3795 M,0,118228,118275,-107,343.3795,-107,332.7719 M,0,118275,118322,-107,332.7719,-107,323.5059
Sprite,Foreground,BottomCentre,"sb\pl.png",0,0 F,2,117710,117760,0,1 R,0,117760,,-1.570796 C,0,117760,,0,0,255 M,0,117760,117806,747,376,747,378.5676 F,2,117760,118522,1,0 V,2,117760,118522,1,7.5,0.5,1.5 P,0,117760,118522,A M,0,117806,117853,747,378.5676,747,383.4506 M,0,117853,117900,747,383.4506,747,390.7311 M,0,117900,117947,747,390.7311,747,400.1969 M,0,117947,117994,747,400.1969,747,411.4205 M,0,117994,118041,747,411.4205,747,397.7371 M,0,118041,118088,747,397.7371,747,382.9147 M,0,118088,118135,747,382.9147,747,368.6562 M,0,118135,118181,747,368.6562,747,355.3782 M,0,118181,118228,747,355.3782,747,343.3795 M,0,118228,118275,747,343.3795,747,332.7719 M,0,118275,118322,747,332.7719,747,323.5059
//Storyboard Sound Samples

[TimingPoints]
10,375,4,2,1,40,1,0
1510,-100,4,2,6,35,0,0
18010,-100,4,2,6,15,0,0
19510,-100,4,3,1,40,0,0
20260,-100,4,3,6,50,0,0
20635,-100,4,3,1,40,0,0
21760,-100,4,3,6,50,0,0
22135,-100,4,3,1,40,0,0
22697,-100,4,2,3,20,0,0
23260,-100,4,3,6,30,0,0
23447,-100,4,2,3,20,0,0
24010,-100,4,3,6,30,0,0
24197,-100,4,2,3,20,0,0
24760,-100,4,3,6,30,0,0
24947,-100,4,2,3,40,0,0
25135,-100,4,3,6,50,0,0
25322,-100,4,3,1,60,0,0
25510,-100,4,3,1,45,0,0
26260,-100,4,3,6,55,0,0
26447,-100,4,3,1,45,0,0
27760,-100,4,3,6,55,0,0
27947,-100,4,3,1,45,0,0
28510,-100,4,2,3,20,0,0
29259,-100,4,3,6,30,0,0
29447,-100,4,2,3,20,0,0
30010,-100,4,2,0,35,0,0
32072,-100,4,2,0,15,0,0
33010,-100,4,2,2,45,0,0
43510,-100,4,2,3,55,0,1
43885,-100,4,2,0,35,0,1
44260,-100,4,2,3,55,0,1
44635,-100,4,2,0,35,0,1
45010,-100,4,2,3,55,0,1
45385,-100,4,2,0,35,0,1
45760,-100,4,2,3,55,0,1
46135,-100,4,2,0,35,0,1
46510,-100,4,2,3,55,0,1
48197,-100,4,2,3,35,0,1
48947,-100,4,2,3,65,0,1
49510,-100,4,2,3,55,0,1
49885,-100,4,2,0,35,0,1
50260,-100,4,2,3,55,0,1
50635,-100,4,2,0,35,0,1
51010,-100,4,2,3,55,0,1
51385,-100,4,2,0,35,0,1
51760,-100,4,2,3,55,0,1
52135,-100,4,2,0,35,0,1
52510,-100,4,2,3,55,0,1
54010,-100,4,2,3,65,0,1
55510,-100,4,2,3,55,0,1
55885,-100,4,2,0,45,0,1
56260,-100,4,2,3,55,0,1
56635,-100,4,2,0,45,0,1
57010,-100,4,2,3,55,0,1
60010,-100,4,2,3,35,0,1
61510,-100,4,2,3,55,0,1
61885,-100,4,2,0,45,0,1
62260,-100,4,2,3,55,0,1
62635,-100,4,2,0,45,0,1
63010,-100,4,2,3,55,0,1
66010,-100,4,2,3,45,0,0
69010,-100,4,2,3,50,0,0
70510,-100,4,2,3,40,0,0
72010,-100,4,2,3,55,0,0
77260,-100,4,2,3,15,0,0
78010,-100,4,3,2,60,0,0
78385,-100,4,3,3,50,0,0
78760,-100,4,3,4,40,0,0
79135,-100,4,3,3,60,0,0
79885,-100,4,2,3,70,0,0
80635,-100,4,3,3,70,0,0
80822,-100,4,3,4,70,0,0
81010,-100,4,3,2,50,0,0
81385,-100,4,3,5,50,0,0
81760,-100,4,2,3,70,0,0
82697,-100,4,2,3,50,0,0
82885,-100,4,3,2,70,0,0
83072,-100,4,2,3,40,0,0
83822,-100,4,3,3,50,0,0
84010,-100,4,2,3,50,0,0
84291,-100,4,3,4,50,0,0
84572,-100,4,3,2,60,0,0
84760,-100,4,2,3,60,0,0
84947,-100,4,3,4,50,0,0
85135,-100,4,3,4,60,0,0
85322,-100,4,3,2,60,0,0
85416,-100,4,2,3,40,0,0
85885,-100,4,2,3,60,0,0
86072,-100,4,2,3,40,0,0
86260,-100,4,2,3,70,0,0
86822,-100,4,3,3,70,0,0
87010,-100,4,2,3,50,0,0
87385,-100,4,2,3,70,0,0
87947,-100,4,3,4,70,0,0
88510,-100,4,2,3,70,0,0
88697,-100,4,3,5,70,0,0
88885,-100,4,2,3,50,0,0
89260,-100,4,2,3,70,0,0
89635,-100,4,3,4,70,0,0
89822,-100,4,2,3,50,0,0
90010,-100,4,3,2,40,0,0
90385,-100,4,3,4,50,0,0
90760,-100,4,2,3,70,0,0
92635,-100,4,3,3,40,0,0
92822,-100,4,3,2,60,0,0
93010,-100,4,3,4,60,0,0
93760,-100,4,2,3,60,0,0
93947,-100,4,3,4,60,0,0
94697,-100,4,2,3,60,0,0
95072,-100,4,2,3,40,0,0
95822,-100,4,3,2,40,0,0
96010,-100,4,3,3,50,0,0
96291,-100,4,3,4,40,0,0
96572,-100,4,3,4,50,0,0
96760,-100,4,2,3,70,0,0
97697,-100,4,2,3,50,0,0
98635,-100,4,3,4,60,0,0
99010,-100,4,3,2,70,0,0
99385,-100,4,3,3,50,0,0
99760,-100,4,2,3,60,0,0
100322,-100,4,3,4,60,0,0
100697,-100,4,2,3,70,0,0
101072,-100,4,2,3,50,0,0
101447,-100,4,2,3,20,0,0
102010,-100,4,2,2,45,0,0
103510,-100,4,2,2,50,0,0
104260,-100,4,2,2,30,0,0
104635,-100,4,2,2,50,0,0
106510,-100,4,2,2,30,0,0
106697,-100,4,2,2,50,0,0
108010,-100,4,2,2,30,0,0
108197,-100,4,2,2,50,0,0
109510,-100,4,2,3,55,0,0
117010,-100,4,2,3,45,0,0
117760,-100,4,2,3,30,0,0
118510,-100,4,2,0,35,0,0
130510,-200,4,2,0,25,0,0
141010,-200,4,2,0,20,0,0

[Colours]
Combo1 : 141,209,224
Combo2 : 128,128,128
Combo3 : 0,128,192
Combo4 : 192,192,192

[HitObjects]
188,320,1510,6,0,B|276:288|348:328|348:328|308:288|324:240,1,240,4|4,0:0|0:0,0:0:0:0:
296,124,3010,2,0,P|352:124|408:172,2,120,4|2|2,0:0|0:0|0:0,0:0:0:0:
212,172,4135,1,2,0:0:0:0:
212,76,4510,5,4,0:0:0:0:
212,76,5260,2,0,P|156:72|104:28,1,120,2|2,0:0|0:0,0:0:0:0:
36,96,6010,2,0,P|60:146|48:213,1,120,2|2,0:0|0:0,0:0:0:0:
140,248,6760,2,0,P|171:201|235:178,1,120,2|2,0:0|0:0,0:0:0:0:
232,276,7510,5,4,0:0:0:0:
308,216,7885,1,2,0:0:0:0:
328,300,8260,2,0,B|316:332|308:340|308:340|364:316|392:332,1,120,2|2,0:0|0:0,0:0:0:0:
472,360,9010,2,0,P|472:292|428:248,2,120,4|0|2,0:0|0:0|0:0,0:0:0:0:
472,360,10135,1,0,0:0:0:0:
356,224,10510,6,0,B|392:156|468:176|468:176|427:137|432:80,1,240,4|2,0:0|0:0,0:0:0:0:
344,108,11635,1,2,0:0:0:0:
252,144,12010,2,0,B|257:87|216:48|216:48|292:68|328:0,1,240,6|4,0:0|0:0,0:0:0:0:
256,192,13510,12,0,18010,0:0:0:0:
400,240,19510,6,0,P|412:192|384:120,1,120,6|2,0:0|0:0,0:0:0:0:
316,188,20072,1,0,0:0:0:0:
268,104,20260,2,0,P|232:97|196:84,1,60,8|0,0:0|0:0,0:0:0:0:
128,40,20635,2,0,P|124:72|116:120,1,60,2|8,0:0|0:0,0:0:0:0:
96,208,21010,6,0,P|176:180|224:204,1,120,2|2,0:0|0:0,0:0:0:0:
160,276,21572,1,0,0:0:0:0:
72,304,21760,1,8,0:0:0:0:
132,376,21947,1,0,0:0:0:0:
220,348,22135,2,0,P|260:344|288:348,1,60,8|0,0:0|0:0,0:0:0:0:
376,364,22510,5,6,0:0:0:0:
456,316,22697,2,0,L|448:268,4,30,2|2|2|2|2,0:0|0:0|0:0|0:0|0:0,0:0:0:0:
488,208,23260,1,12,0:0:0:0:
424,104,23447,2,0,L|419:133,4,30,2|2|2|2|2,0:0|0:0|0:0|0:0|0:0,0:0:0:0:
351,193,24009,5,12,0:0:0:0:
252,120,24197,2,0,L|304:124,4,30,2|0|2|2|2,0:0|0:0|0:0|0:0|0:0,0:0:0:0:
152,80,24760,2,0,L|164:144,1,60,12|6,0:0|0:0,0:0:0:0:
212,268,25135,2,0,L|224:188,1,60,6|8,0:0|0:0,0:0:0:0:
128,300,25510,6,0,P|164:348|240:352,1,120,6|2,0:0|0:0,0:0:0:0:
292,320,26072,1,0,0:0:0:0:
416,364,26260,2,0,L|432:280,1,60,8|0,0:0|0:0,0:0:0:0:
368,228,26635,2,0,P|416:208|448:212,1,60,2|8,0:0|0:0,0:0:0:0:
340,140,27010,6,0,P|288:144|232:88,1,120,0|6,0:0|0:0,0:0:0:0:
316,52,27572,1,0,0:0:0:0:
176,24,27760,2,0,P|120:32|96:24,1,60,12|0,0:0|0:0,0:0:0:0:
0,108,28135,2,0,P|56:100|80:108,1,60,6|8,0:0|0:0,0:0:0:0:
128,172,28510,6,0,B|140:252|80:300|80:300|140:296|140:296,1,180,4|2,0:0|0:0,0:0:0:0:
220,332,29260,2,0,L|216:252,1,60,8|2,0:0|0:0,0:0:0:0:
268,188,29635,2,0,L|272:132,2,30,2|2|2,0:0|0:0|0:0,0:0:0:0:
228,72,30010,1,2,0:0:0:0:
256,192,30103,12,6,32260,0:0:0:0:
200,256,33010,6,0,P|264:232|324:260,2,120,2|2|2,0:0|0:0|0:0,0:0:0:0:
128,320,33947,1,0,0:0:0:0:
44,272,34135,2,0,P|36:228|40:196,1,60,0|0,0:0|0:0,0:0:0:0:
92,132,34510,6,0,P|140:176|204:168,1,120,2|0,0:0|0:0,0:0:0:0:
168,80,35072,1,0,0:0:0:0:
248,28,35260,2,0,L|276:92,1,60,2|0,0:0|0:0,0:0:0:0:
368,76,35635,2,0,L|348:160,1,60,2|0,0:0|0:0,0:0:0:0:
440,172,36010,6,0,B|388:212|388:212|336:272,1,120,2|0,0:0|0:0,0:0:0:0:
292,328,36572,1,0,0:0:0:0:
216,272,36760,2,0,L|192:196,1,60,6|0,0:0|0:0,0:0:0:0:
260,140,37135,2,0,L|284:208,1,60,0|8,0:0|0:0,0:0:0:0:
116,256,37510,6,0,L|76:120,1,120,12|2,0:0|0:0,0:0:0:0:
32,60,38072,1,0,0:0:0:0:
32,60,38166,1,0,0:0:0:0:
32,60,38260,2,0,P|72:48|96:52,1,60,6|0,0:0|0:0,0:0:0:0:
172,104,38635,2,0,P|216:104|240:92,1,60,6|8,0:0|0:0,0:0:0:0:
336,20,39010,6,0,P|328:84|368:140,1,120,8|2,0:0|0:0,0:0:0:0:
420,60,39572,1,0,0:0:0:0:
460,144,39760,2,0,L|428:212,1,60,2|0,0:0|0:0,0:0:0:0:
356,240,40135,2,0,P|408:280|424:280,1,60,10|0,0:0|0:0,0:0:0:0:
488,260,40510,6,0,B|476:320|476:320|484:352,1,90,8|0,0:0|0:0,0:0:0:0:
488,364,40885,2,0,L|412:356,1,60,8|0,0:0|0:0,0:0:0:0:
332,336,41260,2,0,L|204:360,1,120,10|8,0:0|0:0,0:0:0:0:
120,368,41822,1,2,0:0:0:0:
32,332,42010,6,0,P|64:292|96:284,1,60,2|0,0:0|0:0,0:0:0:0:
168,288,42385,2,0,L|152:216,1,60,0|0,0:0|0:0,0:0:0:0:
84,168,42760,1,2,0:0:0:0:
84,168,42853,1,0,0:0:0:0:
84,168,42947,1,0,0:0:0:0:
176,136,43135,2,0,L|148:52,1,60,10|10,0:0|0:0,0:0:0:0:
84,32,43510,6,0,P|136:-8|204:12,1,120,2|10,0:0|0:0,0:0:0:0:
260,64,44072,1,2,0:0:0:0:
352,32,44260,2,0,B|360:76|360:76|336:168,1,120,8|2,0:0|0:0,0:0:0:0:
320,244,44822,1,2,0:0:0:0:
408,200,45010,6,0,L|472:196,1,60,2|0,0:0|0:0,0:0:0:0:
468,292,45385,2,0,L|388:296,1,60,10|2,0:0|0:0,0:0:0:0:
328,352,45760,2,0,P|272:336|204:356,1,120,8|2,0:0|0:0,0:0:0:0:
213,350,46322,1,2,0:0:0:0:
88,320,46510,6,0,P|140:296|156:272,1,60,2|0,0:0|0:0,0:0:0:0:
208,224,46885,2,0,P|152:208|136:192,1,60,0|0,0:0|0:0,0:0:0:0:
56,220,47260,2,0,P|76:144|136:120,1,120,8|0,0:0|0:0,0:0:0:0:
204,136,47822,1,0,0:0:0:0:
160,48,48010,5,2,0:0:0:0:
256,64,48197,1,2,0:0:0:0:
256,64,48291,1,2,0:0:0:0:
256,64,48385,2,0,L|300:52,2,30,2|2|2,0:0|0:0|0:0,0:0:0:0:
384,56,48760,2,0,B|368:136|368:136|384:196,1,120,12|8,0:0|0:0,0:0:0:0:
377,173,49322,1,0,0:0:0:0:
448,240,49510,6,0,P|392:272|320:248,1,120,2|10,0:0|0:0,0:0:0:0:
252,228,50072,1,2,0:0:0:0:
162,259,50260,2,0,P|195:308|252:324,1,120,10|2,0:0|0:0,0:0:0:0:
252,228,50822,1,2,0:0:0:0:
172,172,51010,6,0,P|136:172|96:200,1,60,2|0,0:0|0:0,0:0:0:0:
28,244,51385,2,0,P|24:188|16:172,1,60,10|2,0:0|0:0,0:0:0:0:
12,76,51760,2,0,P|48:104|132:80,1,120,8|2,0:0|0:0,0:0:0:0:
188,28,52322,1,2,0:0:0:0:
252,100,52510,6,0,L|232:168,1,60,2|0,0:0|0:0,0:0:0:0:
340,216,52885,2,0,L|328:144,1,60,0|0,0:0|0:0,0:0:0:0:
332,60,53260,2,0,P|376:76|412:76,1,60,8|0,0:0|0:0,0:0:0:0:
500,128,53635,2,0,P|448:136|416:188,1,90,0|0,0:0|0:0,0:0:0:0:
423,162,54010,5,6,0:0:0:0:
496,216,54197,1,2,0:0:0:0:
376,264,54385,1,2,0:0:0:0:
488,324,54572,1,2,0:0:0:0:
356,376,54760,1,8,0:0:0:0:
240,300,54947,1,0,0:0:0:0:
240,300,55041,1,0,0:0:0:0:
240,300,55135,2,0,L|168:316,1,60,8|2,0:0|0:0,0:0:0:0:
108,372,55510,6,0,P|88:308|108:252,1,120,6|10,0:0|0:0,0:0:0:0:
188,212,56072,1,2,0:0:0:0:
260,148,56260,2,0,B|192:128|192:128|116:144,1,120,10|2,0:0|0:0,0:0:0:0:
56,176,56822,1,2,0:0:0:0:
0,100,57010,6,0,L|8:28,1,60,2|0,0:0|0:0,0:0:0:0:
94,8,57385,2,0,L|87:67,1,60,0|0,0:0|0:0,0:0:0:0:
56,176,57760,2,0,P|136:144|176:156,1,120,8|2,0:0|0:0,0:0:0:0:
165,151,58322,1,8,0:0:0:0:
272,76,58510,6,0,L|256:144,1,60,2|0,0:0|0:0,0:0:0:0:
232,228,58885,2,0,L|292:216,1,60,0|0,0:0|0:0,0:0:0:0:
356,144,59260,2,0,L|384:226,1,60,8|0,0:0|0:0,0:0:0:0:
408,292,59635,2,0,L|336:280,1,60,0|0,0:0|0:0,0:0:0:0:
272,340,60010,5,2,0:0:0:0:
184,300,60197,1,2,0:0:0:0:
184,300,60291,1,2,0:0:0:0:
184,300,60385,2,0,L|136:320,2,30,2|2|2,0:0|0:0|0:0,0:0:0:0:
64,328,60760,2,0,L|96:208,1,120,12|10,0:0|0:0,0:0:0:0:
60,128,61322,1,2,0:0:0:0:
60,128,61416,1,0,0:0:0:0:
60,128,61510,6,0,P|112:120|172:172,1,120,2|10,0:0|0:0,0:0:0:0:
220,236,62072,1,2,0:0:0:0:
296,296,62260,2,0,B|312:248|312:248|296:160,1,120,10|2,0:0|0:0,0:0:0:0:
244,100,62822,1,2,0:0:0:0:
320,44,63010,6,0,L|396:64,1,60,6|0,0:0|0:0,0:0:0:0:
476,56,63385,2,0,L|452:128,1,60,2|0,0:0|0:0,0:0:0:0:
472,208,63760,2,0,P|404:196|368:136,1,120,8|8,0:0|0:0,0:0:0:0:
373,158,64322,1,0,0:0:0:0:
264,124,64510,6,0,L|280:200,1,60,2|0,0:0|0:0,0:0:0:0:
312,280,64885,2,0,L|248:284,1,60,0|0,0:0|0:0,0:0:0:0:
160,308,65260,2,0,L|176:224,1,60,8|0,0:0|0:0,0:0:0:0:
148,100,65635,2,0,L|136:168,1,60,8|0,0:0|0:0,0:0:0:0:
56,244,66010,6,0,P|32:188|40:116,1,120,6|2,0:0|0:0,0:0:0:0:
224,16,66760,2,0,P|248:72|240:144,1,120,6|2,0:0|0:0,0:0:0:0:
216,284,67510,6,0,L|291:258,1,60,6|0,0:0|0:0,0:0:0:0:
376,204,67885,2,0,L|300:178,1,60,2|0,0:0|0:0,0:0:0:0:
264,368,68260,2,0,P|296:348|339:342,1,60,6|0,0:0|0:0,0:0:0:0:
432,328,68635,2,0,P|464:344|488:347,1,60,12|0,0:0|0:0,0:0:0:0:
504,248,69010,5,2,0:0:0:0:
472,172,69197,1,2,0:0:0:0:
464,72,69385,2,0,P|436:104|404:112,1,60,2|2,0:0|0:0,0:0:0:0:
339,196,69760,2,0,P|383:192|415:200,2,60,2|2|2,0:0|0:0|0:0,0:0:0:0:
236,252,70322,1,2,0:0:0:0:
132,188,70510,6,0,L|140:144,3,30,2|2|2|2,0:0|0:0|0:0|0:0,0:0:0:0:
120,76,70885,2,0,L|164:80,3,30,2|2|2|2,0:0|0:0|0:0|0:0,0:0:0:0:
240,56,71260,2,0,L|228:104,3,30,12|0|6|0,0:0|0:0|0:0|0:0,0:0:0:0:
232,172,71635,6,0,P|276:160|336:176,1,90,10|0,0:0|0:0,0:0:0:0:
336,176,72010,6,0,P|340:120|400:68,1,120,6|0,0:0|0:0,0:0:0:0:
428,160,72572,1,0,0:0:0:0:
512,116,72760,2,0,P|520:184|492:228,1,120,8|2,0:0|0:0,0:0:0:0:
404,264,73322,1,0,0:0:0:0:
364,352,73510,6,0,L|304:332,1,60,2|0,0:0|0:0,0:0:0:0:
244,260,73885,2,0,L|180:296,1,60,2|0,0:0|0:0,0:0:0:0:
80,344,74260,2,0,P|88:280|72:240,1,90,2|0,0:0|0:0,0:0:0:0:
68,224,74635,5,12,0:0:0:0:
256,192,75010,12,0,77260,0:0:0:0:
160,92,78010,6,0,B|208:76|252:100|252:100|232:84|240:68,1,120,2|2,0:0|0:0,0:0:0:0:
238,197,78760,2,0,P|189:167|140:196,1,120,2|12,0:0|0:0,0:0:0:0:
116,300,79322,1,4,0:0:0:0:
108,292,79416,1,4,0:0:0:0:
100,284,79510,2,0,L|158:296,1,60,0|12,0:0|0:0,0:0:0:0:
228,348,79885,6,0,P|280:328|304:328,1,60,8|0,0:0|0:0,0:0:0:0:
424,288,80260,2,0,P|380:284|352:272,1,60,8|0,0:0|0:0,0:0:0:0:
280,192,80635,2,0,L|288:240,2,30,2|0|2,0:0|0:0|0:0,0:0:0:0:
404,200,81010,6,0,L|412:92,1,90,6|0,0:0|0:0,0:0:0:0:
440,76,81385,2,0,P|376:96|320:60,1,120,2|2,0:0|0:0,0:0:0:0:
248,24,81947,2,0,L|232:72,2,30,2|2|2,0:0|0:0|0:0,0:0:0:0:
144,64,82322,6,0,L|164:140,1,60,10|0,0:0|0:0,0:0:0:0:
228,188,82697,1,12,0:0:0:0:
108,208,82885,1,2,0:0:0:0:
180,304,83072,1,2,0:0:0:0:
180,304,83166,1,2,0:0:0:0:
180,304,83260,2,0,L|252:296,1,60,2|2,0:0|0:0,0:0:0:0:
264,324,83541,2,0,L|336:316,1,60,2|0,0:0|0:0,0:0:0:0:
348,336,83822,2,0,L|392:332,1,30,10|0,0:0|0:0,0:0:0:0:
412,360,84010,6,0,L|400:268,2,90,2|2|4,0:0|0:0|0:0,0:0:0:0:
344,208,84760,2,0,P|376:188|408:184,1,60,10|12,0:0|0:0,0:0:0:0:
496,136,85135,2,0,P|456:124|432:88,1,60,12|0,0:0|0:0,0:0:0:0:
443,111,85416,1,2,0:0:0:0:
443,111,85510,1,0,0:0:0:0:
360,36,85697,1,2,0:0:0:0:
284,116,85885,5,8,0:0:0:0:
204,48,86072,1,2,0:0:0:0:
204,48,86166,1,2,0:0:0:0:
204,48,86260,2,0,L|152:72,2,30,8|0|2,0:0|0:0|0:0,0:0:0:0:
96,112,86635,2,0,P|80:48|68:40,1,60,8|2,0:0|0:0,0:0:0:0:
16,164,87010,6,0,P|64:204|128:204,1,120,2|8,0:0|0:0,0:0:0:0:
216,176,87572,2,0,L|204:232,2,30,2|2|8,0:0|0:0|0:0,0:0:0:0:
188,300,87947,2,0,P|244:292|292:328,1,120,4|8,0:0|0:0,0:0:0:0:
292,328,88510,5,2,0:0:0:0:
376,280,88697,1,2,0:0:0:0:
452,336,88885,2,0,P|468:300|444:228,1,90,0|2,0:0|0:0,0:0:0:0:
444,232,89260,2,0,L|468:156,1,60,8|2,0:0|0:0,0:0:0:0:
468,156,89541,1,2,0:0:0:0:
472,136,89635,2,0,L|416:148,2,30,4|0|2,0:0|0:0|0:0,0:0:0:0:
348,156,90010,6,0,L|360:72,1,60,6|0,0:0|0:0,0:0:0:0:
256,24,90385,2,0,L|264:136,1,90,6|0,0:0|0:0,0:0:0:0:
264,132,90760,2,0,L|216:120,2,30,2|0|2,0:0|0:0|0:0,0:0:0:0:
144,84,91135,1,8,0:0:0:0:
144,84,91228,1,0,0:0:0:0:
144,84,91322,2,0,P|136:136|176:200,1,120,2|6,0:0|0:0,0:0:0:0:
176,204,91791,1,2,0:0:0:0:
184,216,91885,6,0,L|120:208,1,60,8|6,0:0|0:0,0:0:0:0:
164,328,92260,1,8,0:0:0:0:
164,328,92353,1,2,0:0:0:0:
164,328,92447,1,10,0:0:0:0:
292,276,92635,2,0,L|240:268,2,30,2|0|0,0:0|0:0|0:0,0:0:0:0:
400,344,93010,6,0,P|380:288|400:220,1,120,4|12,0:0|0:0,0:0:0:0:
476,284,93572,1,4,0:0:0:0:
472,196,93760,1,8,0:0:0:0:
500,104,93947,2,0,L|452:96,2,30,8|8|4,0:0|0:0|0:0,0:0:0:0:
392,52,94322,2,0,B|368:100|396:148|396:148|364:124,1,120,8|8,0:0|0:0,0:0:0:0:
284,104,94885,5,2,0:0:0:0:
320,208,95072,1,6,0:0:0:0:
320,208,95166,1,2,0:0:0:0:
320,208,95260,2,0,L|268:200,2,30,10|0|2,0:0|0:0|0:0,0:0:0:0:
200,256,95635,2,0,L|212:172,1,60,2|8,0:0|0:0,0:0:0:0:
112,120,96010,6,0,B|120:216|120:216,2,90,2|2|4,0:0|0:0|0:0,0:0:0:0:
64,40,96760,2,0,P|112:28|144:32,1,60,8|2,0:0|0:0,0:0:0:0:
196,92,97135,2,0,L|224:76,2,30,8|0|2,0:0|0:0|0:0,0:0:0:0:
308,32,97510,2,0,P|320:76|316:104,1,60,0|0,0:0|0:0,0:0:0:0:
316,112,97791,1,0,0:0:0:0:
308,132,97885,6,0,L|392:112,1,60,10|0,0:0|0:0,0:0:0:0:
456,92,98260,1,10,0:0:0:0:
456,92,98353,1,2,0:0:0:0:
456,92,98447,1,10,0:0:0:0:
424,212,98635,2,0,L|424:160,2,30,4|0|0,0:0|0:0|0:0,0:0:0:0:
480,324,99010,6,0,P|416:300|360:336,1,120,2|2,0:0|0:0,0:0:0:0:
259,364,99572,2,0,L|271:282,1,60,2|8,0:0|0:0,0:0:0:0:
284,208,99947,1,10,0:0:0:0:
168,268,100135,1,10,0:0:0:0:
168,268,100228,1,2,0:0:0:0:
168,268,100322,2,0,L|124:276,1,30,4|0,0:0|0:0,0:0:0:0:
112,280,100510,6,0,L|136:200,1,60,2|8,0:0|0:0,0:0:0:0:
112,72,100885,2,0,L|88:144,1,60,0|2,0:0|0:0,0:0:0:0:
188,148,101260,2,0,L|239:140,2,30,8|0|2,0:0|0:0|0:0,0:0:0:0:
296,96,101635,2,0,L|304:147,2,30,2|2|2,0:0|0:0|0:0,0:0:0:0:
300,228,102010,6,0,P|352:196|432:216,2,120,2|8|6,0:0|0:0|0:0,0:0:0:0:
360,380,103135,1,12,0:0:0:0:
452,352,103322,1,0,0:0:0:0:
492,257,103510,6,0,P|504:193|472:129,1,120,2|0,0:0|0:0,0:0:0:0:
408,201,104072,1,0,0:0:0:0:
368,112,104260,2,0,B|304:124|304:124|252:100,1,120,4|0,0:0|0:0,0:0:0:0:
168,64,104822,1,0,0:0:0:0:
72,60,105010,6,0,P|116:148|144:156,1,120,2|0,0:0|0:0,0:0:0:0:
208,212,105572,2,0,L|185:260,1,30,0|0,0:0|0:0,0:0:0:0:
168,268,105760,2,0,L|260:260,1,90,2|0,0:0|0:0,0:0:0:0:
280,280,106135,2,0,L|380:272,1,90,0|0,0:0|0:0,0:0:0:0:
392,284,106510,5,4,0:0:0:0:
464,348,106697,1,0,0:0:0:0:
496,256,106885,2,0,L|468:196,1,60,0|0,0:0|0:0,0:0:0:0:
484,108,107260,2,0,P|420:112|388:148,1,90,2|0,0:0|0:0,0:0:0:0:
388,144,107635,1,0,0:0:0:0:
470,201,107822,1,0,0:0:0:0:
312,204,108010,6,0,P|292:156|312:84,1,120,4|0,0:0|0:0,0:0:0:0:
388,144,108572,1,0,0:0:0:0:
352,284,108760,2,0,P|292:292|272:284,1,60,2|0,0:0|0:0,0:0:0:0:
200,232,109135,2,0,P|164:224|120:232,1,60,2|0,0:0|0:0,0:0:0:0:
56,292,109510,6,0,B|36:240|36:240|40:152,1,120,2|0,0:0|0:0,0:0:0:0:
112,72,110072,1,2,0:0:0:0:
112,72,110166,1,0,0:0:0:0:
112,72,110260,2,0,L|116:156,1,60,0|0,0:0|0:0,0:0:0:0:
212,96,110635,2,0,L|208:20,1,60,8|8,0:0|0:0,0:0:0:0:
200,192,111010,5,2,0:0:0:0:
296,128,111197,1,8,0:0:0:0:
316,240,111385,2,0,P|384:220|400:220,1,60,0|8,0:0|0:0,0:0:0:0:
452,176,111760,2,0,P|464:220|456:260,1,60,10|0,0:0|0:0,0:0:0:0:
512,312,112135,2,0,P|468:328|428:320,1,60,10|0,0:0|0:0,0:0:0:0:
360,360,112510,6,0,B|320:336|320:336|240:360,1,120,2|0,0:0|0:0,0:0:0:0:
136,304,113072,1,2,0:0:0:0:
136,304,113166,1,0,0:0:0:0:
136,304,113260,2,0,L|216:280,1,60,0|0,0:0|0:0,0:0:0:0:
284,204,113635,2,0,L|220:184,1,60,10|8,0:0|0:0,0:0:0:0:
120,144,114010,6,0,L|136:216,1,60,2|0,0:0|0:0,0:0:0:0:
47,98,114385,2,0,P|36:126|36:156,2,60,0|8|2,0:0|0:0|0:0,0:0:0:0:
168,56,114947,1,2,0:0:0:0:
168,56,115041,1,0,0:0:0:0:
168,56,115135,2,0,L|208:60,2,30,10|0|2,0:0|0:0|0:0,0:0:0:0:
304,80,115510,6,0,L|292:148,1,60,2|0,0:0|0:0,0:0:0:0:
272,232,115885,1,8,0:0:0:0:
360,200,116072,1,10,0:0:0:0:
360,200,116166,1,0,0:0:0:0:
360,200,116260,2,0,P|412:180|476:208,1,120,0|10,0:0|0:0,0:0:0:0:
412,280,116822,1,0,0:0:0:0:
468,356,117010,6,0,P|413:377|358:357,1,120,2|0,0:0|0:0,0:0:0:0:
168,320,117760,2,0,B|208:324|232:356|232:356|228:292|296:256,1,180,2|0,0:0|0:0,0:0:0:0:
352,220,118510,6,0,P|316:188|284:180,1,60,0|0,0:0|0:0,0:0:0:0:
204,184,118885,2,0,P|220:136|248:112,1,60,0|0,0:0|0:0,0:0:0:0:
232,40,119260,2,0,B|284:48|308:92|308:92|344:68|400:76,1,180,2|0,0:0|0:0,0:0:0:0:
472,40,120010,6,0,P|472:116|420:160,1,120,2|0,0:0|0:0,0:0:0:0:
360,188,120572,1,0,0:0:0:0:
436,248,120760,2,0,L|508:232,2,60,2|0|0,0:0|0:0|0:0,0:0:0:0:
364,312,121322,1,0,0:0:0:0:
288,252,121510,6,0,B|236:236|236:236|156:260,1,120,0|0,0:0|0:0,0:0:0:0:
92,288,122072,1,0,0:0:0:0:
4,304,122260,2,0,P|20:236|80:204,1,120,2|0,0:0|0:0,0:0:0:0:
144,172,122822,1,0,0:0:0:0:
72,112,123010,6,0,L|64:36,1,60,2|0,0:0|0:0,0:0:0:0:
152,12,123385,2,0,L|156:72,1,60,0|0,0:0|0:0,0:0:0:0:
220,144,123760,2,0,P|268:120|300:120,1,60,2|0,0:0|0:0,0:0:0:0:
360,148,124135,1,0,0:0:0:0:
292,208,124322,1,0,0:0:0:0:
408,232,124510,6,0,P|448:180|404:68,1,180,2|0,0:0|0:0,0:0:0:0:
328,24,125260,2,0,P|288:40|256:36,1,60,2|0,0:0|0:0,0:0:0:0:
192,132,125635,2,0,P|232:116|264:120,1,60,0|0,0:0|0:0,0:0:0:0:
192,36,126010,6,0,L|120:20,1,60,2|0,0:0|0:0,0:0:0:0:
56,104,126385,2,0,P|104:148|104:212,1,120,0|2,0:0|0:0,0:0:0:0:
24,184,126947,1,2,0:0:0:0:
60,280,127135,2,0,P|104:296|140:288,1,60,0|0,0:0|0:0,0:0:0:0:
196,240,127510,6,0,B|260:240|288:300|288:300|312:268|356:264,1,180,0|0,0:0|0:0,0:0:0:0:
256,192,128260,12,0,129760,0:0:0:0:
256,196,130510,6,0,L|184:192,3,60,4|0|0|0,0:0|0:0|0:0|0:0,0:0:0:0:
120,252,132010,2,0,P|100:184|120:136,1,120,2|2,0:0|0:0,0:0:0:0:
304,76,133510,6,0,P|344:68|368:72,1,60,2|0,0:0|0:0,0:0:0:0:
428,140,134260,2,0,P|468:148|492:144,1,60,0|0,0:0|0:0,0:0:0:0:
362,70,135010,2,0,P|340:128|348:184,1,120,0|2,0:0|0:0,0:0:0:0:
412,256,136135,1,2,0:0:0:0:
336,312,136510,6,0,P|300:316|272:328,1,60,2|0,0:0|0:0,0:0:0:0:
192,368,137260,2,0,P|152:368|128:356,1,60,2|0,0:0|0:0,0:0:0:0:
68,292,138010,6,0,P|60:252|100:180,1,120,2|2,0:0|0:0,0:0:0:0:
216,128,139510,2,0,L|280:132,3,60,0|0|0|0,0:0|0:0|0:0|0:0,0:0:0:0:
380,100,141010,6,0,B|416:108|440:68|416:28|380:36|380:36|348:60|320:52,1,180,0|0,0:0|0:0,0:0:0:0:
