osu file format v14

[General]
AudioFilename: audio.mp3
AudioLeadIn: 0
PreviewTime: 61510
Countdown: 0
SampleSet: None
StackLeniency: 0.2
Mode: 0
LetterboxInBreaks: 0
EpilepsyWarning: 1
WidescreenStoryboard: 1

[Editor]
Bookmarks: 1510,16697,17822,18010,18760,19510,22510,23260,28510,29260,30010,30760,33010,43510,44260,48760,49510,50260,54010,55510,60760,61510,66010,69010,70510,71635,72010,75760,77822,78010,87947,88322,88510,99385,99760,100135,100697,101260,102010,108760,109510,112510,112978,114010,117010,117760,118510,119260,120385,120760,121135,121510,122260,124510,127510,128260,130510
DistanceSpacing: 0.5
BeatDivisor: 4
GridSize: 4
TimelineZoom: 1.7

[Metadata]
Title:Myosotis (feat. Guriri & Lucy)
TitleUnicode:Myosotis (feat. Guriri & Lucy)
Artist:M2U & NICODE
ArtistUnicode:M2U & NICODE
Creator:-NeBu-
Version:Per Ardua Ad Astra
Source:Deemo
Tags:mobile song collection vol. 2 rayark cytus M2UStudio
BeatmapID:1883510
BeatmapSetID:902121

[Difficulty]
HPDrainRate:6
CircleSize:4.2
OverallDifficulty:9
ApproachRate:9.2
SliderMultiplier:3.19999990463257
SliderTickRate:1

[Events]
//Background and Video events
0,0,"7Sf4a2A.jpg",0,0
//Break Periods
//Storyboard Layer 0 (Background)
//Storyboard Layer 1 (Fail)
//Storyboard Layer 2 (Pass)
//Storyboard Layer 3 (Foreground)
//Storyboard Sound Samples

[TimingPoints]
10,375,4,2,1,40,1,0
1510,-166.666666666667,4,2,1,40,0,0
16510,-333.333333333334,4,2,1,40,0,0
19510,-111.111111111111,4,2,1,70,0,0
21291,-100,4,2,1,5,0,0
21385,-111.111111111111,4,2,1,70,0,0
25791,-100,4,2,1,5,0,0
25885,-111.111111111111,4,2,1,70,0,0
26166,-100,4,2,1,5,0,0
26260,-111.111111111111,4,2,1,70,0,0
32260,-249.999999999999,4,2,1,55,0,0
33010,-133.333333333333,4,2,3,55,0,0
33291,-100,4,2,3,5,0,0
33385,-133.333333333333,4,2,3,55,0,0
36760,-80,4,2,3,55,0,0
37510,-100,4,2,3,55,0,0
40510,-71.4285714285714,4,2,3,65,0,0
40791,-100,4,2,3,5,0,0
40885,-71.4285714285714,4,2,3,65,0,0
41166,-100,4,2,3,5,0,0
41260,-71.4285714285714,4,2,3,65,0,0
41635,-133.333333333333,4,2,3,60,0,0
43510,-285.714285714284,4,2,1,70,0,1
44166,-100,4,2,1,5,0,1
44260,-100,4,2,1,70,0,1
45010,-153.846153846154,4,2,1,70,0,1
49510,-285.714285714286,4,2,1,70,0,1
50166,-100,4,2,1,5,0,1
50260,-100,4,2,1,70,0,1
52510,-133.333333333333,4,2,1,70,0,1
53541,-100,4,2,1,5,0,1
53635,-133.333333333333,4,2,1,70,0,1
55510,-285.714285714284,4,2,1,70,0,1
56166,-100,4,2,1,5,0,1
56260,-100,4,2,1,70,0,1
61510,-285.714285714286,4,2,1,70,0,1
62166,-100,4,2,1,5,0,1
62260,-100,4,2,1,70,0,1
64510,-133.333333333333,4,2,1,70,0,1
66010,-133.333333333333,4,2,1,70,0,1
72010,-133.333333333333,4,2,1,75,0,0
74541,-100,4,2,1,5,0,0
74635,-133.333333333333,4,2,1,75,0,0
75010,-181.818181818181,4,2,1,75,0,0
75760,-285.714285714284,4,2,1,75,0,0
78010,-1000,4,2,2,75,0,0
78760,-66.6666666666667,4,2,2,75,0,0
80166,-100,4,2,2,5,0,0
80260,-66.6666666666667,4,2,2,75,0,0
80541,-100,4,2,2,5,0,0
80635,-133.333333333333,4,2,2,75,0,0
81760,-66.6666666666667,4,2,2,75,0,0
84010,-1000,4,2,2,75,0,0
84291,-100,4,2,2,5,0,0
84385,-133.333333333333,4,2,2,75,0,0
84572,-86.9565217391304,4,2,2,75,0,0
84760,-66.6666666666667,4,2,2,75,0,0
86635,-50,4,2,2,75,0,0
86916,-100,4,2,2,5,0,0
87010,-500,4,2,2,75,0,0
87385,-66.6666666666667,4,2,2,75,0,0
87947,-50,4,2,2,75,0,0
88510,-100,4,2,2,75,0,0
89916,-100,4,2,2,5,0,0
90010,-1000,4,2,2,75,0,0
90291,-100,4,2,2,5,0,0
90385,-100,4,2,2,75,0,0
91135,-66.6666666666667,4,2,2,75,0,0
92635,-50,4,2,2,75,0,0
92916,-100,4,2,2,5,0,0
93010,-100,4,2,2,75,0,0
94322,-500,4,2,2,75,0,0
94697,-100,4,2,2,75,0,0
96010,-133.333333333333,4,2,2,75,0,0
96760,-66.6666666666667,4,2,2,75,0,0
98916,-100,4,2,2,5,0,0
99010,-133.333333333333,4,2,2,75,0,0
99385,-100,4,2,2,75,0,0
100135,-86.9565217391304,4,2,2,75,0,0
100697,-76.9230769230769,4,2,2,75,0,0
101260,-100,4,2,1,65,0,0
102291,-100,4,2,1,5,0,0
102385,-100,4,2,1,65,0,0
103510,-100,4,2,1,65,0,0
103791,-100,4,2,1,5,0,0
103885,-100,4,2,1,65,0,0
104166,-100,4,2,1,5,0,0
104260,-100,4,2,1,65,0,0
104541,-100,4,2,1,5,0,0
104635,-100,4,2,1,65,0,0
104916,-100,4,2,1,5,0,0
105010,-100,4,2,1,65,0,0
106416,-100,4,2,1,5,0,0
106510,-100,4,2,1,65,0,0
117010,-142.857142857143,4,2,1,65,0,0
117666,-100,4,2,1,5,0,0
117760,-142.857142857143,4,2,1,65,0,0
118510,-250.000000000001,4,2,1,60,0,0
119260,-117.647058823529,4,2,1,55,0,0
119916,-100,4,2,1,5,0,0
120010,-117.647058823529,4,2,1,55,0,0
120291,-100,4,2,1,5,0,0
120385,-117.647058823529,4,2,1,55,0,0
122260,-181.818181818181,4,2,1,55,0,0
124510,-166.666666666667,4,2,1,55,0,0
127041,-100,4,2,1,5,0,0
127135,-166.666666666667,4,2,1,55,0,0
127510,-166.666666666667,4,2,1,55,0,0
128260,-250.000000000001,4,2,1,35,0,0
140377,-100,4,2,1,5,0,0

[Colours]
Combo1 : 0,0,0
Combo2 : 170,62,62
Combo3 : 70,0,83
Combo4 : 248,225,205
Combo5 : 236,14,241
Combo6 : 105,105,105
SliderTrackOverride : 25,8,25
SliderBorder : 255,229,200

[HitObjects]
62,112,1510,6,0,B|242:135|67:237|313:261,1,287.999982627869,12|0,0:0|0:0,0:0:0:0:
465,139,2260,2,0,P|409:83|421:203,1,287.999982627869,12|0,0:0|0:0,0:0:0:0:
244,16,3010,5,12,0:0:0:0:
312,108,3385,1,8,0:0:0:0:
224,184,3760,1,8,0:0:0:0:
292,276,4135,1,8,0:0:0:0:
376,84,4510,6,0,B|200:96|200:96|174:80|174:80|149:100|149:100|101:104,1,287.999982627869,12|0,0:0|0:0,0:0:0:0:
40,36,5260,2,0,P|80:60|100:120,1,95.9999942092897,8|0,0:0|0:0,0:0:0:0:
135,263,5635,2,0,P|154:219|194:195,1,95.9999942092897,8|0,0:0|0:0,0:0:0:0:
368,212,6010,5,12,0:0:0:0:
256,56,6385,1,8,0:0:0:0:
215,273,6760,1,8,0:0:0:0:
406,61,7135,1,8,0:0:0:0:
139,116,7510,6,0,L|239:132,1,95.9999942092897,12|0,0:0|0:0,0:0:0:0:
43,205,7885,2,0,L|143:221,1,95.9999942092897,8|0,0:0|0:0,0:0:0:0:
372,252,8260,2,0,L|272:268,1,95.9999942092897,8|0,0:0|0:0,0:0:0:0:
468,341,8635,2,0,L|368:357,1,95.9999942092897,8|0,0:0|0:0,0:0:0:0:
117,195,9010,6,0,B|169:141|229:192|242:307|84:344,1,287.999982627869,12|0,0:0|0:0,0:0:0:0:
93,118,9760,2,0,P|138:99|192:104,1,95.9999942092897,8|0,0:0|0:0,0:0:0:0:
318,152,10135,2,0,P|299:107|304:53,1,95.9999942092897,8|0,0:0|0:0,0:0:0:0:
276,232,10510,6,0,B|323:188|392:188|392:188|392:272|344:352,1,287.999982627869,12|0,0:0|0:0,0:0:0:0:
128,184,11260,1,8,0:0:0:0:
448,80,11635,1,8,0:0:0:0:
286,337,12010,6,0,B|227:284|237:207|237:207|214:280|130:301,1,287.999982627869,12|0,0:0|0:0,0:0:0:0:
0,97,12760,2,0,B|31:128|31:128|87:122|87:122|115:77|115:77|152:98|152:98|255:90,1,287.999982627869,12|0,0:0|0:0,0:0:0:0:
425,50,13510,6,0,P|337:86|361:170,1,191.999988418579,12|8,0:0|0:0,0:0:0:0:
416,224,14072,1,12,0:0:0:0:
500,288,14260,1,0,0:0:0:0:
396,192,14447,1,8,0:0:0:0:
324,328,14635,1,8,0:0:0:0:
380,88,14822,1,8,0:0:0:0:
72,200,15010,5,8,0:0:0:0:
312,304,15197,1,8,0:0:0:0:
152,172,15385,1,8,0:0:0:0:
332,328,15572,1,8,0:0:0:0:
316,44,15760,5,8,0:0:0:0:
249,94,15947,1,8,0:0:0:0:
248,154,16135,1,8,0:0:0:0:
271,182,16322,1,8,0:0:0:0:
159,72,16510,6,0,L|130:78,1,23.9999985523224,12|0,0:0|0:0,0:0:0:0:
32,132,16697,5,8,0:0:0:0:
52,150,16791,1,8,0:0:0:0:
48,184,16885,1,8,0:0:0:0:
51,218,16978,1,8,0:0:0:0:
92,232,17072,1,8,0:0:0:0:
101,262,17166,1,8,0:0:0:0:
128,260,17260,1,8,0:0:0:0:
166,238,17353,1,8,0:0:0:0:
197,210,17447,1,8,0:0:0:0:
231,223,17541,1,8,0:0:0:0:
270,235,17635,1,8,0:0:0:0:
286,211,17728,1,8,0:0:0:0:
272,188,17822,2,0,L|277:145,1,23.9999985523224,8|8,0:0|0:0,0:0:0:0:
272,10,18010,5,8,0:0:0:0:
249,37,18103,1,8,0:0:0:0:
244,72,18197,1,8,0:0:0:0:
257,105,18291,1,8,0:0:0:0:
285,127,18385,1,8,0:0:0:0:
320,132,18478,1,8,0:0:0:0:
353,118,18572,1,8,0:0:0:0:
374,89,18666,1,8,0:0:0:0:
380,65,18760,6,0,L|405:62,5,15.9999990348816,2|2|2|2|2|2,0:0|0:0|0:0|0:0|0:0|0:0,0:0:0:0:
381,74,19135,1,10,0:0:0:0:
382,84,19197,1,10,0:0:0:0:
383,95,19260,1,10,0:0:0:0:
385,105,19322,1,10,0:0:0:0:
386,116,19385,1,10,0:0:0:0:
387,127,19447,1,10,0:0:0:0:
389,137,19510,6,0,B|279:155|279:155|243:227|243:227|147:242,1,287.999982627869,6|8,0:0|0:0,0:0:0:0:
198,63,20072,1,0,0:0:0:0:
404,360,20260,2,0,P|361:204|299:91,1,287.999982627869,12|8,0:0|0:0,0:0:0:0:
182,252,20822,1,0,0:0:0:0:
58,83,21010,6,0,B|177:92|90:171|259:172,1,215.999986970902,12|0,0:0|0:0,0:0:0:0:
311,209,21385,2,0,P|211:229|267:297,1,215.999986970902,8|0,0:0|0:0,0:0:0:0:
253,295,21760,6,0,P|209:303|177:327,1,71.9999956569673,12|0,0:0|0:0,0:0:0:0:
390,230,21947,2,0,P|434:238|466:262,1,71.9999956569673,8|0,0:0|0:0,0:0:0:0:
233,66,22135,2,0,L|249:146,1,71.9999956569673,8|0,0:0|0:0,0:0:0:0:
404,159,22322,2,0,L|389:229,1,71.9999956569673,8|0,0:0|0:0,0:0:0:0:
127,220,22510,5,12,0:0:0:0:
172,206,22603,1,0,0:0:0:0:
216,222,22697,1,0,0:0:0:0:
243,261,22791,1,0,0:0:0:0:
241,309,22885,1,8,0:0:0:0:
268,348,22979,1,0,0:0:0:0:
312,364,23073,1,8,0:0:0:0:
357,350,23166,1,0,0:0:0:0:
383,311,23260,6,0,L|94:339,1,287.999982627869,12|8,0:0|0:0,0:0:0:0:
116,292,23728,1,0,0:0:0:0:
120,240,23822,1,8,0:0:0:0:
104,192,23916,1,0,0:0:0:0:
136,208,24010,5,12,0:0:0:0:
171,210,24103,1,0,0:0:0:0:
205,199,24197,1,0,0:0:0:0:
233,176,24291,1,0,0:0:0:0:
249,145,24385,1,8,0:0:0:0:
253,109,24478,1,0,0:0:0:0:
242,75,24572,1,0,0:0:0:0:
216,48,24666,1,0,0:0:0:0:
178,32,24760,6,0,P|138:37|104:56,1,71.9999956569673,12|0,0:0|0:0,0:0:0:0:
334,32,24947,2,0,P|374:37|408:56,1,71.9999956569673,8|0,0:0|0:0,0:0:0:0:
96,270,25135,2,0,P|101:310|120:344,1,71.9999956569673,8|0,0:0|0:0,0:0:0:0:
416,270,25322,2,0,P|411:310|392:344,1,71.9999956569673,8|0,0:0|0:0,0:0:0:0:
47,92,25510,6,0,B|119:84|119:84|115:88|115:88|171:80|171:80|167:84|167:84|260:73,1,215.999986970902,12|0,0:0|0:0,0:0:0:0:
334,32,25885,2,0,B|342:-7|342:-7|402:45|402:45|314:113,1,215.999986970902,8|0,0:0|0:0,0:0:0:0:
281,188,26260,2,0,B|329:208|373:184|373:184|306:289|405:368,1,287.999982627869,12|8,0:0|0:0,0:0:0:0:
356,348,26728,1,0,0:0:0:0:
320,344,26822,1,0,0:0:0:0:
284,352,26916,1,0,0:0:0:0:
208,288,27010,6,0,B|260:360|260:360|44:324,1,287.999982627869,12|8,0:0|0:0,0:0:0:0:
84,296,27478,1,0,0:0:0:0:
96,260,27572,1,0,0:0:0:0:
84,224,27666,1,0,0:0:0:0:
60,200,27760,6,0,P|46:162|52:124,1,71.9999956569673,12|0,0:0|0:0,0:0:0:0:
117,84,27947,2,0,P|133:47|165:24,1,71.9999956569673,8|0,0:0|0:0,0:0:0:0:
353,27,28135,2,0,P|381:51|395:84,1,71.9999956569673,8|0,0:0|0:0,0:0:0:0:
462,131,28322,2,0,P|465:166|452:200,1,71.9999956569673,8|0,0:0|0:0,0:0:0:0:
322,273,28510,5,12,0:0:0:0:
309,221,28603,1,0,0:0:0:0:
333,174,28697,1,0,0:0:0:0:
382,153,28791,1,0,0:0:0:0:
423,120,28885,1,8,0:0:0:0:
436,68,28978,1,0,0:0:0:0:
412,21,29072,1,8,0:0:0:0:
363,0,29166,1,0,0:0:0:0:
293,41,29260,5,12,0:0:0:0:
259,45,29353,1,0,0:0:0:0:
226,49,29447,1,0,0:0:0:0:
192,53,29541,1,0,0:0:0:0:
159,57,29635,1,8,0:0:0:0:
125,61,29728,1,0,0:0:0:0:
92,66,29822,1,8,0:0:0:0:
58,70,29916,1,0,0:0:0:0:
0,131,30010,6,0,B|76:158|76:158|88:231|88:231|214:211|214:211|274:314|274:314|163:278,1,503.999969598771,12|0,0:0|0:0,0:0:0:0:
173,233,30760,5,2,0:0:0:0:
193,186,30853,1,2,0:0:0:0:
234,156,30947,1,2,0:0:0:0:
285,150,31041,1,2,0:0:0:0:
331,171,31135,1,2,0:0:0:0:
362,211,31228,1,2,0:0:0:0:
367,262,31322,1,2,0:0:0:0:
347,309,31416,1,2,0:0:0:0:
323,275,31510,5,2,0:0:0:0:
343,240,31603,1,2,0:0:0:0:
379,221,31697,1,2,0:0:0:0:
420,225,31791,1,2,0:0:0:0:
452,250,31885,1,2,0:0:0:0:
465,289,31978,1,2,0:0:0:0:
456,328,32072,1,2,0:0:0:0:
427,356,32166,1,2,0:0:0:0:
390,363,32260,6,0,B|277:330|317:411|187:364,1,191.999994277954,2|0,0:0|0:0,0:0:0:0:
61,146,33010,6,0,B|101:158|101:158|129:306,1,180.000001502037,10|0,0:0|0:0,0:0:0:0:
204,369,33385,2,0,L|229:239,1,120.000001001358,12|0,0:0|0:0,0:0:0:0:
144,104,33760,1,8,0:0:0:0:
336,52,33947,1,8,0:0:0:0:
120,128,34135,1,8,0:0:0:0:
263,315,34322,1,8,0:0:0:0:
314,128,34510,6,0,P|294:80|253:23,1,120.000001001358,12|0,0:0|0:0,0:0:0:0:
412,184,34885,1,0,0:0:0:0:
412,184,35072,1,0,0:0:0:0:
243,301,35260,6,0,B|182:299|182:299|184:302|184:302|126:299,1,120.000001001358,8|0,0:0|0:0,0:0:0:0:
398,164,35635,2,0,B|459:162|459:162|457:165|457:165|515:162,1,120.000001001358,8|0,0:0|0:0,0:0:0:0:
256,88,36010,1,8,0:0:0:0:
360,296,36197,1,0,0:0:0:0:
424,40,36385,1,8,0:0:0:0:
192,144,36572,1,0,0:0:0:0:
482,269,36760,6,0,B|434:275|434:275|406:308|406:308|357:262|357:262|316:313|316:313|243:321|243:321|232:334|232:334|215:326|215:326|144:336,1,399.999988079071,12|8,0:0|0:0,0:0:0:0:
149,335,37322,1,8,0:0:0:0:
214,25,37510,2,0,B|318:41|364:99|352:175|352:175|304:171|266:123,1,319.999990463257,12|8,0:0|0:0,0:0:0:0:
127,11,38072,2,0,L|119:39,5,26.6666658719381,8|0|0|0|0|0,0:0|0:0|0:0|0:0|0:0|0:0,0:0:0:0:
108,0,38260,2,0,L|140:332,1,319.999990463257,12|12,0:0|0:0,0:0:0:0:
336,184,39010,6,0,B|340:160|320:136|320:136|376:161|361:245,1,159.999995231628,12|0,0:0|0:0,0:0:0:0:
151,281,39385,2,0,B|270:303|270:303|291:348,1,159.999995231628,10|0,0:0|0:0,0:0:0:0:
168,384,39760,1,8,0:0:0:0:
248,136,39947,1,8,0:0:0:0:
349,291,40135,1,8,0:0:0:0:
160,156,40322,1,8,0:0:0:0:
367,66,40510,6,0,B|408:3|506:15|530:152|326:192,1,335.999979732514,12|0,0:0|0:0,0:0:0:0:
217,222,40885,2,0,B|305:193|351:229|302:288|360:310|348:356|433:378|483:330,1,335.999979732514,12|0,0:0|0:0,0:0:0:0:
427,271,41260,2,0,P|472:174|487:268,1,223.999986488343,14|0,0:0|0:0,0:0:0:0:
200,203,41635,2,0,L|208:157,5,40.000000333786,10|0|0|8|0|0,0:0|0:0|0:0|0:0|0:0|0:0,0:0:0:0:
224,217,42010,5,12,0:0:0:0:
152,44,42197,1,0,0:0:0:0:
96,284,42385,1,8,0:0:0:0:
246,77,42572,1,8,0:0:0:0:
172,251,42760,2,0,P|128:207|68:207,1,120.000001001358,12|0,0:0|0:0,0:0:0:0:
227,351,43135,2,0,P|285:347|325:305,1,120.000001001358,12|0,0:0|0:0,0:0:0:0:
324,91,43510,6,0,B|268:59|268:59|292:199,1,195.9999881773,10|0,0:0|0:0,0:0:0:0:
227,351,44260,6,0,B|225:153|50:74|50:74|16:132|39:205,1,479.999985694885,12|10,0:0|0:0,0:0:0:0:
320,180,45010,6,0,B|325:94|410:61|410:61|458:146|419:212,1,311.99997641945,12|0,0:0|0:0,0:0:0:0:
194,176,45760,2,0,P|242:212|254:268,1,103.999992139817,8|0,0:0|0:0,0:0:0:0:
108,333,46135,2,0,P|126:285|168:256,1,103.999992139817,8|0,0:0|0:0,0:0:0:0:
332,300,46510,5,12,0:0:0:0:
292,117,46697,1,0,0:0:0:0:
332,300,46885,1,8,0:0:0:0:
292,117,47072,1,0,0:0:0:0:
418,354,47260,5,12,0:0:0:0:
458,171,47447,1,0,0:0:0:0:
418,354,47635,1,8,0:0:0:0:
458,171,47822,1,0,0:0:0:0:
325,272,48010,6,0,L|261:264,1,51.9999960699083,12|0,0:0|0:0,0:0:0:0:
176,268,48197,1,0,0:0:0:0:
152,276,48291,1,0,0:0:0:0:
136,296,48385,1,8,0:0:0:0:
116,312,48478,1,0,0:0:0:0:
88,316,48572,2,0,P|48:312|32:304,1,51.9999960699083,8|0,0:0|0:0,0:0:0:0:
113,42,48760,5,2,0:0:0:0:
163,48,48853,1,2,0:0:0:0:
201,82,48947,1,2,0:0:0:0:
214,132,49041,1,2,0:0:0:0:
200,180,49135,2,0,L|308:168,1,103.999992139817,2|0,0:0|0:0,0:0:0:0:
508,140,49510,6,0,B|486:98|450:75|412:88|402:139|343:67,1,195.9999881773,12|8,0:0|0:0,0:0:0:0:
279,0,50260,6,0,P|195:177|-1:380,1,479.999985694885,12|8,0:0|0:0,0:0:0:0:
96,100,51010,5,12,0:0:0:0:
172,336,51197,1,0,0:0:0:0:
292,68,51385,1,8,0:0:0:0:
256,368,51572,1,0,0:0:0:0:
81,91,51760,5,12,0:0:0:0:
164,348,51947,1,0,0:0:0:0:
295,56,52135,1,8,0:0:0:0:
256,383,52322,1,0,0:0:0:0:
81,91,52510,6,0,P|121:111|145:183,1,120.000001001358,12|0,0:0|0:0,0:0:0:0:
0,317,52885,2,0,P|14:260|64:229,1,120.000001001358,8|0,0:0|0:0,0:0:0:0:
210,277,53260,2,0,P|170:225|258:229,1,180.000001502037,8|0,0:0|0:0,0:0:0:0:
369,193,53635,2,0,L|217:213,1,120.000001001358,8|8,0:0|0:0,0:0:0:0:
63,202,54010,6,0,P|127:230|211:310,1,180.000001502037,12|0,0:0|0:0,0:0:0:0:
192,324,54385,1,8,0:0:0:0:
100,8,54572,1,8,0:0:0:0:
176,336,54760,6,0,L|188:256,1,60.0000005006791,12|0,0:0|0:0,0:0:0:0:
228,207,54947,1,2,0:0:0:0:
228,207,55041,1,2,0:0:0:0:
200,220,55135,1,2,0:0:0:0:
508,144,55322,1,8,0:0:0:0:
93,136,55510,6,0,B|82:103|49:88|49:88|126:92|169:24,1,195.9999881773,12|0,0:0|0:0,0:0:0:0:
288,180,56260,6,0,B|335:176|358:135|358:135|376:202|376:202|383:191|383:191|498:186|529:313|444:378|367:365|338:304,1,479.999985694885,12|8,0:0|0:0,0:0:0:0:
54,149,57010,2,0,B|87:86|70:17|70:17|117:92|117:167|21:192|78:353,1,479.999985694885,12|0,0:0|0:0,0:0:0:0:
420,147,57760,2,0,B|420:103|420:103|296:71,1,159.999995231628,8|0,0:0|0:0,0:0:0:0:
223,335,58135,2,0,B|223:291|223:291|335:262,1,159.999995231628,8|0,0:0|0:0,0:0:0:0:
96,164,58510,5,12,0:0:0:0:
364,84,58697,1,0,0:0:0:0:
72,272,58885,1,8,0:0:0:0:
408,360,59072,1,0,0:0:0:0:
76,148,59260,5,12,0:0:0:0:
360,296,59447,1,0,0:0:0:0:
120,36,59635,1,8,0:0:0:0:
300,384,59822,1,0,0:0:0:0:
485,77,60010,6,0,B|307:103|434:234|205:225,1,319.999990463257,12|8,0:0|0:0,0:0:0:0:
124,28,60572,1,8,0:0:0:0:
89,372,60760,1,2,0:0:0:0:
95,332,60853,1,2,0:0:0:0:
105,293,60947,1,2,0:0:0:0:
119,256,61041,1,2,0:0:0:0:
137,220,61135,2,0,P|92:140|28:100,1,159.999995231628,2|8,0:0|0:0,0:0:0:0:
512,52,61510,6,0,L|308:76,1,195.9999881773,12|0,0:0|0:0,0:0:0:0:
296,161,62260,6,0,B|329:172|355:155|355:155|382:264|275:349|138:293|132:145|237:100,1,479.999985694885,12|8,0:0|0:0,0:0:0:0:
424,88,63010,5,12,0:0:0:0:
352,304,63197,1,0,0:0:0:0:
144,80,63385,1,8,0:0:0:0:
432,8,63572,1,0,0:0:0:0:
312,376,63760,5,12,0:0:0:0:
76,24,63947,1,0,0:0:0:0:
496,116,64135,1,8,0:0:0:0:
28,268,64322,1,0,0:0:0:0:
320,92,64510,6,0,P|366:56|432:48,1,120.000001001358,12|0,0:0|0:0,0:0:0:0:
192,92,64885,2,0,P|146:56|80:48,1,120.000001001358,8|0,0:0|0:0,0:0:0:0:
356,256,65260,2,0,P|392:302|400:361,1,120.000001001358,12|0,0:0|0:0,0:0:0:0:
155,256,65635,2,0,P|119:302|111:361,1,120.000001001358,8|0,0:0|0:0,0:0:0:0:
388,183,66010,5,8,0:0:0:0:
326,80,66385,1,8,0:0:0:0:
223,141,66760,1,8,0:0:0:0:
285,244,67135,1,8,0:0:0:0:
435,81,67510,5,8,0:0:0:0:
214,26,67885,1,8,0:0:0:0:
158,242,68260,1,8,0:0:0:0:
378,297,68635,1,8,0:0:0:0:
378,297,69010,5,8,0:0:0:0:
158,242,69197,1,8,0:0:0:0:
214,26,69385,1,8,0:0:0:0:
435,81,69572,1,8,0:0:0:0:
259,308,69760,5,8,0:0:0:0:
142,113,69947,1,8,0:0:0:0:
334,0,70135,1,8,0:0:0:0:
452,195,70322,1,8,0:0:0:0:
259,308,70510,5,2,0:0:0:0:
223,260,70603,1,2,0:0:0:0:
226,202,70697,1,2,0:0:0:0:
266,159,70791,1,2,0:0:0:0:
326,148,70885,1,2,0:0:0:0:
366,105,70979,1,2,0:0:0:0:
369,47,71073,1,2,0:0:0:0:
334,0,71166,1,2,0:0:0:0:
364,4,71260,5,2,0:0:0:0:
392,8,71353,1,2,0:0:0:0:
420,12,71447,1,2,0:0:0:0:
448,16,71541,1,2,0:0:0:0:
476,20,71635,2,0,L|488:84,2,60.0000005006791,10|0|0,0:0|0:0|0:0,0:0:0:0:
136,275,72010,6,0,B|205:264|262:332|262:332|222:246|273:183|273:183|239:206|210:203,1,360.000003004074,12|0,0:0|0:0,0:0:0:0:
160,376,72760,1,8,0:0:0:0:
416,244,72947,1,0,0:0:0:0:
168,100,73135,1,8,0:0:0:0:
240,384,73322,1,0,0:0:0:0:
416,164,73510,6,0,P|368:180|336:251,1,120.000001001358,12|0,0:0|0:0,0:0:0:0:
496,318,73885,2,0,P|470:265|415:243,1,120.000001001358,8|0,0:0|0:0,0:0:0:0:
281,301,74260,2,0,P|313:265|221:237,1,180.000001502037,8|0,0:0|0:0,0:0:0:0:
107,233,74635,2,0,L|231:225,1,120.000001001358,8|0,0:0|0:0,0:0:0:0:
44,0,75010,6,0,B|76:69|37:132|37:132|55:154|55:154|51:150|51:150|17:177|7:227,1,264.000000188828,8|0,0:0|0:0,0:0:0:0:
394,47,75760,6,0,B|390:161|507:189|507:189|232:148|445:339|138:301,1,615.999962842943,12|0,0:0|0:0,0:0:0:0:
0,0,78010,6,0,L|48:7,1,47.9999985694885,14|0,0:0|0:0,0:0:0:0:
497,30,78760,6,0,P|357:74|65:262,1,480.000004005432,12|2,0:0|0:0,0:0:0:0:
0,46,79228,1,2,0:0:0:0:
0,46,79322,2,0,P|56:62|132:70,2,120.000001001358,2|2|2,0:0|0:0|0:0,0:0:0:0:
72,160,79603,1,0,0:0:0:0:
72,160,79697,2,0,P|129:150|201:125,1,120.000001001358,8|0,0:0|0:0,0:0:0:0:
402,86,79885,6,0,B|360:39|279:47|227:164|344:229|470:209,1,360.000003004074,12|0,0:0|0:0,0:0:0:0:
390,310,80260,2,0,B|323:281|271:295|271:295|254:284|254:284|239:301|239:301|190:292|142:342|142:342|157:301|135:259,1,360.000003004074,12|0,0:0|0:0,0:0:0:0:
96,161,80635,6,0,P|48:165|80:137,1,120.000001001358,12|0,0:0|0:0,0:0:0:0:
264,96,81010,6,0,L|236:92,9,20.000000166893,8|0|0|0|0|0|0|0|0|0,0:0|0:0|0:0|0:0|0:0|0:0|0:0|0:0|0:0|0:0,0:0:0:0:
268,72,81385,2,0,B|326:56|326:56|303:177,1,180.000001502037,8|0,0:0|0:0,0:0:0:0:
147,249,81760,6,0,B|132:234|128:171|79:138,1,120.000001001358,12|0,0:0|0:0,0:0:0:0:
147,249,81947,2,0,B|139:241|81:265|67:323,1,120.000001001358,2|2,0:0|0:0,0:0:0:0:
147,249,82135,2,0,P|199:282|255:260,1,120.000001001358,2|0,0:0|0:0,0:0:0:0:
368,157,82322,2,0,L|376:205,4,40.000000333786,8|0|0|0|0,0:0|0:0|0:0|0:0|0:0,0:0:0:0:
331,132,82510,1,8,0:0:0:0:
339,103,82603,1,0,0:0:0:0:
290,47,82697,6,0,L|422:76,1,120.000001001358,2|2,0:0|0:0,0:0:0:0:
120,144,82885,2,0,L|252:173,1,120.000001001358,2|0,0:0|0:0,0:0:0:0:
380,276,83072,1,2,0:0:0:0:
372,260,83166,1,2,0:0:0:0:
436,284,83260,6,0,P|336:312|215:377,1,240.000002002716,2|2,0:0|0:0,0:0:0:0:
48,212,83541,1,2,0:0:0:0:
48,212,83635,2,0,P|116:228|172:264,1,120.000001001358,0|8,0:0|0:0,0:0:0:0:
219,41,83822,2,0,P|255:100|269:165,1,120.000001001358,0|0,0:0|0:0,0:0:0:0:
328,360,84010,6,0,L|331:332,1,23.9999992847443,12|12,0:0|0:0,0:0:0:0:
253,247,84385,6,0,L|328:233,1,60.0000005006791,0|0,0:0|0:0,0:0:0:0:
443,190,84572,6,0,L|427:82,1,91.9999990129471,10|0,0:0|0:0,0:0:0:0:
262,20,84760,1,12,0:0:0:0:
211,51,84854,1,0,0:0:0:0:
243,102,84948,1,2,0:0:0:0:
294,70,85041,1,2,0:0:0:0:
210,37,85135,2,0,L|78:25,2,120.000001001358,2|0|2,0:0|0:0|0:0,0:0:0:0:
344,4,85416,1,2,0:0:0:0:
324,24,85510,5,2,0:0:0:0:
361,94,85603,1,0,0:0:0:0:
383,171,85697,1,8,0:0:0:0:
388,251,85791,1,0,0:0:0:0:
377,326,85885,6,0,B|233:280|306:388|139:324,1,240.000002002716,6|2,0:0|0:0,0:0:0:0:
110,346,86166,1,2,0:0:0:0:
147,327,86260,1,6,0:0:0:0:
167,243,86353,1,0,0:0:0:0:
129,168,86447,1,2,0:0:0:0:
154,89,86541,1,2,0:0:0:0:
118,19,86635,6,0,B|66:-42|66:-42|-9:60|-9:60|271:145,1,479.999985694885,6|0,0:0|0:0,0:0:0:0:
512,0,87010,6,0,L|504:52,1,47.9999985694885,8|0,0:0|0:0,0:0:0:0:
417,110,87385,5,12,0:0:0:0:
430,188,87478,1,0,0:0:0:0:
443,267,87572,1,2,0:0:0:0:
457,346,87666,1,2,0:0:0:0:
476,336,87760,2,0,L|340:324,1,120.000001001358,2|0,0:0|0:0,0:0:0:0:
181,252,87947,6,0,B|198:251|230:270|210:342|142:370|27:324|50:179|137:173|137:173|220:172|259:122|200:30|145:-10|119:122|68:9,1,639.999980926514,12|8,0:0|0:0,0:0:0:0:
410,58,88510,6,0,L|310:74,1,79.9999976158142,8|0,0:0|0:0,0:0:0:0:
166,244,88697,2,0,B|179:241|179:241|203:261|203:261|357:238|357:238|337:231|337:231|371:238|371:238|515:214,1,399.999988079071,12|0,0:0|0:0,0:0:0:0:
408,261,89260,2,0,L|436:341,1,79.9999976158142,8|0,0:0|0:0,0:0:0:0:
278,90,89447,2,0,L|250:170,1,79.9999976158142,8|0,0:0|0:0,0:0:0:0:
176,260,89635,2,0,B|120:152|120:152|48:256,1,239.999992847443,12|0,0:0|0:0,0:0:0:0:
144,352,90010,6,0,L|120:357,1,23.9999992847443,12|0,0:0|0:0,0:0:0:0:
114,234,90385,6,0,B|185:245|185:245|197:269|197:269|262:279,1,159.999995231628,12|0,0:0|0:0,0:0:0:0:
416,264,90760,5,8,0:0:0:0:
383,240,90853,1,0,0:0:0:0:
356,211,90947,1,8,0:0:0:0:
336,177,91041,1,0,0:0:0:0:
331,192,91135,6,0,B|323:184|311:203|311:203|321:222|321:222|330:211|330:211|323:187,1,60.0000005006791,2|0,0:0|0:0,0:0:0:0:
355,176,91228,2,0,B|374:187|374:187|393:177|393:177|382:168|382:168|358:176,1,60.0000005006791,2|0,0:0|0:0,0:0:0:0:
335,157,91322,2,0,B|346:137|346:137|336:118|336:118|327:129|327:129|335:153,1,60.0000005006791,2|0,0:0|0:0,0:0:0:0:
313,173,91416,2,0,B|293:161|293:161|274:171|274:171|285:180|285:180|309:173,1,60.0000005006791,0|0,0:0|0:0,0:0:0:0:
332,192,91510,6,0,L|316:316,2,120.000001001358,12|0|8,0:0|0:0|0:0,0:0:0:0:
253,39,91791,1,0,0:0:0:0:
253,39,91885,2,0,B|392:54|269:135|473:135,1,240.000002002716,6|2,0:0|0:0,0:0:0:0:
482,100,92166,1,2,0:0:0:0:
457,134,92260,1,6,0:0:0:0:
472,213,92353,1,0,0:0:0:0:
486,292,92447,1,2,0:0:0:0:
501,370,92541,1,2,0:0:0:0:
488,353,92635,6,0,B|434:338|408:273|408:273|425:336|375:377|375:377|298:338|281:237|371:159,1,479.999985694885,6|0,0:0|0:0,0:0:0:0:
512,32,93010,6,0,B|421:36|421:36|398:59|398:59|373:40|373:40|277:44,1,239.999992847443,12|0,0:0|0:0,0:0:0:0:
142,67,93385,2,0,P|159:105|166:159,1,79.9999976158142,12|0,0:0|0:0,0:0:0:0:
255,243,93572,2,0,P|238:281|231:335,1,79.9999976158142,0|0,0:0|0:0,0:0:0:0:
390,359,93760,5,2,0:0:0:0:
368,282,93853,1,2,0:0:0:0:
337,208,93947,1,2,0:0:0:0:
297,138,94041,1,2,0:0:0:0:
241,78,94135,2,0,L|263:2,1,79.9999976158142,2|0,0:0|0:0,0:0:0:0:
357,49,94322,6,0,L|386:53,1,15.9999995231628,12|0,0:0|0:0,0:0:0:0:
310,135,94510,1,2,0:0:0:0:
321,138,94603,1,2,0:0:0:0:
292,160,94697,2,0,L|392:144,1,79.9999976158142,6|0,0:0|0:0,0:0:0:0:
212,288,94885,2,0,L|312:272,1,79.9999976158142,12|0,0:0|0:0,0:0:0:0:
104,196,95072,1,12,0:0:0:0:
79,174,95166,1,0,0:0:0:0:
65,179,95260,2,0,L|161:161,1,79.9999976158142,12|0,0:0|0:0,0:0:0:0:
431,124,95447,5,2,0:0:0:0:
356,102,95540,1,2,0:0:0:0:
288,141,95634,1,6,0:0:0:0:
268,216,95728,1,2,0:0:0:0:
308,283,95822,2,0,L|288:368,1,79.9999976158142,2|0,0:0|0:0,0:0:0:0:
434,297,96010,6,0,B|425:225|425:225|441:201|441:201|429:113,1,180.000001502037,12|0,0:0|0:0,0:0:0:0:
357,77,96385,2,0,L|373:13,1,60.0000005006791,8|0,0:0|0:0,0:0:0:0:
251,0,96572,2,0,L|265:58,1,60.0000005006791,8|0,0:0|0:0,0:0:0:0:
228,336,96760,5,12,0:0:0:0:
221,354,96853,1,0,0:0:0:0:
193,309,96947,2,0,B|153:232|185:149|185:149|230:165|249:209,1,240.000002002716,2|6,0:0|0:0,0:0:0:0:
276,204,97228,1,0,0:0:0:0:
308,192,97322,1,2,0:0:0:0:
324,160,97416,1,2,0:0:0:0:
316,124,97510,2,0,L|440:108,1,120.000001001358,6|0,0:0|0:0,0:0:0:0:
176,32,97697,1,8,0:0:0:0:
184,40,97791,1,0,0:0:0:0:
160,16,97885,6,0,L|176:144,1,120.000001001358,6|2,0:0|0:0,0:0:0:0:
100,248,98072,1,2,0:0:0:0:
92,284,98166,1,2,0:0:0:0:
67,277,98260,6,0,L|51:149,1,120.000001001358,6|0,0:0|0:0,0:0:0:0:
127,45,98447,1,2,0:0:0:0:
135,9,98541,1,2,0:0:0:0:
160,20,98635,6,0,B|182:95|182:95|150:131|150:131|158:155|202:183|202:183|182:207|182:207|220:277|178:355,1,360.000003004074,6|0,0:0|0:0,0:0:0:0:
189,330,99010,6,0,L|52:316,1,120.000001001358,10|0,0:0|0:0,0:0:0:0:
84,132,99385,6,0,B|76:124|75:159|52:132,1,79.9999976158142,8|0,0:0|0:0,0:0:0:0:
50,165,99572,6,0,P|77:184|77:150,1,79.9999976158142,8|0,0:0|0:0,0:0:0:0:
84,132,99760,6,0,L|180:124,2,79.9999976158142,12|0|8,0:0|0:0|0:0,0:0:0:0:
35,64,100041,1,0,0:0:0:0:
64,29,100135,1,2,0:0:0:0:
108,20,100228,1,2,0:0:0:0:
149,40,100322,1,2,0:0:0:0:
169,80,100416,1,0,0:0:0:0:
162,124,100510,2,0,L|184:224,1,91.9999990129471,8|0,0:0|0:0,0:0:0:0:
86,296,100697,6,0,B|168:360|246:319|246:319|270:342|270:342|288:308|288:308|355:290|355:290|419:319|419:319|430:358,1,415.999968559267,8|0,0:0|0:0,0:0:0:0:
182,214,101166,1,0,0:0:0:0:
182,214,101260,6,0,B|209:72|209:72|217:30|179:-17|119:-11|93:35|93:35|56:191,1,479.999985694885,12|0,0:0|0:0,0:0:0:0:
257,240,102010,6,0,B|291:230|329:252|329:252|303:211|244:197|237:266|173:206,1,239.999992847443,8|0,0:0|0:0,0:0:0:0:
65,210,102385,2,0,P|152:202|103:300,1,239.999992847443,8|0,0:0|0:0,0:0:0:0:
132,296,102760,1,2,0:0:0:0:
156,300,102853,1,2,0:0:0:0:
176,312,102947,1,2,0:0:0:0:
192,328,103041,1,2,0:0:0:0:
208,348,103135,2,0,L|300:336,1,79.9999976158142,2|0,0:0|0:0,0:0:0:0:
367,371,103322,2,0,L|459:359,1,79.9999976158142,8|0,0:0|0:0,0:0:0:0:
333,95,103510,6,0,B|197:48|240:163|63:94,1,239.999992847443,12|0,0:0|0:0,0:0:0:0:
43,37,103885,6,0,P|147:29|182:147,1,239.999992847443,8|0,0:0|0:0,0:0:0:0:
121,204,104260,6,0,B|171:235|215:222|215:222|222:269|222:269|270:260|323:294,1,239.999992847443,12|0,0:0|0:0,0:0:0:0:
428,234,104635,6,0,B|368:214|368:214|296:394,1,239.999992847443,8|0,0:0|0:0,0:0:0:0:
222,317,105010,6,0,L|178:-7,1,319.999990463257,8|8,0:0|0:0,0:0:0:0:
32,184,105572,1,8,0:0:0:0:
56,159,105666,1,0,0:0:0:0:
88,157,105760,2,0,B|189:152|123:225|256:224,1,159.999995231628,8|0,0:0|0:0,0:0:0:0:
446,149,106135,2,0,P|362:121|406:225,1,239.999992847443,12|0,0:0|0:0,0:0:0:0:
467,265,106510,6,0,B|297:250|441:373|239:353,1,239.999992847443,12|0,0:0|0:0,0:0:0:0:
216,288,106885,2,0,L|136:308,1,79.9999976158142,8|0,0:0|0:0,0:0:0:0:
56,280,107072,1,0,0:0:0:0:
56,256,107166,1,0,0:0:0:0:
40,240,107260,2,0,B|12:188|12:188|84:100,1,159.999995231628,8|0,0:0|0:0,0:0:0:0:
203,36,107635,2,0,L|223:128,1,79.9999976158142,8|8,0:0|0:0,0:0:0:0:
333,171,107822,2,0,L|313:263,1,79.9999976158142,8|0,0:0|0:0,0:0:0:0:
272,360,108010,6,0,P|240:280|192:208,1,159.999995231628,12|0,0:0|0:0,0:0:0:0:
404,276,108385,2,0,P|436:196|484:124,1,159.999995231628,8|0,0:0|0:0,0:0:0:0:
343,6,108760,6,0,P|311:30|267:50,1,79.9999976158142,8|0,0:0|0:0,0:0:0:0:
475,134,108947,2,0,P|435:128|390:111,1,79.9999976158142,8|0,0:0|0:0,0:0:0:0:
404,276,109135,1,8,0:0:0:0:
345,266,109228,1,0,0:0:0:0:
285,266,109322,1,8,0:0:0:0:
225,275,109416,1,0,0:0:0:0:
171,296,109510,6,0,B|145:392|-7:385|14:208|127:83|235:327|284:76,1,479.999985694885,12|8,0:0|0:0,0:0:0:0:
236,20,110166,1,8,0:0:0:0:
248,8,110260,2,0,L|344:0,1,79.9999976158142,8|0,0:0|0:0,0:0:0:0:
120,84,110447,1,8,0:0:0:0:
424,224,110635,1,8,0:0:0:0:
94,60,110822,1,8,0:0:0:0:
452,0,111010,5,12,0:0:0:0:
396,328,111197,1,8,0:0:0:0:
452,0,111385,1,8,0:0:0:0:
396,328,111572,1,8,0:0:0:0:
296,8,111760,5,12,0:0:0:0:
224,40,111947,1,8,0:0:0:0:
151,150,112135,1,8,0:0:0:0:
168,340,112322,1,8,0:0:0:0:
512,109,112510,6,0,B|446:115|446:115|429:104|429:104|415:117|415:117|301:128|301:128|315:132|315:132|143:150,1,399.999988079071,12|8,0:0|0:0,0:0:0:0:
124,180,113072,1,8,0:0:0:0:
116,220,113166,1,8,0:0:0:0:
132,256,113260,2,0,L|40:272,1,79.9999976158142,12|0,0:0|0:0,0:0:0:0:
156,96,113447,1,8,0:0:0:0:
264,384,113635,2,0,P|256:332|208:216,1,159.999995231628,8|8,0:0|0:0,0:0:0:0:
88,48,114010,5,12,0:0:0:0:
40,232,114197,1,8,0:0:0:0:
232,128,114385,1,8,0:0:0:0:
56,20,114572,1,8,0:0:0:0:
200,296,114760,5,12,0:0:0:0:
364,48,114947,1,8,0:0:0:0:
121,174,115135,1,8,0:0:0:0:
161,194,115228,1,0,0:0:0:0:
213,210,115322,1,8,0:0:0:0:
285,222,115416,1,0,0:0:0:0:
365,218,115510,6,0,B|232:232|366:341|172:344,1,239.999992847443,8|0,0:0|0:0,0:0:0:0:
228,348,115885,1,8,0:0:0:0:
264,360,115978,1,0,0:0:0:0:
304,364,116072,1,8,0:0:0:0:
340,348,116166,1,8,0:0:0:0:
376,360,116260,5,12,0:0:0:0:
316,240,116447,1,8,0:0:0:0:
432,152,116635,1,8,0:0:0:0:
304,24,116822,1,8,0:0:0:0:
443,161,117010,6,0,B|472:227|472:227|532:67|532:67|365:85,1,391.9999763546,12|0,0:0|0:0,0:0:0:0:
209,80,117760,6,0,B|305:24|305:24|281:256,1,335.999979732514,8|0,0:0|0:0,0:0:0:0:
36,304,118510,6,0,B|103:310|103:310|132:292|132:292|155:317|155:317|233:325,1,191.999994277954,10|0,0:0|0:0,0:0:0:0:
420,180,119260,6,0,B|469:62|232:-28|231:279|413:342,1,475.999994893074,12|0,0:0|0:0,0:0:0:0:
410,341,120010,6,0,L|204:364,1,203.999997811317,8|0,0:0|0:0,0:0:0:0:
111,294,120385,6,0,P|171:302|207:366,1,135.999998540878,8|0,0:0|0:0,0:0:0:0:
193,267,120760,2,0,P|241:230|311:250,1,135.999998540878,8|0,0:0|0:0,0:0:0:0:
244,188,121135,2,0,P|251:127|316:91,1,135.999998540878,8|0,0:0|0:0,0:0:0:0:
276,2,121510,2,0,B|28:82|284:210|-23:254,1,407.999995622635,12|0,0:0|0:0,0:0:0:0:
315,222,122260,6,0,B|264:270|203:256|203:256|242:380|368:377|429:340|471:235|504:148|332:40|241:127|241:127|194:91|194:91|141:110|141:110|118:103|118:103|104:121|104:121|34:142,1,968.000000692368,12|0,0:0|0:0,0:0:0:0:
136,24,124510,5,12,0:0:0:0:
260,148,124697,1,0,0:0:0:0:
100,328,124885,1,0,0:0:0:0:
236,124,125072,1,0,0:0:0:0:
253,283,125260,2,0,P|193:287|157:259,1,95.9999942092898,8|0,0:0|0:0,0:0:0:0:
203,52,125635,2,0,P|263:48|299:76,1,95.9999942092898,8|0,0:0|0:0,0:0:0:0:
128,256,126010,5,12,0:0:0:0:
60,52,126197,1,0,0:0:0:0:
252,160,126385,1,8,0:0:0:0:
72,312,126572,1,0,0:0:0:0:
208,91,126760,6,0,P|280:83|332:147,1,143.999991313935,8|0,0:0|0:0,0:0:0:0:
392,184,127135,2,0,L|380:292,1,95.9999942092898,8|0,0:0|0:0,0:0:0:0:
309,326,127510,6,0,B|244:339|244:339|213:318|213:318|31:347,1,287.999982627869,12|0,0:0|0:0,0:0:0:0:
469,190,128260,6,0,B|365:236|393:149|279:213|279:213|309:164|326:102|275:-15|156:-66|-8:47|28:194|119:251,1,767.999977111817,14|14,0:0|0:0,0:0:0:0:
