osu file format v14

[General]
AudioFilename: My Favorite Vocaloid Song MedleyVOCALOID.mp3
AudioLeadIn: 0
PreviewTime: 24716
Countdown: 0
SampleSet: Soft
StackLeniency: 0.7
Mode: 0
LetterboxInBreaks: 1
WidescreenStoryboard: 0

[Editor]
Bookmarks: 68715,106715,117382,194715,205382,264816,266166,313866,338349,378182,379682,457250,467250,529125,529750,579750,589750,663204,678202,727202,753204
DistanceSpacing: 0.4
BeatDivisor: 4
GridSize: 4
TimelineZoom: 1

[Metadata]
Title:My Favourite Vocaloid Song Medley
TitleUnicode:My Favourite Vocaloid Song Medley
Artist:M.Iz
ArtistUnicode:M.Iz
Creator:SuperMIC
Version:UTAU
Source:
Tags:hatsune miku kagamine rin len megpoid GUMI megurine luka kaito meiko gakupo miki
BeatmapID:511445
BeatmapSetID:218146

[Difficulty]
HPDrainRate:6
CircleSize:4
OverallDifficulty:7
ApproachRate:9
SliderMultiplier:2
SliderTickRate:2

[Events]
//Background and Video events
0,0,"VOCALOID-mitchell.jpg",0,0
//Break Periods
2,58915,68115
2,106915,116782
2,194915,204782
2,317234,336767
2,457450,466337
2,579950,588525
2,663404,677602
//Storyboard Layer 0 (Background)
//Storyboard Layer 1 (Fail)
//Storyboard Layer 2 (Pass)
//Storyboard Layer 3 (Foreground)
//Storyboard Sound Samples

[TimingPoints]
2716,333.333333333333,4,2,1,80,1,0
46382,-100,4,2,0,80,0,0
68715,-100,4,2,1,80,0,0
74715,-76.9230769230769,4,2,1,80,0,0
82049,-83.3333333333333,4,2,1,80,0,0
83882,-90.9090909090909,4,2,1,80,0,0
85049,-100,4,2,1,80,0,0
85382,-100,4,2,1,80,0,0
94049,-71.4285714285714,4,2,1,80,0,0
96049,-100,4,2,1,80,0,0
104715,-80,4,2,1,80,0,0
105049,-100,4,2,1,80,0,0
106715,-100,4,2,1,80,0,0
185715,-83.3333333333333,4,2,1,80,0,0
186049,-71.4285714285714,4,2,1,80,0,0
186382,-100,4,2,1,80,0,0
205382,-100,4,2,0,80,0,0
216049,-100,4,2,1,80,0,0
246715,-80,4,2,1,80,0,0
247215,-100,4,2,1,80,0,0
247716,300,4,1,0,80,1,0
248016,300,4,1,0,80,1,0
266166,-100,4,1,0,80,0,0
295566,-80,4,1,0,80,0,0
296016,-80,4,1,1,80,0,1
314016,-80,4,2,1,20,0,1
317034,333.333333333333,4,2,0,10,1,0
337034,-133.333333333333,4,2,1,30,0,0
358700,-117.647058823529,4,2,1,45,0,0
359033,-100,4,2,1,60,0,0
359700,-100,4,2,1,60,0,1
359783,-100,4,2,1,60,0,0
381000,312.5,4,2,1,80,1,1
381078,-100,4,2,1,80,0,0
385375,-80,4,2,1,80,0,0
386000,-100,4,2,1,80,0,0
389203,-100,4,2,1,5,0,0
389281,-100,4,2,1,80,0,0
389515,-100,4,2,1,5,0,0
389593,-100,4,2,1,80,0,0
453500,-83.3333333333333,4,2,1,80,0,0
454750,-71.4285714285714,4,2,1,80,0,0
457250,-100,4,2,1,80,0,0
516000,-76.9230769230769,4,2,1,80,0,0
518500,-100,4,2,1,80,0,0
600843,-76.9230769230769,4,2,1,80,0,0
602245,300,4,2,1,80,1,0
611845,285.714285714286,4,2,1,80,1,0
630130,272.727272727273,4,2,1,80,1,0
638857,260.869565217391,4,2,1,80,1,0
647204,250,4,2,1,80,1,0
663204,500,4,2,1,80,1,0
678202,250,4,2,1,80,1,0
679202,-100,4,1,1,80,0,1
679264,-100,4,1,1,80,0,0
687202,-100,4,1,1,80,0,1
687264,-100,4,1,1,80,0,0
695202,-76.9230769230769,4,1,2,80,0,1
727202,500,4,2,1,80,1,0
727202,-66.6666666666667,4,2,1,55,0,0
740702,1000,4,2,1,80,1,0
740952,-133.333333333333,4,2,1,55,0,0
745202,500,4,2,1,55,1,0
749202,1000,4,2,1,55,1,0
749202,-200,4,2,1,55,0,0
753202,-200,4,2,1,5,0,0
758495,357.142857142857,4,2,0,80,1,0
759566,357.142857142857,4,2,0,80,1,0

[Colours]
Combo1 : 255,28,141
Combo2 : 254,147,29
Combo3 : 28,28,255

[HitObjects]
88,64,4049,6,0,P|112:140|168:180,1,150,4|0,3:0|0:0,0:0:0:0:
166,179,4382,2,0,L|184:284,1,100,2|0,0:0|0:0,0:0:0:0:
300,372,4715,1,0,0:0:0:0:
448,336,4882,1,0,0:0:0:0:
340,232,5049,2,0,P|320:184|328:136,1,100,2|0,0:0|0:0,0:0:0:0:
88,64,5382,6,0,P|108:112|100:160,1,100,0|0,0:0|0:0,0:0:0:0:
32,232,5715,1,2,0:0:0:0:
64,328,5882,1,0,0:0:0:0:
164,336,6049,1,0,0:0:0:0:
236,204,6215,1,0,0:0:0:0:
328,324,6382,2,0,L|432:312,1,100,2|0,0:0|0:0,0:0:0:0:
480,84,6715,6,0,L|328:104,1,150,0|0,0:0|0:0,0:0:0:0:
308,76,7049,2,0,L|200:92,1,100,2|0,0:0|0:0,0:0:0:0:
60,108,7382,1,0,0:0:0:0:
36,256,7549,1,0,0:0:0:0:
156,344,7715,1,2,0:0:0:0:
312,48,8049,6,0,P|308:100|328:156,1,100,0|0,0:0|0:0,0:0:0:0:
392,344,8382,2,0,P|396:292|376:236,1,100,2|0,0:0|0:0,0:0:0:0:
268,244,8715,1,0,1:0:0:0:
252,256,8799,1,0,1:0:0:0:
232,264,8882,1,0,0:0:0:0:
212,264,8965,1,0,1:0:0:0:
192,256,9049,2,0,L|152:220,1,50,0|0,1:0|1:0,0:0:0:0:
168,132,9215,2,0,L|205:165,1,50,0|0,1:0|1:0,0:0:0:0:
268,244,9382,6,0,P|296:212|304:156,1,100,4|0,2:0|0:0,0:0:0:0:
296,108,9632,1,0,0:0:0:0:
308,60,9715,2,0,P|344:24|392:16,1,100,8|0,0:0|0:0,0:0:0:0:
472,232,10049,2,0,P|436:268|388:276,1,100
268,244,10382,1,8,0:0:0:0:
268,244,10715,6,0,L|252:140,1,100
40,60,11049,2,0,L|55:158,1,100,8|0,0:0|0:0,0:0:0:0:
80,308,11382,1,0,0:0:0:0:
224,352,11549,1,0,0:0:0:0:
180,208,11715,1,8,0:0:0:0:
424,32,12049,6,0,P|408:96|432:180,1,150
484,252,12382,2,0,P|496:304|480:352,1,100,8|0,0:0|0:0,0:0:0:0:
332,168,12715,1,0,0:0:0:0:
340,268,12882,1,0,0:0:0:0:
244,380,13049,2,0,P|214:335|213:284,1,100,8|0,0:0|0:0,0:0:0:0:
332,168,13382,5,2,0:0:0:0:
248,112,13549,1,0,0:0:0:0:
68,76,13715,1,10,0:0:0:0:
44,172,13882,1,0,0:0:0:0:
88,336,14049,1,0,1:0:0:0:
112,360,14132,1,0,1:0:0:0:
144,368,14215,1,0,1:0:0:0:
180,364,14299,1,0,1:0:0:0:
208,340,14382,1,0,1:0:0:0:
220,308,14465,1,0,1:0:0:0:
212,272,14549,6,0,L|192:224,1,50,2|0,0:0|0:0,0:0:0:0:
160,132,14715,2,0,P|164:80|200:36,1,100,4|0,0:0|0:0,0:0:0:0:
276,76,14965,2,0,P|332:104|412:72,1,150,2|0,0:0|0:0,0:0:0:0:
508,248,15382,2,0,P|452:220|372:252,2,150,2|0|2,0:0|0:0|0:0,0:0:0:0:
340,336,16049,2,0,P|288:360|232:344,1,100,2|0,0:0|0:0,0:0:0:0:
180,296,16299,2,0,P|136:272|84:288,1,100,2|0,0:0|0:0,0:0:0:0:
8,328,16549,2,0,P|-6:276|-4:224,1,100,0|2,0:0|0:0,0:0:0:0:
304,32,17049,6,0,P|318:84|316:136,1,100,8|0,0:0|0:0,0:0:0:0:
280,256,17382,2,0,P|308:300|352:316,1,100,2|0,0:0|0:0,0:0:0:0:
392,312,17632,1,2,0:0:0:0:
424,292,17715,2,0,P|448:264|452:196,1,100,8|0,0:0|0:0,0:0:0:0:
216,56,18049,2,0,P|264:116|376:92,1,200,2|8,0:0|0:0,0:0:0:0:
454,203,18549,1,0,0:0:0:0:
392,312,18715,2,0,L|292:332,1,100,2|0,0:0|0:0,0:0:0:0:
200,348,18965,2,0,B|196:296|228:264|228:264|216:200,1,150,2|0,0:0|0:0,0:0:0:0:
44,40,19382,2,0,B|53:91|53:91|81:130|81:130|70:177|70:177|80:228,1,200,2|12,0:0|0:0,0:0:0:0:
192,104,19882,5,2,0:0:0:0:
208,92,19965,1,0,0:0:0:0:
228,88,20049,2,0,P|288:88|360:144,2,150,4|0|2,0:0|0:0|0:2,0:0:0:0:
284,296,20715,2,0,P|224:296|152:240,2,150,2|0|2,0:0|0:0|0:0,0:0:0:0:
404,352,21382,2,0,P|408:312|432:248,1,100,2|0,0:0|0:0,0:0:0:0:
448,220,21632,1,2,0:0:0:0:
472,188,21715,2,0,P|489:141|495:91,1,100,8|0,0:0|0:0,0:0:0:0:
280,36,22049,2,0,B|229:11|186:46|186:46|177:101|224:132,1,200,2|10,0:0|0:0,0:0:0:0:
232,284,22549,1,0,0:0:0:0:
88,328,22715,6,0,P|64:284|64:224,1,100,2|0,0:0|0:0,0:0:0:0:
76,196,22965,1,2,0:0:0:0:
100,164,23049,2,0,P|120:116|116:60,1,100,8|0,0:0|0:0,0:0:0:0:
296,44,23382,2,0,L|404:68,1,100,2|0,0:0|0:0,0:0:0:0:
428,84,23632,1,2,0:0:0:0:
456,112,23715,2,0,B|464:160|464:160|448:208,1,100,8|0,0:0|0:0,0:0:0:0:
272,336,24049,6,0,L|172:324,1,100,2|0,0:0|0:0,0:0:0:0:
120,248,24299,2,0,L|180:256,1,50,2|8,0:0|0:0,0:0:0:0:
240,196,24465,2,0,L|190:189,1,50,0|0,0:0|0:0,0:0:0:0:
80,124,24632,2,0,P|120:80|252:76,1,200,2|0,0:0|0:0,0:0:0:0:
344,168,25049,6,0,L|368:272,1,100,8|0,0:0|0:0,0:0:0:0:
142,345,25382,2,0,L|119:247,1,100,4|0,0:0|0:0,0:0:0:0:
372,156,25715,2,0,L|396:260,1,100,8|0,0:0|0:0,0:0:0:0:
112,352,26049,2,0,L|89:254,1,100,2|0,0:0|0:0,0:0:0:0:
148,84,26382,5,8,0:0:0:0:
64,140,26549,1,0,0:0:0:0:
236,108,26715,2,0,P|284:108|336:128,1,100,2|0,0:3|0:0,0:0:0:0:
428,340,27049,2,0,B|396:304|408:248|428:248|448:248|460:192|428:156,2,200,8|0|10,0:0|0:0|0:0,0:0:0:0:
316,240,27882,1,0,0:0:0:0:
232,364,28049,6,0,P|172:368|128:336,1,100,2|0,0:0|0:0,0:0:0:0:
112,320,28299,1,2,0:3:0:0:
100,284,28382,1,8,0:0:0:0:
140,96,28549,1,2,0:3:0:0:
168,124,28632,1,0,0:0:0:0:
180,164,28715,2,0,P|204:212|248:240,1,100
344,236,29049,1,8,0:0:0:0:
492,96,29215,6,0,P|428:32|336:72,1,200,2|0,0:3|0:0,0:0:0:0:
241,237,29715,2,0,L|224:124,1,100,8|0,0:0|0:0,0:0:0:0:
80,56,30049,1,0,0:0:0:0:
80,56,30132,2,0,L|95:154,1,100,8|8,0:0|0:0,0:0:0:0:
28,224,30382,2,0,P|64:248|124:248,1,100,4|8,0:0|0:0,0:0:0:0:
318,164,30715,6,0,P|282:140|222:140,1,100,4|0,0:0|0:0,0:0:0:0:
352,316,31049,2,0,P|388:340|448:340,1,100,8|0,0:0|0:0,0:0:0:0:
512,208,31382,1,2,0:0:0:0:
440,76,31549,1,0,0:0:0:0:
328,220,31715,2,0,P|372:188|420:172,1,100,8|0,0:0|0:0,0:0:0:0:
184,220,32049,6,0,P|140:188|92:172,1,100,2|0,0:3|0:0,0:0:0:0:
252,96,32382,2,0,B|252:192|252:192|260:192|260:192|260:288,2,200,8|0|10,0:0|0:0|0:0,0:0:0:0:
112,44,33215,1,0,0:0:0:0:
28,168,33382,2,0,L|36:268,1,100,2|0,0:0|0:0,0:0:0:0:
76,256,33632,1,2,0:3:0:0:
116,244,33715,2,8,L|124:344,1,100,8|0,0:0|0:0,0:0:0:0:
156,368,33965,1,2,0:3:0:0:
196,364,34049,2,0,P|240:340|292:344,1,100,0|0,0:3|0:0,0:0:0:0:
388,364,34382,1,8,0:0:0:0:
448,112,34549,6,0,B|446:165|486:200|486:200|433:211|408:258,1,200,2|0,0:0|0:0,0:0:0:0:
236,180,35049,2,0,P|280:204|312:244,1,100,8|0,0:0|0:0,0:0:0:0:
116,244,35382,1,0,1:0:0:0:
108,224,35465,1,0,1:0:0:0:
100,204,35549,1,0,1:0:0:0:
92,184,35632,1,0,1:0:0:0:
84,164,35715,2,0,L|68:112,1,50,0|0,1:0|1:0,0:0:0:0:
136,64,35882,2,0,L|150:111,1,50,0|0,1:0|1:0,0:0:0:0:
236,180,36049,6,0,P|300:184|360:128,1,150,4|0,0:0|0:0,0:0:0:0:
448,80,36382,2,0,L|464:184,1,100,8|0,0:0|0:0,0:0:0:0:
388,324,36715,2,0,P|324:320|264:376,1,150,2|0,0:0|0:0,0:0:0:0:
164,360,37049,2,0,L|148:256,1,100,8|0,0:0|0:0,0:0:0:0:
52,48,37382,1,2,0:0:0:0:
72,196,37549,1,0,0:0:0:0:
192,104,37715,2,0,P|136:104|88:124,1,100,8|0,0:0|0:0,0:0:0:0:
280,128,38049,2,0,P|364:132|464:68,1,200,2|8,0:3|0:0,0:0:0:0:
460,73,38715,6,0,L|472:228,1,150,2|0,0:0|0:0,0:0:0:0:
436,332,39049,2,0,P|400:296|352:280,1,100,8|0,0:0|0:0,0:0:0:0:
256,276,39382,1,8,3:3:0:0:
300,364,39549,1,8,3:3:0:0:
212,188,39715,2,0,P|160:184|124:216,1,100,8|0,0:0|0:0,0:0:0:0:
112,364,40049,6,0,P|36:328|0:264,1,150,2|0,0:0|0:0,0:0:0:0:
56,192,40382,2,0,P|52:140|32:88,1,100,8|0,0:0|0:0,0:0:0:0:
232,48,40715,2,0,L|248:156,1,100,4|0,0:0|0:0,0:0:0:0:
352,332,41049,2,0,L|336:224,1,100,12|0,0:0|0:0,0:0:0:0:
388,28,41382,6,0,L|404:136,1,100,4|0,0:0|0:0,0:0:0:0:
424,276,41715,1,8,0:0:0:0:
424,276,41882,1,0,0:0:0:0:
248,120,42049,2,0,P|268:168|264:224,1,100,2|0,0:0|0:0,0:0:0:0:
188,344,42382,1,8,0:0:0:0:
188,344,42549,1,0,0:0:0:0:
166,46,42715,1,2,0:0:0:0:
94,209,42882,1,0,0:0:0:0:
248,120,43049,1,10,0:0:0:0:
70,101,43215,1,0,0:0:0:0:
202,220,43382,1,2,0:3:0:0:
202,220,43715,6,0,P|288:224|356:140,1,200,10|2,0:0|0:3,0:0:0:0:
472,312,44382,1,8,0:0:0:0:
456,112,44549,2,0,L|464:216,1,100,2|2,0:0|0:3,0:0:0:0:
260,340,45049,1,8,0:0:0:0:
108,208,45215,2,0,P|160:224|196:252,1,100,2|0,0:0|1:0,0:0:0:0:
208,268,45465,5,0,1:0:0:0:
224,280,45549,1,0,1:0:0:0:
244,284,45632,1,0,1:0:0:0:
264,280,45715,1,0,1:0:0:0:
280,268,45799,1,0,1:0:0:0:
288,252,45882,1,0,1:0:0:0:
288,232,45965,1,0,1:0:0:0:
280,212,46049,1,0,1:0:0:0:
280,212,46382,6,0,L|292:112,1,100,2|0,0:0|0:0,0:0:0:0:
436,64,46715,2,0,L|424:164,1,100,4|0,0:0|0:0,0:0:0:0:
440,196,46965,1,0,0:0:0:0:
456,228,47049,2,0,L|444:328,1,100,8|0,0:0|0:0,0:0:0:0:
296,364,47382,2,0,P|224:308|136:352,1,200,2|8,0:0|0:0,0:0:0:0:
40,320,47882,1,2,0:0:0:0:
68,60,48215,1,2,0:0:0:0:
152,116,48382,1,8,0:0:0:0:
244,76,48549,2,0,B|344:64|344:64|428:120,1,200,2|0,0:0|0:0,0:0:0:0:
448,344,49049,6,0,P|420:304|420:248,1,100,8|0,0:0|0:0,0:0:0:0:
244,76,49382,2,0,P|272:116|272:172,1,100,2|0,0:0|0:0,0:0:0:0:
68,60,49715,1,10,0:0:0:0:
0,192,49882,1,0,0:0:0:0:
68,324,50049,1,2,0:0:0:0:
309,268,50215,2,0,L|212:292,1,100,0|8,0:0|0:0,0:0:0:0:
0,192,50549,1,2,0:0:0:0:
348,24,50882,1,2,0:0:0:0:
348,24,51049,2,0,P|352:124|416:208,1,200,8|0,0:0|0:0,0:0:0:0:
164,360,51715,5,8,0:0:0:0:
164,360,51882,1,0,0:0:0:0:
164,360,52049,2,0,P|160:260|96:176,1,200,2|8,0:0|0:0,0:0:0:0:
256,120,52549,1,0,0:0:0:0:
348,360,52715,2,0,P|352:260|416:176,1,200,2|2,0:0|0:3,0:0:0:0:
256,108,53215,1,0,0:0:0:0:
144,340,53382,6,0,P|144:284|128:244,1,100,4|0,0:0|0:0,0:0:0:0:
112,44,53715,1,8,0:0:0:0:
256,92,53882,1,0,0:0:0:0:
400,44,54049,2,0,P|400:100|416:140,1,100,4|0,0:0|0:0,0:0:0:0:
368,340,54382,1,4,0:0:0:0:
256,72,54715,5,4,0:0:0:0:
256,72,54882,1,0,0:0:0:0:
76,160,55215,1,4,0:0:0:0:
436,160,55549,1,0,0:0:0:0:
132,252,55882,1,4,0:0:0:0:
380,252,56215,1,0,0:0:0:0:
188,344,56549,1,4,0:0:0:0:
324,344,56715,5,4,0:0:0:0:
132,252,56882,1,2,0:0:0:0:
380,252,57049,1,0,0:0:0:0:
76,160,57215,1,2,0:0:0:0:
436,160,57382,1,4,0:0:0:0:
256,120,58049,6,0,L|256:68,8,50,0|0|0|0|0|0|0|0|4,1:0|1:0|1:0|1:0|1:0|1:0|1:0|1:0|0:0,0:0:0:0:
40,32,68715,5,8,0:3:0:0:
272,96,68965,1,4,0:3:0:0:
40,160,69215,1,4,0:3:0:0:
80,320,69382,2,2,P|148:347|216:320,1,150,4|0,0:0|0:2,0:0:0:0:
256,288,69715,1,8,0:0:0:0:
168,192,69882,1,0,0:0:0:0:
208,160,69965,1,0,0:0:0:0:
260,156,70049,1,0,0:0:0:0:
64,48,70215,1,0,0:0:0:0:
176,8,70382,1,8,0:0:0:0:
288,48,70549,1,0,0:0:0:0:
328,160,70715,2,0,B|328:224|328:224|328:272|368:304,1,150,0|0,0:3|0:0,0:0:0:0:
400,336,71049,1,8,0:0:0:0:
468,216,71215,1,0,0:0:0:0:
468,216,71299,1,0,0:0:0:0:
468,216,71382,1,0,0:0:0:0:
464,72,71549,5,0,0:0:0:0:
352,28,71715,1,8,0:0:0:0:
272,116,71882,1,0,0:0:0:0:
184,200,72049,2,0,B|144:240|128:280|128:280|88:288|64:272,1,150,4|0,0:3|0:0,0:0:0:0:
24,264,72382,1,8,0:0:0:0:
112,64,72549,1,0,0:0:0:0:
72,200,72715,1,4,0:3:0:0:
176,104,72882,1,0,0:0:0:0:
272,208,73049,2,0,B|280:264|280:264|312:304,1,100,8|0,0:0|0:0,0:0:0:0:
344,328,73299,2,0,P|408:264|424:208,1,150,8|0,0:3|0:0,0:0:0:0:
240,328,73715,2,0,P|176:264|168:232,1,100,12|0,0:2|0:0,0:0:0:0:
120,152,74049,1,0,0:0:0:0:
136,32,74215,5,0,0:0:0:0:
256,104,74382,1,8,0:2:0:0:
376,32,74549,1,0,0:0:0:0:
336,168,74715,2,0,P|256:215|176:168,2,194.999991073609,4|4|8,0:2|0:3|0:3,0:0:0:0:
24,272,75549,1,2,0:2:0:0:
136,352,75715,1,2,0:3:0:0:
256,288,75882,1,0,0:0:0:0:
376,352,76049,2,0,P|448:328|472:216,2,194.999991073609,4|4|8,0:3|0:3|0:3,0:0:0:0:
128,80,76882,5,2,0:2:0:0:
208,192,77049,1,2,0:3:0:0:
312,104,77215,1,0,0:0:0:0:
408,0,77382,2,0,P|480:56|448:144,2,194.999991073609,4|4|8,0:3|0:3|0:3,0:0:0:0:
40,344,78382,1,8,0:2:0:0:
144,272,78549,1,2,0:3:0:0:
256,336,78715,2,0,P|344:312|360:256,1,129.999994049073,4|0,0:2|0:0,0:0:0:0:
200,184,79049,1,8,0:2:0:0:
40,120,79215,2,0,P|120:24|248:40,1,259.999988098145,4|0,0:0|0:0,0:0:0:0:
352,112,79715,1,8,0:2:0:0:
432,216,79882,1,2,0:3:0:0:
376,344,80049,6,0,P|256:386|136:344,1,259.999988098145,4|10,0:2|0:2,0:0:0:0:
376,40,80715,2,0,P|256:-2|136:40,1,259.999988098145,0|10,0:0|0:2,0:0:0:0:
448,264,81382,2,0,L|336:184,1,129.999994049073,4|4,0:2|0:3,0:0:0:0:
288,232,81632,1,4,0:3:0:0:
208,128,81799,1,8,0:3:0:0:
136,232,81965,1,4,0:0:0:0:
408,352,82382,1,2,0:2:0:0:
488,264,82549,1,2,0:3:0:0:
456,152,82715,6,0,P|416:48|296:16,1,239.999992675781,4|8,0:3|0:0,0:0:0:0:
211,369,83382,2,0,P|99:339|56:232,1,239.999992675781,8|8,0:3|0:0,0:0:0:0:
296,232,84049,1,2,0:2:0:0:
216,152,84215,2,0,P|144:80|76:68,2,165.000005035401,8|8|0,0:0|0:2|1:0,0:0:0:0:
224,176,84799,1,0,1:0:0:0:
228,204,84882,1,0,1:0:0:0:
224,232,84965,1,0,1:0:0:0:
216,256,85049,2,0,P|200:280|176:304,3,50,0|0|2|0,1:0|1:0|1:2|1:0,1:0:0:0:
168,312,85382,5,6,0:0:0:0:
136,144,85549,1,0,0:0:0:0:
296,232,85715,1,10,0:0:0:0:
376,80,85882,1,0,0:0:0:0:
480,224,86049,2,2,P|448:320|360:352,1,200,2|8,0:0|0:0,0:0:0:0:
224,256,86549,1,0,0:0:0:0:
96,368,86715,2,2,P|32:320|72:208,2,200,2|10|2,0:0|0:0|0:0,0:0:0:0:
480,32,87882,5,0,0:0:0:0:
328,112,88049,2,0,L|368:208,1,100,2|0,0:0|0:0,0:0:0:0:
145,204,88382,2,0,L|184:112,1,100,8|0,0:0|0:0,0:0:0:0:
408,296,88715,1,2,0:0:0:0:
104,296,89049,1,8,0:0:0:0:
16,192,89215,1,0,0:0:0:0:
128,96,89382,2,2,P|152:48|195:28,1,100,2|0,0:0|0:0,0:0:0:0:
257,7,89632,1,0,0:0:0:0:
323,28,89715,2,0,P|366:50|387:95,2,100,10|0|2,0:0|0:0|0:0,0:0:0:0:
40,344,90549,5,0,0:0:0:0:
128,304,90715,1,4,0:2:0:0:
128,304,90882,1,0,0:0:0:0:
232,304,91049,1,8,0:2:0:0:
232,304,91215,1,0,0:0:0:0:
304,240,91382,1,4,0:3:0:0:
176,160,91632,1,8,0:3:0:0:
48,240,91882,1,8,0:3:0:0:
280,80,92215,1,0,0:0:0:0:
384,80,92382,1,8,0:2:0:0:
384,80,92549,1,0,0:0:0:0:
464,144,92715,1,4,0:3:0:0:
336,224,92965,1,8,0:3:0:0:
208,144,93215,1,8,0:3:0:0:
80,192,93382,5,2,0:3:0:0:
256,320,93632,1,0,0:0:0:0:
432,192,93882,1,0,0:0:0:0:
384,56,94049,2,0,P|257:8|128:56,1,279.999991455078,4|2,0:2|0:2,0:0:0:0:
376,360,94715,1,8,0:3:0:0:
389,335,94799,1,8,0:3:0:0:
397,308,94882,1,8,0:3:0:0:
401,280,94965,1,8,0:3:0:0:
400,251,95049,1,8,0:3:0:0:
398,223,95132,1,8,0:3:0:0:
136,360,95382,1,4,0:3:0:0:
123,335,95465,1,4,0:3:0:0:
115,308,95549,1,4,0:3:0:0:
111,280,95632,1,4,0:3:0:0:
112,251,95715,1,4,0:3:0:0:
114,223,95799,1,4,0:3:0:0:
332,60,96049,6,0,P|380:72|420:108,1,100,4|0,0:0|0:0,0:0:0:0:
456,196,96382,1,8,0:0:0:0:
400,336,96549,2,0,P|304:332|240:256,1,200,2|0,0:0|0:0,0:0:0:0:
212,72,97049,2,0,P|236:120|236:168,1,100,8|0,0:0|0:0,0:0:0:0:
160,328,97382,2,0,P|136:280|136:232,1,100,2|0,0:0|0:0,0:0:0:0:
212,72,97715,1,8,0:0:0:0:
388,120,97882,2,0,B|384:192|396:260|396:260|380:236|348:224,1,200,2|0,0:3|0:0,0:0:0:0:
349,224,98382,1,8,0:0:0:0:
135,234,98549,5,0,0:0:0:0:
72,160,98715,1,2,0:0:0:0:
104,64,98882,1,0,0:0:0:0:
204,48,99049,1,8,0:0:0:0:
224,196,99215,2,0,P|216:288|120:328,1,200,2|0,0:0|0:0,0:0:0:0:
135,234,99715,1,8,0:0:0:0:
204,48,99882,5,2,0:0:0:0:
288,104,100049,1,2,0:0:0:0:
388,112,100215,1,0,0:0:0:0:
476,60,100382,1,8,0:0:0:0:
512,248,100549,2,0,P|456:252|376:312,1,150,2|0,0:3|1:0,0:0:0:0:
372,320,100882,1,0,1:0:0:0:
364,340,100965,1,0,1:0:0:0:
364,360,101049,1,8,1:2:0:0:
240,276,101215,1,0,1:0:0:0:
240,276,101299,1,0,1:0:0:0:
240,276,101382,6,0,P|192:308|164:348,1,100,4|0,1:2|0:0,0:0:0:0:
68,356,101715,1,8,0:0:0:0:
8,220,101882,2,0,B|20:120|20:120|84:40,1,200,2|2,0:3|0:3,0:0:0:0:
232,40,102382,2,0,L|168:116,1,100,8|0,0:0|0:0,0:0:0:0:
248,288,102715,2,0,L|272:188,1,100,2|0,0:0|0:0,0:0:0:0:
376,84,103049,1,8,0:0:0:0:
500,168,103215,2,0,P|504:272|424:324,1,200,2|0,0:3|0:0,0:0:0:0:
316,208,103715,2,0,P|372:204|416:224,1,100,8|0,0:0|0:0,0:0:0:0:
248,288,104049,6,0,P|208:191|266:115,1,200,2|8,0:3|0:0,0:0:0:0:
316,208,104549,1,2,0:0:0:0:
160,312,104715,2,0,P|128:232|184:80,1,250,2|8,0:3|0:0,0:0:0:0:
316,208,105215,1,0,0:0:0:0:
408,248,105382,1,0,0:0:0:0:
504,132,105549,5,0,1:0:0:0:
388,40,105715,1,0,1:0:0:0:
248,92,105882,1,0,1:0:0:0:
232,100,105965,1,0,1:0:0:0:
216,108,106049,1,0,1:0:0:0:
200,116,106132,1,0,1:0:0:0:
184,124,106215,1,0,1:0:0:0:
168,132,106299,1,0,1:0:0:0:
152,140,106382,1,0,1:0:0:0:
136,148,106465,1,0,1:0:0:0:
116,156,106549,1,0,1:0:0:0:
100,164,106632,1,0,1:0:0:0:
84,172,106715,1,4,1:0:0:0:
380,56,117382,5,4,0:0:0:0:
380,56,117549,2,0,L|392:156,1,100,2|8,0:0|0:0,0:0:0:0:
496,308,117882,2,0,L|484:208,1,100,2|0,0:0|0:0,0:0:0:0:
216,72,118382,2,0,P|160:68|112:88,1,100,8|0,0:0|0:0,0:0:0:0:
60,164,118715,1,2,0:0:0:0:
72,264,118882,1,0,0:0:0:0:
268,332,119049,1,8,0:0:0:0:
280,232,119215,1,0,0:0:0:0:
384,56,119382,2,0,P|424:92|432:140,1,100,2|2,0:3|0:0,0:0:0:0:
420,316,119715,2,0,P|380:280|372:232,1,100,8|2,0:0|0:0,0:0:0:0:
160,24,120215,5,2,0:0:0:0:
68,64,120382,1,8,0:0:0:0:
36,160,120549,1,2,0:0:0:0:
68,252,120715,2,0,B|110:294|90:342|90:342|138:322|181:365,1,200,2|8,0:0|0:0,0:0:0:0:
268,244,121215,1,0,0:0:0:0:
404,308,121382,2,0,P|432:264|428:212,1,100,2|0,0:0|0:0,0:0:0:0:
416,168,121632,1,2,0:0:0:0:
336,40,121799,1,0,0:0:0:0:
328,88,121882,1,2,0:0:0:0:
196,156,122049,5,0,1:0:0:0:
196,156,122132,2,0,P|104:120|64:144,1,150,0|8,1:0|1:2,1:0:0:0:
120,336,122715,5,4,0:0:0:0:
140,332,122799,1,0,0:0:0:0:
160,328,122882,1,2,0:0:0:0:
180,324,122965,1,0,0:0:0:0:
200,320,123049,1,8,0:0:0:0:
220,316,123132,1,0,0:0:0:0:
240,312,123215,1,2,0:0:0:0:
260,308,123299,1,0,0:0:0:0:
280,304,123382,1,0,0:0:0:0:
376,188,123549,1,2,0:0:0:0:
504,264,123715,1,8,0:0:0:0:
80,232,124049,5,2,0:3:0:0:
102,227,124132,1,0,0:0:0:0:
124,223,124215,1,2,0:0:0:0:
146,218,124299,1,0,0:0:0:0:
168,214,124382,1,8,0:0:0:0:
190,210,124465,1,0,0:0:0:0:
212,205,124549,1,2,0:0:0:0:
234,201,124632,1,0,0:0:0:0:
256,196,124715,1,0,0:0:0:0:
361,69,124882,1,2,0:0:0:0:
502,152,125049,1,8,0:0:0:0:
224,44,125382,6,0,P|180:76|156:120,1,100,4|2,0:3|0:0,0:0:0:0:
24,184,125715,2,0,P|56:228|104:252,1,100,8|0,0:0|0:0,0:0:0:0:
144,328,125965,2,0,P|192:324|248:328,1,100,2|0,0:0|0:0,0:0:0:0:
332,344,126215,1,2,0:0:0:0:
392,212,126382,1,8,0:0:0:0:
480,336,126549,1,2,0:0:0:0:
424,120,126715,6,0,B|400:76|400:76|352:56,1,100,0|4,0:0|0:0,0:0:0:0:
88,120,127049,2,0,B|112:76|112:76|160:56,1,100,8|0,0:0|0:0,0:0:0:0:
256,172,127382,2,0,L|256:280,1,100,8|0,0:0|0:0,0:0:0:0:
132,360,127715,1,0,1:0:0:0:
132,340,127799,1,0,1:0:0:0:
132,320,127882,1,0,1:0:0:0:
132,300,127965,1,0,1:0:0:0:
132,280,128049,5,0,0:0:0:0:
112,184,128215,1,2,0:3:0:0:
32,124,128382,2,0,P|128:84|200:136,1,200,8|2,0:0|0:0,0:0:0:0:
352,240,128882,1,2,0:3:0:0:
460,92,129049,1,8,0:0:0:0:
256,216,129215,1,2,0:3:0:0:
436,188,129382,1,2,0:0:0:0:
436,188,129715,6,0,B|464:240|440:288|440:288|396:372,1,200,8|2,0:0|0:0,0:0:0:0:
284,272,130215,1,2,0:3:0:0:
152,344,130382,1,8,0:0:0:0:
56,228,130549,1,2,0:3:0:0:
188,156,130715,2,0,P|200:104|192:52,1,100,2|0,0:0|0:0,0:0:0:0:
408,32,131049,2,0,B|384:72|384:72|401:116|401:116|375:168|411:219,2,200,8|0|8,0:0|0:3|0:0,0:0:0:0:
484,160,131882,5,2,0:0:0:0:
484,160,132049,2,0,P|504:212|492:264,1,100,2|0,0:3|0:0,0:0:0:0:
328,320,132382,2,0,L|428:312,1,100,8|0,0:0|0:0,0:0:0:0:
256,248,132715,1,2,0:0:0:0:
116,308,132882,1,0,0:0:0:0:
28,188,133049,1,8,0:0:0:0:
124,76,133215,5,0,1:0:0:0:
124,76,133299,1,0,1:0:0:0:
124,76,133382,2,0,P|172:60|224:64,1,100,4|2,1:0|0:3,0:0:0:0:
420,108,133715,2,0,P|372:124|320:120,1,100,8|2,0:0|0:3,0:0:0:0:
188,184,134049,1,2,0:0:0:0:
208,280,134215,1,2,0:3:0:0:
284,344,134382,1,8,0:0:0:0:
384,336,134549,1,2,0:3:0:0:
468,284,134715,6,0,B|488:236|460:188|460:188|496:88,1,200,4|8,0:3|0:0,0:0:0:0:
284,40,135215,1,0,0:0:0:0:
284,40,135382,2,0,L|168:52,1,100
104,108,135715,1,8,0:0:0:0:
80,256,135882,1,0,0:0:0:0:
71,76,136049,1,2,0:0:0:0:
112,287,136215,1,0,0:0:0:0:
274,145,136382,2,0,B|305:117|360:121|368:141|375:160|430:164|462:137,2,200,8|0|8,0:0|0:3|0:0,0:0:0:0:
320,340,137215,5,0,0:0:0:0:
320,340,137382,2,0,P|364:316|416:312,1,100,2|0,0:0|0:0,0:0:0:0:
192,340,137715,2,0,P|148:316|96:312,1,100,8|0,0:0|0:0,0:0:0:0:
32,176,138049,5,0,1:0:0:0:
36,156,138132,1,0,1:0:0:0:
48,140,138215,1,0,1:0:0:0:
64,128,138299,1,0,1:0:0:0:
84,120,138382,2,0,P|112:112|140:116,1,50,8|0,1:2|1:0,1:0:0:0:
268,172,138549,2,0,P|240:180|212:176,1,50,0|0,1:0|1:0,1:0:0:0:
140,248,138715,6,0,P|228:272|340:236,1,200,4|8,1:0|0:0,0:0:0:0:
484,24,139382,2,0,P|460:68|460:120,1,100,2|0,0:0|0:0,0:0:0:0:
488,204,139632,2,0,P|484:260|452:308,1,100,2|0,0:3|0:0,0:0:0:0:
388,352,139882,1,2,0:0:0:0:
224,264,140049,2,0,B|176:248|176:248|128:272,1,100,2|0,0:3|0:0,0:0:0:0:
76,348,140299,2,0,P|44:308|40:240,1,100,2|0,0:0|0:0,0:0:0:0:
96,184,140549,2,0,P|96:128|76:84,1,100,0|2,0:0|0:0,0:0:0:0:
433,88,141049,6,0,P|414:134|416:184,1,100,8|2,0:0|0:0,0:0:0:0:
472,324,141382,2,0,P|400:268|300:296,1,200,2|8,0:3|0:0,0:0:0:0:
136,44,142049,1,2,0:0:0:0:
68,176,142215,1,0,0:0:0:0:
60,224,142299,1,2,0:3:0:0:
140,352,142465,1,0,0:0:0:0:
148,304,142549,1,2,0:0:0:0:
248,172,142715,2,0,P|272:128|316:104,1,100,2|0,0:3|0:0,0:0:0:0:
397,71,142965,2,0,P|394:143|339:191,1,150,2|2,0:0|0:3,0:0:0:0:
428,292,143382,6,0,P|404:308|380:320,1,50,0|0,1:0|1:0,1:0:0:0:
316,376,143549,2,0,P|292:360|260:352,1,50,0|0,1:0|1:0,1:0:0:0:
184,348,143715,1,8,1:2:0:0:
60,216,143882,1,0,1:0:0:0:
60,216,143965,1,0,1:0:0:0:
60,216,144049,6,0,L|52:112,1,100,4|0,1:0|0:0,0:0:0:0:
260,32,144382,1,10,0:0:0:0:
244,132,144549,1,0,0:0:0:0:
336,248,144715,2,0,P|380:224|400:172,1,100,2|0,0:0|0:0,0:0:0:0:
488,152,144965,2,0,L|496:256,1,100,2|0,0:3|0:0,0:0:0:0:
504,344,145215,1,2,0:0:0:0:
336,248,145382,2,0,L|232:260,1,100,2|0,0:3|0:0,0:0:0:0:
192,340,145632,2,0,P|156:304|144:256,1,100,2|0,0:0|0:0,0:0:0:0:
152,164,145882,2,0,P|144:112|112:76,1,100,0|2,0:3|0:0,0:0:0:0:
412,44,146382,6,0,P|420:96|452:132,1,100,8|0,0:0|0:0,0:0:0:0:
420,332,146715,2,0,B|373:321|353:270|367:257|382:243|361:191|315:182,1,200,4|8,0:3|0:0,0:0:0:0:
60,344,147382,1,2,0:0:0:0:
4,204,147549,1,0,0:3:0:0:
20,156,147632,1,2,0:3:0:0:
128,52,147799,1,0,0:0:0:0:
132,100,147882,1,2,0:3:0:0:
248,292,148049,2,0,L|352:300,1,100,2|0,0:0|0:0,0:0:0:0:
392,216,148299,2,0,L|292:208,1,100,2|0,0:0|0:0,0:0:0:0:
200,200,148549,1,2,0:3:0:0:
404,48,148715,5,0,1:0:0:0:
412,64,148799,1,0,1:0:0:0:
416,84,148882,1,0,1:0:0:0:
412,104,148965,1,0,1:0:0:0:
404,120,149049,2,0,L|380:172,1,50,8|0,1:2|1:0,1:0:0:0:
313,253,149215,2,0,L|292:207,1,50,0|0,1:0|1:0,1:0:0:0:
228,116,149382,6,0,P|160:92|84:136,2,150,4|2|0,1:0|0:0|0:0,0:0:0:0:
64,360,150215,1,2,0:0:0:0:
64,360,150382,2,0,P|88:312|100:264,1,100,8|0,0:0|0:0,0:0:0:0:
228,116,150715,1,2,0:3:0:0:
372,72,150882,1,0,0:0:0:0:
420,76,150965,1,2,0:0:0:0:
500,204,151132,1,0,0:0:0:0:
452,200,151215,1,2,0:0:0:0:
364,324,151382,5,0,0:0:0:0:
364,324,151465,2,0,P|316:304|216:320,1,150,8|8,0:0|0:0,0:0:0:0:
76,360,151882,1,2,0:0:0:0:
100,212,152049,2,0,P|100:160|128:116,1,100,2|0,0:3|0:0,0:0:0:0:
220,128,152299,2,0,L|320:120,1,100,2|0,0:0|0:0,0:0:0:0:
396,64,152549,2,0,P|412:140|400:172,1,100,2|0,0:3|0:0,0:0:0:0:
388,208,152799,1,8,0:0:0:0:
392,256,152882,1,0,0:0:0:0:
264,336,153049,6,0,L|256:228,1,100,8|0,0:0|0:0,0:0:0:0:
116,292,153382,2,0,L|80:196,1,100,2|0,0:0|0:0,0:0:0:0:
48,120,153632,1,2,0:3:0:0:
172,36,153799,1,0,0:0:0:0:
216,60,153882,2,0,P|264:72|320:56,1,100
356,36,154132,1,8,0:0:0:0:
404,32,154215,1,0,0:0:0:0:
492,156,154382,6,0,L|480:256,1,100,8|0,0:0|0:0,0:0:0:0:
344,320,154715,2,0,B|356:220|356:220|332:176,2,150,4|2|0,0:0|0:0|0:0,0:0:0:0:
196,340,155382,1,0,0:0:0:0:
148,332,155465,1,8,0:0:0:0:
104,304,155549,1,0,0:0:0:0:
56,164,155715,1,8,0:0:0:0:
144,44,155882,1,0,0:0:0:0:
292,56,156049,2,0,P|340:68|400:60,1,100,2|0,0:0|0:0,0:0:0:0:
480,44,156299,2,0,P|468:92|476:152,1,100,2|0,0:3|0:0,0:0:0:0:
496,228,156549,5,2,1:2:0:0:
504,248,156632,1,0,1:0:0:0:
508,268,156715,1,0,1:0:0:0:
508,288,156799,1,0,1:0:0:0:
504,308,156882,1,0,1:0:0:0:
496,324,156965,1,0,1:0:0:0:
484,340,157049,1,8,1:2:0:0:
280,284,157215,2,0,L|232:272,1,50,0|0,1:0|1:0,1:0:0:0:
136,252,157382,6,0,P|88:232|56:192,1,100,4|0,1:0|0:0,0:0:0:0:
32,100,157715,1,8,0:0:0:0:
204,48,157882,2,0,B|256:29|300:52|300:52|349:37|397:64,1,200,2|2,0:0|0:3,0:0:0:0:
376,236,158382,2,0,P|348:192|336:128,1,100,8|0,0:0|0:0,0:0:0:0:
476,256,158715,2,0,P|436:320|320:320,1,200,2|8,0:0|0:0,0:0:0:0:
204,228,159215,5,2,0:3:0:0:
84,316,159382,1,4,0:3:0:0:
64,168,159549,1,2,0:0:0:0:
184,324,159715,1,8,0:0:0:0:
268,144,159882,1,0,0:0:0:0:
320,320,160049,2,0,P|416:330|476:256,1,200,4|8,0:3|0:0,0:0:0:0:
448,108,160549,5,2,0:0:0:0:
320,32,160715,2,0,L|208:40,1,100,2|0,0:3|0:0,0:0:0:0:
48,124,161049,2,0,L|147:116,1,100,8|0,0:0|0:0,0:0:0:0:
328,180,161382,2,0,B|228:188|228:188|160:268,1,200,2|8,0:0|0:0,0:0:0:0:
163,263,162049,1,2,0:0:0:0:
308,304,162215,1,2,0:3:0:0:
94,293,162382,1,8,0:0:0:0:
376,273,162549,1,2,0:3:0:0:
48,352,162715,6,0,P|20:312|28:260,1,100,4|0,0:0|0:0,0:0:0:0:
84,180,163049,1,8,0:0:0:0:
188,72,163215,1,2,0:0:0:0:
324,280,163382,1,8,0:3:0:0:
188,280,163549,1,8,0:3:0:0:
324,72,163715,1,8,0:0:0:0:
428,180,163882,1,2,0:0:0:0:
428,180,164049,6,0,B|402:233|438:272|438:272|386:269|360:324,1,200,0|8,0:0|0:0,0:0:0:0:
220,272,164549,1,2,0:3:0:0:
80,328,164715,2,0,L|48:224,1,100,4|2,0:3|0:0,0:0:0:0:
180,152,165049,2,0,L|196:48,1,100,8|0,0:0|0:0,0:0:0:0:
344,24,165382,2,0,P|392:116|480:120,1,200,4|8,0:3|0:0,0:0:0:0:
492,272,165882,5,2,0:0:0:0:
308,220,166049,1,2,0:3:0:0:
484,288,166215,1,0,0:0:0:0:
296,300,166382,1,8,0:0:0:0:
488,308,166549,1,0,0:0:0:0:
312,380,166715,2,0,P|228:344|233:248,1,200,4|8,0:3|0:0,0:0:0:0:
233,247,167382,1,2,0:0:0:0:
136,132,167549,1,0,0:0:0:0:
88,272,167715,1,10,0:0:0:0:
240,144,167882,5,0,1:0:0:0:
284,120,167965,1,0,1:0:0:0:
332,108,168049,2,0,P|376:104|432:112,1,100,4|0,1:2|0:0,0:0:0:0:
476,288,168382,2,0,P|426:295|376:291,1,100,8|0,0:2|0:0,0:0:0:0:
311,82,168715,2,0,P|368:77|426:85,1,100,2|0,0:2|0:0,0:0:0:0:
496,313,169049,2,0,P|433:323|381:319,1,100,8|0,0:2|0:0,0:0:0:0:
248,288,169382,2,0,P|168:280|56:328,1,200,2|8,0:0|0:0,0:0:0:0:
12,184,169882,5,0,1:0:0:0:
16,164,169965,1,0,1:0:0:0:
24,148,170049,1,0,1:0:0:0:
36,132,170132,1,0,0:0:0:0:
52,120,170215,1,2,0:0:0:0:
72,112,170299,1,0,0:0:0:0:
92,112,170382,2,0,L|148:116,1,50,8|0,0:0|0:0,0:0:0:0:
212,188,170549,2,0,L|268:184,1,50,2|0,0:0|0:0,0:0:0:0:
352,136,170715,2,0,P|360:80|352:32,2,100,0|0|8,0:0|0:0|0:0,0:0:0:0:
468,232,171215,5,4,0:3:0:0:
468,232,171299,1,4,0:3:0:0:
468,232,171382,2,0,P|456:284|424:316,1,100,4|0,0:3|0:0,0:0:0:0:
288,256,171715,1,8,0:0:0:0:
160,332,171882,1,0,0:0:0:0:
24,264,172049,2,0,L|8:64,1,200,2|8,0:0|0:0,0:0:0:0:
152,28,172549,5,2,1:2:0:0:
172,32,172632,1,0,1:0:0:0:
192,36,172715,2,0,L|248:48,1,50,0|0,1:0|0:0,0:0:0:0:
336,68,172883,1,2,0:0:0:0:
344,88,172966,1,0,0:0:0:0:
348,108,173049,2,0,P|356:140|356:164,1,50,8|0,0:0|0:0,0:0:0:0:
284,236,173215,2,0,P|276:204|276:180,1,50,2|0,0:0|0:0,0:0:0:0:
400,268,173382,5,4,0:3:0:0:
400,268,173549,1,4,0:3:0:0:
400,268,173715,1,8,0:0:0:0:
256,316,173882,1,0,0:0:0:0:
208,328,173965,1,0,0:0:0:0:
156,324,174049,1,0,0:0:0:0:
48,220,174215,1,2,0:0:0:0:
84,76,174382,2,0,P|116:48|180:36,1,100,8|2,0:0|0:0,0:0:0:0:
344,48,174715,2,0,B|379:78|371:134|351:138|332:143|324:197|359:230,1,200,2|8,0:3|0:0,0:0:0:0:
464,340,175215,5,2,1:2:0:0:
452,356,175299,1,0,1:0:0:0:
436,368,175382,1,0,1:0:0:0:
416,376,175465,1,0,0:0:0:0:
396,376,175549,1,2,0:0:0:0:
376,372,175632,1,0,0:0:0:0:
360,364,175715,2,0,P|336:344|316:336,1,50,8|0,0:0|0:0,0:0:0:0:
220,344,175882,2,0,P|192:348|160:344,1,50,2|0,0:3|0:0,0:0:0:0:
84,304,176049,6,0,L|68:200,2,100,4|4|8,0:3|0:3|0:0,0:0:0:0:
152,112,176549,1,2,0:0:0:0:
300,92,176715,1,2,0:0:0:0:
244,232,176882,2,0,P|336:240|428:176,1,200,8|2,0:0|0:3,0:0:0:0:
444,36,177382,5,2,0:0:0:0:
300,92,177549,1,0,0:0:0:0:
64,128,177715,1,10,0:0:0:0:
208,184,177882,1,0,0:0:0:0:
492,192,178049,1,2,0:0:0:0:
318,277,178215,1,0,0:0:0:0:
16,296,178382,5,10,0:0:0:0:
190,381,178549,1,0,0:0:0:0:
392,344,178715,2,0,P|420:296|424:252,1,100,4|0,1:0|0:0,0:0:0:0:
384,56,179049,2,0,P|356:104|352:148,1,100,8|0,0:0|0:0,0:0:0:0:
224,228,179382,1,0,0:0:0:0:
224,228,179549,2,0,B|176:208|152:152|152:152|56:144,1,200,2|0,0:0|0:0,0:0:0:0:
12,288,180049,2,0,P|44:328|92:352,1,100,4|0,0:3|0:0,0:0:0:0:
224,128,180382,2,0,P|232:184|223:229,1,100,8|0,0:0|0:0,0:0:0:0:
344,348,180715,1,2,0:0:0:0:
344,348,181049,6,0,P|392:328|424:284,1,100,8|0,0:0|0:0,0:0:0:0:
432,96,181382,1,8,0:3:0:0:
460,192,181549,1,0,0:0:0:0:
256,160,181715,2,8,P|304:172|364:168,1,100,8|0,0:0|0:0,0:0:0:0:
188,88,182049,2,8,P|140:76|80:80,1,100,8|0,0:3|0:0,0:0:0:0:
0,248,182382,1,2,0:0:0:0:
20,148,182549,1,0,0:0:0:0:
252,351,182715,1,4,0:3:0:0:
104,213,182882,1,2,0:3:0:0:
304,237,183049,1,8,0:0:0:0:
128,336,183215,1,2,0:3:0:0:
213,152,183382,1,4,0:3:0:0:
252,351,183715,5,2,0:0:0:0:
392,292,183882,1,0,1:0:0:0:
392,292,183965,1,0,1:0:0:0:
392,292,184049,2,0,B|436:268|436:268|488:272,1,100,4|0,1:0|0:0,0:0:0:0:
492,120,184382,2,0,B|448:144|448:144|396:140,1,100,8|0,0:0|0:0,0:0:0:0:
252,112,184715,1,0,0:0:0:0:
252,112,184882,2,0,B|216:84|191:111|156:87|156:87|132:121|99:104|76:143,1,200,2|0,0:0|0:0,0:0:0:0:
64,320,185382,2,0,P|56:264|40:224,1,100,4|0,0:3|0:0,0:0:0:0:
246,231,185715,2,0,P|254:167|250:99,1,119.999996337891,8|0,0:0|0:0,0:0:0:0:
448,184,186049,2,0,P|476:116|472:40,1,139.999995727539,2|0,0:0|0:0,0:0:0:0:
404,260,186382,6,0,P|400:312|412:360,1,100,8|0,0:0|0:0,0:0:0:0:
108,328,186715,2,0,L|312:320,1,200,8|8,0:3|0:0,0:0:0:0:
332,224,187215,1,0,0:0:0:0:
300,128,187382,2,0,L|100:135,1,200,8|8,0:3|0:0,0:0:0:0:
372,44,188049,2,0,B|416:84|408:140|408:140|496:172,2,200,4|8|2,0:3|0:0|0:0,0:0:0:0:
196,56,188882,6,0,L|184:8,2,50,0|0|2,1:0|1:0|1:2,1:0:0:0:
48,148,189215,1,0,0:0:0:0:
40,196,189299,1,0,0:0:0:0:
52,244,189382,2,0,P|72:292|112:320,1,100,4|0,1:0|0:0,0:0:0:0:
260,340,189715,2,0,P|260:284|232:240,1,100,8|0,0:0|0:0,0:0:0:0:
168,84,190049,2,0,P|144:132|152:180,1,100,2|0,0:0|0:0,0:0:0:0:
260,340,190382,2,0,P|304:344|360:320,1,100,8|0,0:0|0:0,0:0:0:0:
440,200,190715,5,2,0:0:0:0:
451,50,190882,1,0,0:0:0:0:
301,40,191049,1,10,0:0:0:0:
291,190,191215,1,0,0:0:0:0:
478,179,191382,1,2,0:0:0:0:
430,11,191549,1,0,0:0:0:0:
262,60,191715,1,10,0:0:0:0:
311,228,191882,1,0,0:0:0:0:
172,336,192049,6,0,P|76:304|48:216,1,200,4|8,0:3|0:0,0:0:0:0:
340,48,192715,2,0,P|436:80|464:168,1,200,4|0,0:0|0:0,0:0:0:0:
468,172,193382,6,0,L|476:276,1,100,4|8,0:0|0:0,0:0:0:0:
348,148,193715,2,0,L|340:48,1,100,8|0,0:0|0:0,0:0:0:0:
280,240,194049,1,0,1:0:0:0:
260,244,194132,1,0,1:0:0:0:
240,248,194215,1,0,1:0:0:0:
220,252,194299,1,0,1:0:0:0:
200,256,194382,1,0,1:0:0:0:
180,260,194465,1,0,1:0:0:0:
160,264,194549,1,0,1:0:0:0:
140,268,194632,1,0,1:0:0:0:
120,272,194715,1,4,1:0:0:0:
96,64,205382,5,4,0:0:0:0:
96,64,205715,2,0,P|96:120|112:164,1,100,8|0,0:0|0:0,0:0:0:0:
176,236,206049,1,2,0:0:0:0:
272,260,206215,1,0,0:0:0:0:
356,208,206382,1,8,0:0:0:0:
480,120,206549,2,0,P|430:33|331:48,2,200,2|2|2,0:0|0:3|0:0,0:0:0:0:
428,260,207382,2,0,P|396:304|388:352,1,100,2|0,0:0|0:0,0:0:0:0:
224,236,207715,2,0,P|280:240|320:264,1,100,8|0,0:0|0:0,0:0:0:0:
132,336,208049,6,0,B|96:304|92:248|92:248|52:216,1,150,2|0,0:3|0:0,0:0:0:0:
24,132,208382,2,0,L|12:32,1,100,8|0,0:0|0:0,0:0:0:0:
172,156,208715,2,0,L|211:63,1,100,2|0,0:0|0:0,0:0:0:0:
308,40,209049,1,8,0:0:0:0:
440,112,209215,2,0,P|448:216|372:276,1,200,2|0,0:0|0:0,0:0:0:0:
280,284,209715,1,8,0:0:0:0:
320,192,209882,1,0,0:0:0:0:
232,18,210215,5,2,0:3:0:0:
172,156,210382,1,8,0:0:0:0:
80,34,210549,1,2,0:0:0:0:
16,220,210715,6,0,P|36:296|96:332,1,150,4|0,0:0|0:0,0:0:0:0:
184,316,211049,2,0,P|236:304|288:312,1,100,8|0,0:0|0:0,0:0:0:0:
372,356,211382,1,2,0:0:0:0:
464,320,211549,1,0,0:0:0:0:
496,224,211715,1,8,0:0:0:0:
424,92,211882,2,0,B|324:72|324:72|244:128,2,200,2|2|2,0:0|0:3|0:0,0:0:0:0:
380,236,212715,2,0,L|372:348,1,100,2|0,0:0|0:0,0:0:0:0:
224,360,213049,2,0,L|231:260,1,100,8|0,0:0|0:0,0:0:0:0:
240,112,213382,6,0,P|156:56|72:96,1,200,4|8,0:3|0:0,0:0:0:0:
28,184,213882,1,0,0:0:0:0:
48,284,214049,1,2,0:0:0:0:
184,344,214215,1,2,0:3:0:0:
256,212,214382,1,8,0:0:0:0:
396,268,214549,2,0,P|400:168|340:84,1,200,2|0,0:0|0:0,0:0:0:0:
256,212,215049,1,8,0:0:0:0:
166,88,215215,2,0,P|132:124|108:180,1,100,2|0,0:0|1:0,0:0:0:0:
108,188,215465,1,0,1:0:0:0:
108,208,215549,1,0,1:0:0:0:
112,228,215632,1,0,1:0:0:0:
120,248,215715,1,8,1:2:0:0:
132,264,215799,1,0,1:0:0:0:
148,276,215882,1,0,1:0:0:0:
316,348,216049,6,0,P|344:304|392:280,1,100,4|0,1:0|0:0,0:0:0:0:
440,104,216382,2,0,P|460:156|456:204,1,100,8|0,0:0|0:0,0:0:0:0:
264,144,216715,2,0,P|244:92|248:44,1,100,2|0,0:0|0:0,0:0:0:0:
64,96,217049,2,0,L|76:208,1,100,8|0,0:0|0:0,0:0:0:0:
92,344,217382,6,0,P|168:288|252:332,1,200,2|8,0:3|0:0,0:0:0:0:
420,196,217882,2,0,P|344:252|260:208,1,200,2|0,0:3|0:0,0:0:0:0:
228,80,218382,1,8,0:0:0:0:
96,76,218549,1,0,0:0:0:0:
420,40,218715,6,0,P|344:96|260:52,1,200,2|8,0:0|0:0,0:0:0:0:
92,188,219215,2,0,P|168:132|252:176,1,200,2|0,0:3|0:0,0:0:0:0:
256,372,219715,2,0,P|232:328|236:276,1,100,8|0,0:0|0:0,0:0:0:0:
324,108,220049,2,0,P|368:140|412:140,1,100,2|0,0:0|0:0,0:0:0:0:
476,88,220299,2,0,P|464:144|476:188,1,100,2|0,0:3|0:0,0:0:0:0:
434,264,220549,2,0,B|410:304|356:310|363:277|340:217|299:217|282:277|276:351|235:351|229:277|212:217|172:217|148:277|155:310|101:304|78:264,1,400,2|0,0:0|0:0,0:0:0:0:
48,40,221382,6,0,P|64:92|64:144,1,100,4|0,1:1|0:0,0:0:0:0:
136,332,221715,2,0,P|137:282|152:234,1,100,8|0,0:0|0:0,0:0:0:0:
212,120,222049,1,2,0:0:0:0:
320,188,222215,1,0,0:0:0:0:
412,96,222382,1,8,0:0:0:0:
418,276,222715,2,0,P|452:184|412:96,1,200,6|8,0:3|0:0,0:0:0:0:
220,196,223215,2,0,L|324:188,1,100,2|0,0:0|0:0,0:0:0:0:
172,328,223549,2,0,L|72:335,1,100,2|8,0:3|0:0,0:0:0:0:
22,174,223882,5,2,0:0:0:0:
65,30,224049,1,4,0:3:0:0:
168,140,224215,1,4,0:3:0:0:
72,334,224382,1,12,0:0:0:0:
490,174,224549,5,2,0:0:0:0:
447,30,224715,1,4,0:3:0:0:
344,140,224882,1,4,0:3:0:0:
440,334,225049,1,12,0:0:0:0:
168,140,225215,5,2,0:0:0:0:
168,140,225382,2,0,P|196:96|236:72,2,100,4|0|8,0:0|0:0|0:0,0:0:0:0:
124,284,225882,2,0,L|136:340,4,50,0|0|0|0|0,1:0|1:0|1:0|1:0|1:0,0:0:0:0:
22,174,226382,6,0,P|28:120|52:68,1,100,2|0,0:3|0:0,0:0:0:0:
192,28,226715,2,0,P|280:88|368:64,1,200,4|8,0:0|0:0,0:0:0:0:
460,232,227215,2,0,B|392:152|392:152|344:176|300:176,1,200,2|0,0:0|0:0,0:0:0:0:
68,224,227715,1,8,0:0:0:0:
68,224,227882,2,0,B|62:279|19:307|19:307|70:310|103:355,1,200,2|0,0:3|0:0,0:0:0:0:
256,332,228382,1,8,0:0:0:0:
408,355,228549,2,0,B|441:310|492:307|492:307|449:279|444:224,1,200,2|0,0:0|0:0,0:0:0:0:
460,32,229049,5,8,0:0:0:0:
456,52,229132,1,0,0:0:0:0:
452,72,229215,2,0,B|416:108|360:92|360:92|256:116,1,200
112,140,229715,1,8,0:0:0:0:
208,256,229882,2,0,P|180:324|60:328,1,200,2|2,0:0|0:3,0:0:0:0:
65,332,230382,1,8,0:0:0:0:
304,256,230549,2,0,P|332:324|452:328,1,200,2|0,0:0|0:0,0:0:0:0:
488,132,231049,2,0,L|484:236,1,100,8|0,0:0|0:0,0:0:0:0:
372,44,231382,2,0,L|368:148,1,100,2|0,0:0|1:0,0:0:0:0:
368,164,231632,1,0,1:0:0:0:
368,184,231715,1,0,1:0:0:0:
208,256,231882,5,0,1:0:0:0:
208,256,231965,1,0,1:0:0:0:
208,256,232049,2,0,P|160:168|64:160,1,200,4|8,1:2|0:0,0:0:0:0:
100,264,232549,2,0,L|216:92,1,200,2|0,0:0|0:0,0:0:0:0:
352,44,233049,1,8,0:0:0:0:
476,128,233215,2,0,B|508:225|443:225|476:323,1,200,2|0,0:3|0:0,0:0:0:0:
332,368,233715,1,8,0:0:0:0:
212,280,233882,2,0,B|168:244|112:272,1,100,2|0,0:0|0:0,0:0:0:0:
20,128,234215,1,2,0:0:0:0:
24,108,234299,1,0,0:0:0:0:
28,88,234382,2,0,L|24:36,2,50,8|0|0,0:0|0:0|0:0,0:0:0:0:
328,48,234882,6,0,L|340:156,1,100,2|8,0:3|0:0,0:0:0:0:
444,292,235215,2,0,L|421:93,1,200,2|0,0:0|0:0,0:0:0:0:
184,48,235715,2,0,L|172:156,1,100,8|0,0:0|0:0,0:0:0:0:
80,268,236049,2,0,P|80:216|56:168,1,100,4|0,3:0|0:0,0:0:0:0:
224,304,236382,2,0,P|250:258|253:205,1,100,8|0,0:0|0:0,0:0:0:0:
336,84,236715,5,0,1:0:0:0:
340,104,236799,1,0,1:0:0:0:
348,124,236882,1,0,1:0:0:0:
360,140,236965,1,0,1:0:0:0:
376,156,237049,1,2,1:2:0:0:
392,168,237132,1,0,1:0:0:0:
412,176,237215,1,0,1:0:0:0:
432,180,237299,1,0,1:0:0:0:
452,180,237382,6,0,P|484:232|484:276,1,100,4|0,1:0|0:0,0:0:0:0:
316,352,237715,2,0,P|284:300|284:256,1,100,8|0,0:0|0:0,0:0:0:0:
216,196,237965,2,0,P|192:128|132:72,1,150,2|0,0:0|0:0,0:0:0:0:
36,188,238382,2,0,L|52:292,1,100,8|0,0:0|0:0,0:0:0:0:
232,296,238715,2,0,L|216:197,1,100,4|0,0:3|0:0,0:0:0:0:
276,60,239049,1,8,0:0:0:0:
424,68,239215,1,0,0:0:0:0:
460,286,239382,2,0,L|476:188,1,100,2|0,0:3|0:0,0:0:0:0:
280,296,239715,2,0,L|295:197,1,100,10|0,0:0|0:0,0:0:0:0:
136,52,240049,6,0,P|60:72|36:136,2,150,4|2|0,0:3|0:3|0:0,0:0:0:0:
176,224,240715,2,0,P|168:276|136:320,1,100,4|0,0:3|0:0,0:0:0:0:
256,132,241049,1,8,0:0:0:0:
404,112,241215,1,0,0:0:0:0:
500,228,241382,2,0,P|496:280|464:320,1,100,2|0,0:0|0:0,0:0:0:0:
388,280,241632,2,0,L|232:312,1,150
72,280,242049,2,0,B|36:252|44:192|72:192|100:192|108:132|72:104,1,200,4|12,0:3|0:0,0:0:0:0:
280,44,242549,5,0,1:0:0:0:
284,64,242632,1,0,1:0:0:0:
288,84,242715,2,0,B|300:136|300:136|336:168,1,100,4|0,1:2|0:0,0:0:0:0:
464,244,243049,2,0,P|468:300|444:340,1,100,8|0,0:0|0:0,0:0:0:0:
380,276,243299,2,0,B|308:264|308:264|284:296|240:296,1,150,2|0,0:0|0:0,0:0:0:0:
156,156,243715,2,0,P|204:172|240:208,1,100,8|0,0:0|0:0,0:0:0:0:
128,348,244049,6,0,P|80:332|44:296,1,100,4|0,0:3|0:0,0:0:0:0:
20,112,244382,1,8,0:0:0:0:
68,200,244549,1,0,0:0:0:0:
180,100,244715,2,0,P|224:72|276:60,1,100,2|0,0:0|0:0,0:0:0:0:
488,96,245049,2,0,P|444:124|392:136,1,100,8|0,0:0|0:0,0:0:0:0:
180,100,245382,6,0,L|172:256,1,150,4|0,0:3|0:0,0:0:0:0:
232,324,245715,2,0,P|284:320|328:340,1,100,8|0,0:0|0:0,0:0:0:0:
96,180,246049,2,0,L|88:288,1,100,4|0,0:3|0:0,0:0:0:0:
270,60,246382,1,2,0:0:0:0:
348,188,246549,1,0,0:0:0:0:
496,160,246715,6,0,P|480:212|496:288,1,125,4|0,1:2|0:0,0:0:0:0:
420,352,246965,2,0,P|372:368|296:356,1,125,4|0,1:2|0:0,0:0:0:0:
200,328,247215,1,4,1:0:0:0:
80,52,247549,5,2,0:0:0:0:
80,52,247716,2,0,P|128:64|184:68,1,100,8|0,0:0|0:0,0:0:0:0:
304,60,248016,2,0,B|404:64|404:64|476:132,1,200,6|8,0:0|0:0,0:0:0:0:
508,296,248466,2,0,B|408:292|408:292|336:224,1,200
184,68,248916,1,8,0:0:0:0:
184,68,249066,2,0,B|162:20|101:22|101:22|60:68|82:115,1,200,2|0,0:0|0:0,0:0:0:0:
132,200,249516,1,8,0:0:0:0:
104,296,249666,1,0,0:0:0:0:
172,372,249816,2,0,P|264:384|356:332,1,200,2|8,0:2|0:0,0:0:0:0:
228,84,250416,6,0,L|116:92,1,100,2|0,0:0|0:0,0:0:0:0:
0,168,250716,1,8,0:0:0:0:
148,196,250866,1,0,0:0:0:0:
284,136,251016,2,0,L|396:144,1,100,2|0,0:0|0:0,0:0:0:0:
512,220,251316,1,8,0:0:0:0:
364,248,251466,1,0,0:0:0:0:
244,340,251616,6,0,P|140:336|108:288,1,150,2|0,0:0|0:0,0:0:0:0:
96,260,251916,1,8,0:0:0:0:
116,108,252066,1,0,0:0:0:0:
248,40,252216,2,0,P|296:32|352:48,1,100,2|0,0:0|0:0,0:0:0:0:
512,240,252516,2,0,P|464:248|408:232,1,100,10|0,0:0|0:0,0:0:0:0:
368,216,252741,1,0,0:0:0:0:
328,188,252816,6,0,B|279:157|271:108|271:108|234:141|177:133,1,200,6|8,0:0|0:0,0:0:0:0:
32,240,253266,2,0,P|84:224|136:224,1,100,2|0,0:0|0:0,0:0:0:0:
296,288,253566,2,0,P|244:304|196:304,1,100,2|8,0:0|0:0,0:0:0:0:
32,240,253866,2,0,P|36:140|116:84,1,200,2|0,0:0|0:0,0:0:0:0:
256,120,254316,2,0,P|352:140|432:84,2,200,2|2|8,0:0|0:0|0:0,0:0:0:0:
452,356,255216,6,0,L|260:288,1,200,2|8,0:2|0:0,0:0:0:0:
116,312,255666,2,0,B|165:304|165:304|159:251|198:214|198:214|165:176,1,200,2|2,0:2|0:0,0:0:0:0:
176,76,256116,1,8,0:0:0:0:
276,88,256266,1,2,0:0:0:0:
372,56,256416,2,0,P|424:48|472:56,1,100,0|2,0:0|0:0,0:0:0:0:
472,240,256716,2,0,L|448:140,1,100,8|2,0:0|0:0,0:0:0:0:
400,328,257016,5,2,0:0:0:0:
384,340,257091,1,0,0:0:0:0:
364,348,257166,1,0,0:0:0:0:
344,348,257241,1,0,0:0:0:0:
324,340,257316,1,0,0:0:0:0:
308,328,257391,1,0,0:0:0:0:
296,312,257466,1,0,0:0:0:0:
288,292,257541,1,0,0:0:0:0:
284,272,257616,6,0,P|276:208|180:112,1,200,4|8,0:0|0:0,0:0:0:0:
56,192,258066,2,0,P|64:256|160:352,1,200,2|2,0:0|0:0,0:0:0:0:
284,272,258516,1,8,0:0:0:0:
284,272,258666,2,0,B|368:216|368:216|472:224,1,200,2|2,0:0|0:0,0:0:0:0:
512,56,259116,2,0,B|428:112|428:112|324:104,2,200,8|2|8,0:0|0:0|0:0,0:0:0:0:
232,64,259866,5,2,0:2:0:0:
232,64,260016,2,0,P|132:52|64:124,1,200,2|8,0:0|0:0,0:0:0:0:
184,252,260466,2,0,P|184:196|168:152,1,100,2|0,0:0|0:0,0:0:0:0:
304,296,260766,2,0,P|304:240|320:196,1,100,2|8,0:0|0:0,0:0:0:0:
468,352,261066,2,2,B|444:280|472:216|472:216|436:160,1,200,2|0,0:0|0:0,0:0:0:0:
344,52,261516,1,8,0:0:0:0:
196,40,261666,1,0,0:0:0:0:
60,104,261816,2,0,L|20:304,1,200,2|8,0:0|0:0,0:0:0:0:
256,348,262266,5,0,0:0:0:0:
260,328,262341,1,0,0:0:0:0:
264,308,262416,2,0,P|312:236|424:224,1,200,4|8,0:0|0:0,0:0:0:0:
380,336,262866,2,0,L|280:156,1,200,2|2,0:0|0:0,0:0:0:0:
282,161,263316,1,8,0:0:0:0:
80,64,263466,2,0,L|177:238,1,200,2|2,0:0|0:0,0:0:0:0:
384,236,263916,2,0,P|404:144|336:56,2,200,8|2|8,0:0|0:0|0:0,0:0:0:0:
112,332,264666,1,0,0:0:0:0:
400,332,264816,1,4,0:0:0:0:
68,172,266166,5,0,0:0:0:0:
68,172,266241,1,0,0:0:0:0:
68,172,266316,2,0,L|76:116,3,50,0|0|0|0,1:0|1:0|1:0|1:0,0:0:0:0:
156,76,266616,2,0,L|164:132,3,50,0|0|0|0,1:0|1:0|1:0|1:0,0:0:0:0:
244,176,266916,2,0,L|248:116,3,50,0|0|0|0,1:0|1:0|1:0|1:0,0:0:0:0:
236,312,267216,6,0,P|292:360|400:316,1,200,4|8,0:2|0:0,0:0:0:0:
436,36,267816,2,0,L|424:140,1,100
304,224,268116,2,0,L|316:120,1,100,8|0,0:0|0:0,0:0:0:0:
192,40,268416,2,0,P|92:48|32:124,1,200,2|8,0:0|0:0,0:0:0:0:
116,340,268866,2,0,P|152:252|144:148,1,200
144,149,269316,1,8,0:0:0:0:
395,339,269466,2,2,P|359:247|367:149,1,200,2|0,0:0|0:0,0:0:0:0:
367,149,269916,1,8,0:0:0:0:
479,121,270066,2,0,P|417:46|320:40,1,200,2|0,0:0|0:0,0:0:0:0:
232,88,270516,1,8,0:0:0:0:
148,368,270816,6,0,B|136:272|136:272|80:256|72:196,1,200,2|8,0:0|0:0,0:0:0:0:
80,20,271266,2,0,B|92:116|92:116|148:132|156:192,1,200,2|2,0:0|0:0,0:0:0:0:
256,304,271716,2,0,P|308:316|356:300,1,100,8|0,0:0|0:0,0:0:0:0:
480,120,272016,2,0,P|388:80|296:112,1,200,4|8,0:0|0:0,0:0:0:0:
297,110,272466,1,2,0:0:0:0:
92,328,272766,1,0,0:0:0:0:
152,192,272916,1,8,0:0:0:0:
60,76,273066,2,2,B|80:20|80:20|152:-8|208:60,1,200,2|0,0:0|0:0,0:0:0:0:
256,200,273516,1,8,0:0:0:0:
452,76,273666,2,2,B|432:20|432:20|360:-8|304:60,1,200,2|0,0:0|0:0,0:0:0:0:
374,290,274116,2,2,L|360:192,1,100,8|0,0:0|0:0,0:0:0:0:
508,360,274416,6,0,L|476:152,1,200,2|8,0:0|0:0,0:0:0:0:
307,56,274866,2,0,B|280:18|220:31|218:55|217:79|156:92|130:54,1,200,2|2,0:0|0:0,0:0:0:0:
130,54,275316,1,8,0:0:0:0:
16,268,275466,2,0,B|42:305|102:292|104:268|105:244|166:231|192:269,1,200,2|2,0:0|0:0,0:0:0:0:
200,288,275841,1,0,0:0:0:0:
208,304,275916,1,0,0:0:0:0:
224,316,275991,1,0,0:0:0:0:
244,324,276066,1,2,0:0:0:0:
264,324,276141,1,0,0:0:0:0:
284,316,276216,1,0,0:0:0:0:
300,304,276291,1,0,0:0:0:0:
308,288,276366,1,2,0:0:0:0:
308,268,276441,1,0,0:0:0:0:
304,248,276516,1,0,0:0:0:0:
306,228,276591,1,0,0:0:0:0:
312,209,276666,1,0,0:0:0:0:
323,192,276741,1,0,0:0:0:0:
340,184,276816,6,0,P|416:144|396:36,1,200,4|8,0:0|0:0,0:0:0:0:
104,32,277416,2,0,L|204:48,1,100,0|0,0:0|0:0,0:0:0:0:
124,240,277716,1,8,0:0:0:0:
136,140,277866,1,0,0:0:0:0:
268,208,278016,2,0,P|324:244|316:368,1,200,2|8,0:0|0:0,0:0:0:0:
240,304,278466,2,0,L|428:236,1,200,2|2,0:0|0:0,0:0:0:0:
464,56,278916,1,8,0:0:0:0:
464,56,279066,2,2,L|276:124,1,200,2|0,0:0|0:0,0:0:0:0:
184,164,279516,1,8,0:0:0:0:
88,140,279666,1,0,0:0:0:0:
72,288,279816,5,2,0:0:0:0:
372,272,280116,1,8,0:0:0:0:
80,192,280416,2,0,B|76:136|116:104|116:104|220:88,1,200,2|8,0:0|0:0,0:0:0:0:
432,192,280866,2,0,B|436:136|396:104|396:104|292:88,1,200,2|2,0:0|0:0,0:0:0:0:
296,88,281316,1,8,0:0:0:0:
256,360,281466,2,0,B|232:285|256:262|275:242|256:164,1,200,4|0,0:0|0:0,0:0:0:0:
76,48,282066,5,0,0:0:0:0:
76,48,282216,2,0,P|40:144|76:232,1,200,2|8,0:0|0:0,0:0:0:0:
192,324,282666,2,2,P|228:228|192:140,2,200,2|0|0,0:0|0:0|0:0,0:0:0:0:
380,20,283566,5,0,0:0:0:0:
380,20,283716,2,2,P|368:68|380:124,1,100,8|0,0:0|0:0,0:0:0:0:
416,380,284016,2,0,P|444:280|416:188,1,200,2|8,0:0|0:0,0:0:0:0:
288,112,284466,1,0,0:0:0:0:
140,140,284616,2,2,B|108:186|53:177|53:177|88:221|64:271,1,200,2|8,0:0|0:0,0:0:0:0:
356,340,285216,5,4,0:0:0:0:
380,192,285366,1,0,0:0:0:0:
384,172,285441,1,0,0:0:0:0:
388,152,285516,1,0,0:0:0:0:
316,20,285666,1,0,0:0:0:0:
312,40,285741,1,0,0:0:0:0:
308,60,285816,1,2,0:0:0:0:
204,168,285966,1,0,0:0:0:0:
200,148,286041,1,0,0:0:0:0:
188,132,286116,1,2,0:0:0:0:
172,120,286191,1,0,0:0:0:0:
152,116,286266,1,0,0:0:0:0:
132,116,286341,1,0,0:0:0:0:
112,124,286416,6,0,P|52:180|84:284,1,200,4|8,0:0|0:0,0:0:0:0:
224,336,286866,1,0,0:0:0:0:
372,312,287016,2,0,P|408:272|416:224,1,100,2|0,0:0|0:0,0:0:0:0:
500,192,287241,2,0,P|464:152|420:140,1,100,0|0,0:0|0:0,0:0:0:0:
328,132,287466,2,2,B|275:121|235:156|235:156|182:146|142:181,1,200,2|0,0:0|0:0,0:0:0:0:
141,181,287916,1,8,0:0:0:0:
36,376,288066,5,0,0:0:0:0:
36,376,288216,2,2,P|64:276|36:184,1,200,2|8,0:0|0:0,0:0:0:0:
474,186,288816,2,2,P|447:281|476:376,1,200,2|8,0:0|0:0,0:0:0:0:
104,88,289416,2,0,L|208:116,1,100,2|0,0:0|0:0,0:0:0:0:
408,88,289716,2,0,L|304:116,1,100,8|0,0:0|0:0,0:0:0:0:
332,320,290016,2,0,P|256:264|180:320,1,200,2|8,0:0|0:0,0:0:0:0:
48,244,290466,2,0,B|116:284|116:284|140:236|168:216|204:200,1,200,2|2,0:0|0:0,0:0:0:0:
200,201,290916,1,8,0:0:0:0:
464,244,291066,2,0,B|396:284|396:284|372:236|344:216|308:200,1,200,4|0,0:0|0:0,0:0:0:0:
64,32,291666,5,0,0:0:0:0:
64,32,291816,2,2,P|72:136|152:184,1,200,2|8,0:0|0:0,0:0:0:0:
292,144,292266,2,2,P|384:116|460:180,2,200,2|0|0,0:0|0:0|0:0,0:0:0:0:
292,144,293016,1,0,0:0:0:0:
352,340,293166,1,2,0:0:0:0:
204,352,293316,2,0,P|220:304|212:256,1,100,8|2,0:0|0:0,0:0:0:0:
128,56,293616,2,0,P|84:148|104:240,1,200,2|8,0:0|0:0,0:0:0:0:
308,350,294066,2,2,B|308:336|308:336|308:304|284:280|256:280|256:280|228:280|204:304|204:336|204:336|204:352,1,200,2|0,0:0|0:0,0:0:0:0:
407,240,294516,2,0,P|427:144|384:56,1,200,8|4,0:0|0:0,0:0:0:0:
236,36,294966,5,0,0:0:0:0:
216,40,295041,1,0,0:0:0:0:
196,44,295116,1,2,0:0:0:0:
76,136,295266,1,0,0:0:0:0:
68,152,295341,1,0,0:0:0:0:
64,172,295416,1,2,0:0:0:0:
64,192,295491,1,0,0:0:0:0:
68,212,295566,2,0,P|80:272|68:336,1,125,0|8,0:0|0:0,0:0:0:0:
256,368,295866,6,0,P|384:352|456:256,1,250,6|0,0:0|0:0,0:0:0:0:
472,72,296316,2,0,P|344:88|272:184,1,250,8|2,0:0|0:0,0:0:0:0:
156,328,296766,2,0,B|140:268|140:268|88:232,1,125,0|8,0:0|0:0,0:0:0:0:
48,48,297066,2,0,B|152:116|152:116|208:80|272:116,1,250,6|0,0:0|0:0,0:0:0:0:
360,288,297516,2,0,P|232:292|212:188,1,250,8|2,0:0|0:0,0:0:0:0:
336,52,297966,2,0,P|400:48|448:84,1,125,0|8,0:0|0:0,0:0:0:0:
424,328,298266,6,0,B|396:200|396:200|344:152|288:192,1,250,6|0,0:0|0:0,0:0:0:0:
156,328,298716,1,8,0:0:0:0:
36,296,298866,1,0,0:0:0:0:
124,208,299016,2,0,P|108:148|64:104,1,125,2|0,0:0|0:0,0:0:0:0:
36,296,299316,1,8,0:0:0:0:
220,236,299466,2,0,P|196:116|108:20,1,250,6|0,0:0|0:0,0:0:0:0:
308,44,299916,6,0,L|436:72,1,125,8|0,0:0|0:0,0:0:0:0:
504,172,300216,1,2,0:0:0:0:
388,216,300366,1,0,0:0:0:0:
488,288,300516,1,8,0:0:0:0:
316,360,300666,2,0,P|216:296|100:336,1,250,6|0,0:0|0:0,0:0:0:0:
36,144,301116,2,0,P|136:208|252:168,1,250,8|2,0:0|0:0,0:0:0:0:
464,120,301566,1,0,0:0:0:0:
344,84,301716,1,8,0:0:0:0:
488,244,301866,6,0,B|504:328|436:352|436:352|428:312|384:284|348:300,1,250,6|0,0:0|0:0,0:0:0:0:
168,352,302316,2,0,P|44:344|-4:236,1,250,8|2,0:0|0:0,0:0:0:0:
52,60,302766,1,8,0:0:0:0:
52,60,302916,1,8,0:0:0:0:
244,164,303066,6,0,B|344:172|400:80|400:80|404:144,1,250,6|8,0:0|0:2,0:0:0:0:
392,372,303516,2,0,P|360:316|368:252,1,125,8|0,0:2|0:0,0:0:0:0:
492,28,303816,2,0,P|404:64|256:8,1,250,2|8,0:0|0:0,0:0:0:0:
16,152,304266,2,0,P|104:116|252:172,1,250,2|0,0:0|0:0,0:0:0:0:
128,360,304716,6,0,L|96:240,1,125,12|0,0:0|0:0,0:0:0:0:
256,183,305016,2,0,L|256:308,1,125,6|0,0:0|0:0,0:0:0:0:
384,360,305316,1,8,0:0:0:0:
388,190,305466,2,0,B|420:207|456:200|456:200|384:272|384:360,1,250,6|0,0:0|0:0,0:0:0:0:
208,140,305916,2,0,B|141:122|122:56|122:56|93:117|24:123,1,250,8|2,0:0|0:0,0:0:0:0:
136,324,306366,2,0,P|132:260|100:204,1,125,0|8,0:0|0:0,0:0:0:0:
244,20,306666,6,0,P|368:16|432:112,1,250,6|0,0:0|0:0,0:0:0:0:
476,296,307116,2,0,P|352:300|288:204,1,250,8|2,0:0|0:0,0:0:0:0:
112,132,307566,2,0,P|44:144|4:192,1,125,0|8,0:0|0:0,0:0:0:0:
136,324,307866,2,0,B|264:340|264:340|332:316|332:248,1,250,6|0,0:0|0:0,0:0:0:0:
304,64,308316,2,0,P|200:144|240:244,1,250,8|2,0:0|0:0,0:0:0:0:
400,324,308766,2,0,P|416:264|400:200,1,125,0|8,0:0|0:0,0:0:0:0:
260,332,309066,2,0,B|184:348|148:280|148:280|44:224,1,250,6|0,0:0|0:0,0:0:0:0:
20,40,309516,5,8,0:0:0:0:
120,112,309666,1,0,0:0:0:0:
358,118,309816,2,0,P|305:87|244:92,1,125,2|0,0:0|0:0,0:0:0:0:
416,228,310116,1,8,0:0:0:0:
260,332,310266,2,0,B|202:367|142:331|142:331|128:262|181:220,1,250,6|0,0:0|0:0,0:0:0:0:
364,56,310716,5,8,0:0:0:0:
244,92,310866,1,0,0:0:0:0:
349,296,311016,2,0,P|327:237|336:176,1,125,2|0,0:0|0:0,0:0:0:0:
448,224,311316,1,8,0:0:0:0:
260,332,311466,2,0,B|168:280|76:352|76:352|56:304,1,250,6|0,0:0|0:0,0:0:0:0:
80,52,311916,6,0,L|100:180,1,125,8|0,0:0|0:0,0:0:0:0:
220,216,312216,1,2,0:0:0:0:
296,28,312366,1,0,0:0:0:0:
192,96,312516,1,8,0:0:0:0:
388,112,312666,1,6,0:0:0:0:
220,216,312816,5,0,0:0:0:0:
418,320,312966,2,0,P|398:268|339:226,1,125,8|4,0:2|0:0,0:0:0:0:
114,190,313266,1,0,0:0:0:0:
280,329,313416,2,0,P|324:286|343:224,1,125,8|8,0:2|0:2,0:0:0:0:
300,44,313716,1,0,0:0:0:0:
92,76,313866,1,4,0:2:0:0:
256,192,314016,12,2,317034,0:0:0:0:
92,64,337367,5,0,0:0:0:0:
96,84,337700,1,2,0:0:0:0:
100,104,338034,2,0,L|116:184,1,75.0000028610231
128,252,338367,6,0,P|216:296|284:208,1,225.000008583069,4|0,0:0|0:0,0:0:0:0:
292,112,339034,2,0,B|332:112|360:148|360:148|436:136,1,150.000005722046,2|0,0:0|0:0,0:0:0:0:
448,212,339534,2,0,B|373:225|373:225|363:287|305:322|237:309|207:254|207:254|132:267,1,375.000014305115,0|2,0:0|0:0,0:0:0:0:
52,56,340867,5,0,0:0:0:0:
52,56,341034,2,0,P|88:72|124:72,1,75.0000028610231,2|0,0:3|0:0,0:0:0:0:
272,52,341534,2,0,P|352:48|416:76,1,150.000005722046,2|0,0:0|0:0,0:0:0:0:
472,128,342034,1,0,0:0:0:0:
360,344,342700,1,0,0:0:0:0:
256,236,343034,1,2,0:0:0:0:
152,344,343367,2,0,L|68:328,1,75.0000028610231
4,316,343700,6,0,P|72:244|84:116,1,225.000008583069,2|0,0:3|0:0,0:0:0:0:
144,68,344367,2,0,L|300:80,1,150.000005722046,2|0,0:0|0:0,0:0:0:0:
368,88,344867,1,2,0:0:0:0:
464,292,345367,1,0,0:0:0:0:
324,236,345700,1,2,0:0:0:0:
200,320,346033,1,0,0:0:0:0:
60,264,346367,6,0,P|64:188|124:140,1,150.000005722046,2|0,0:3|0:0,0:0:0:0:
192,148,346867,2,0,P|264:144|320:88,1,150.000005722046,2|0,0:0|0:0,0:0:0:0:
348,24,347367,1,0,0:0:0:0:
472,108,347700,2,0,L|484:192,1,75.0000028610231,4|12,0:3|0:0,0:0:0:0:
392,300,348200,1,0,0:0:0:0:
392,300,348283,1,0,0:0:0:0:
392,300,348367,6,0,L|316:320,1,75.0000028610231,4|0,0:0|0:0,0:0:0:0:
220,368,348700,2,0,L|144:348,1,75.0000028610231
40,316,349033,2,0,P|20:268|52:176,1,150.000005722046,4|0,0:0|0:0,0:0:0:0:
116,148,349533,1,0,0:0:0:0:
192,160,349700,2,0,P|256:160|320:96,1,150.000005722046,2|0,0:0|0:0,0:0:0:0:
368,48,350200,2,0,B|386:11|430:11|459:40|453:75|453:75|484:81|500:115|490:151|461:162|461:162|472:196|449:229|406:237|381:204,1,375.000014305115,0|2,0:0|0:0,0:0:0:0:
188,320,351533,5,0,0:0:0:0:
132,272,351700,1,2,0:3:0:0:
56,276,351867,2,0,P|76:220|160:200,1,150.000005722046,0|2,0:0|0:0,0:0:0:0:
292,268,352533,1,0,0:0:0:0:
292,268,352700,2,0,P|363:256|393:191,1,150.000005722046,2|4,0:0|0:3,0:0:0:0:
332,56,353367,5,0,0:0:0:0:
180,56,353700,1,2,0:0:0:0:
119,191,354033,2,0,L|131:275,1,75.0000028610231
116,348,354367,2,0,B|181:354|205:296|205:296|229:354|295:348,1,225.000008583069,2|0,0:3|0:0,0:0:0:0:
284,268,355033,6,0,B|328:264|356:296|356:296|420:264,1,150.000005722046,0|2,0:0|0:0,0:0:0:0:
456,136,355700,1,0,0:0:0:0:
343,59,356033,1,2,0:0:0:0:
237,143,356367,1,0,0:0:0:0:
283,270,356700,1,0,0:0:0:0:
172,372,357033,6,0,P|92:360|52:304,1,150.000005722046,2|0,0:3|0:0,0:0:0:0:
40,232,357533,1,0,0:0:0:0:
120,104,357867,1,0,0:0:0:0:
156,168,358033,1,2,0:0:0:0:
220,304,358367,6,0,L|236:228,1,75.0000028610231
324,144,358700,2,0,L|332:232,1,85.0000016212464
404,304,359033,1,8,0:1:0:0:
472,116,359367,5,2,0:0:0:0:
292,28,359700,2,0,P|192:28|112:88,1,200,4|0,1:0|0:0,0:0:0:0:
72,280,360367,1,8,0:0:0:0:
272,308,360700,2,0,B|250:269|188:282|163:328|190:406|280:441|361:390|385:320|351:253|279:225,1,400,4|2,1:0|0:0,0:0:0:0:
116,140,361700,1,8,0:0:0:0:
284,32,362033,1,0,0:0:0:0:
468,116,362367,6,0,L|480:328,1,200,4|0,1:0|0:0,0:0:0:0:
392,364,362867,2,0,L|380:164,1,200,2|0,0:0|0:0,0:0:0:0:
292,120,363367,1,4,1:0:0:0:
80,332,363867,1,0,0:0:0:0:
80,332,364033,2,0,P|104:280|104:236,1,100,2|0,0:0|0:0,0:0:0:0:
176,112,364367,2,0,P|176:164|192:212,1,100,8|0,0:0|0:0,0:0:0:0:
252,340,364700,2,0,P|264:292|292:244,1,100,2|0,0:0|0:0,0:0:0:0:
376,136,365033,5,4,1:0:0:0:
424,360,365367,1,0,0:0:0:0:
456,132,365700,1,2,0:0:0:0:
236,100,366033,2,0,B|176:92|176:92|148:168|224:204|312:200|335:120|328:45|246:24,1,400,4|2,1:0|0:0,0:0:0:0:
64,88,367033,2,0,P|72:196|136:260,1,200,8|0,0:0|0:0,0:0:0:0:
332,288,367700,1,4,1:0:0:0:
72,328,368033,5,0,0:0:0:0:
380,360,368367,1,8,0:0:0:0:
452,292,368533,1,0,0:0:0:0:
448,192,368700,2,0,P|404:100|208:76,1,300,4|0,1:0|0:0,0:0:0:0:
148,136,369367,1,2,0:0:0:0:
160,236,369533,1,0,0:0:0:0:
72,284,369700,1,8,0:0:0:0:
160,236,369867,1,0,0:0:0:0:
256,264,370033,5,2,0:0:0:0:
288,360,370200,1,0,0:0:0:0:
388,372,370367,2,0,B|440:380|440:380|408:308|456:240,1,200,4|0,1:0|0:0,0:0:0:0:
420,44,371033,1,8,0:0:0:0:
220,52,371367,2,0,B|185:39|160:73|161:98|183:124|183:124|207:157|198:189|173:211|139:211|111:192|109:150|109:150|109:117|94:97|52:87|34:119,1,400,4|2,1:0|0:0,0:0:0:0:
60,316,372367,1,8,0:0:0:0:
256,352,372700,5,0,0:0:0:0:
356,340,372867,1,0,0:0:0:0:
296,260,373033,2,0,P|296:200|368:80,1,200,4|0,1:0|0:0,0:0:0:0:
464,72,373533,1,2,0:0:0:0:
428,268,373867,1,0,0:0:0:0:
356,340,374033,1,4,1:0:0:0:
296,260,374200,2,0,P|224:212|108:244,1,200
56,312,374700,5,2,0:0:0:0:
120,236,374867,1,0,0:0:0:0:
80,144,375033,1,8,0:0:0:0:
140,64,375200,1,0,0:0:0:0:
232,108,375367,1,2,0:0:0:0:
332,100,375533,1,0,0:0:0:0:
416,44,375700,6,0,P|428:136|352:200,1,200,4|0,1:0|0:0,0:0:0:0:
160,148,376367,1,8,0:0:0:0:
8,276,376700,2,0,B|-4:333|44:378|96:357|96:357|76:259|76:259|128:238|177:283|164:341,1,400,4|2,1:0|0:0,0:0:0:0:
296,192,377700,1,8,0:0:0:0:
484,364,378033,2,0,B|376:332|368:192|368:192|368:152|336:120|296:120|296:120|256:120|224:152|224:192|224:192|224:232|256:264|296:264|296:264|336:264|368:232|368:192|368:192|376:52|484:20,1,900,4|0,1:0|0:0,0:0:0:0:
304,40,379700,6,0,P|252:44|208:64,1,100,0|2,1:0|0:3,0:0:0:0:
8,100,380033,2,0,P|60:104|104:124,1,100,8|2,1:2|0:3,0:0:0:0:
144,268,380367,1,0,1:2:0:0:
152,288,380450,1,0,1:0:0:0:
164,304,380533,1,0,1:0:0:0:
180,316,380617,1,0,1:0:0:0:
200,324,380700,1,8,1:2:0:0:
220,324,380783,1,0,1:0:0:0:
240,320,380867,1,0,1:0:0:0:
260,312,380950,1,0,1:0:0:0:
272,300,381000,6,0,P|328:248|448:248,1,200,4|8,1:0|0:0,0:0:0:0:
488,340,381468,1,0,0:0:0:0:
388,328,381625,2,0,P|344:232|348:132,1,200,4|8,0:3|0:0,0:0:0:0:
304,48,382093,1,0,0:0:0:0:
200,32,382250,2,0,L|100:24,1,100,2|0,0:0|0:0,0:0:0:0:
152,136,382562,2,0,L|53:154,1,100,8|0,0:0|0:0,0:0:0:0:
180,240,382875,2,0,L|85:275,1,100,2|0,0:3|0:0,0:0:0:0:
248,324,383187,2,0,L|166:382,1,100,8|0,0:0|0:0,0:0:0:0:
372,320,383500,5,2,0:0:0:0:
372,88,383656,1,0,0:0:0:0:
304,276,383812,1,8,0:0:0:0:
440,132,383968,1,0,0:0:0:0:
456,332,384125,2,0,B|460:280|412:244|412:244|324:184,1,200,4|8,0:3|0:0,0:0:0:0:
56,52,384750,2,0,B|52:104|100:140|100:140|188:200,1,200,2|8,0:0|0:0,0:0:0:0:
180,196,385375,6,0,P|180:256|152:324,1,125,4|0,1:0|0:0,0:0:0:0:
320,116,385687,2,0,P|336:176|328:244,1,125,4|0,1:0|0:0,0:0:0:0:
472,40,386000,2,0,P|492:104|496:244,1,200,4|8,1:2|0:0,0:0:0:0:
40,344,386625,2,0,P|20:280|16:140,1,200,2|8,0:0|0:0,0:0:0:0:
132,56,387093,2,0,B|209:56|209:56|242:88|242:88|319:88,1,200,2|0,0:3|0:0,0:0:0:0:
464,132,387562,1,8,0:0:0:0:
464,132,387718,2,0,P|412:200|452:300,1,200,2|0,0:3|0:0,0:0:0:0:
368,356,388187,1,8,0:0:0:0:
256,256,388343,5,0,0:0:0:0:
144,356,388500,2,0,B|96:340|96:340|68:292,1,100,4|0,0:0|0:0,0:0:0:0:
32,152,388812,1,0,0:0:0:0:
136,44,388968,2,0,L|285:55,1,150,4|0,1:2|0:0,0:0:0:0:
300,76,389281,2,0,L|449:87,1,150,4|0,1:2|0:0,0:0:0:0:
468,104,389593,1,4,1:2:0:0:
372,280,389906,6,0,L|388:336,2,50,0|0|8,1:0|1:0|1:2,1:0:0:0:
232,224,390218,2,0,L|228:168,2,50,0|0|0,1:0|1:0|1:0,1:0:0:0:
128,332,390531,1,0,1:0:0:0:
128,332,390609,1,0,1:0:0:0:
128,332,390687,2,0,L|76:344,1,50,8|0,1:2|1:0,1:0:0:0:
16,276,390843,2,0,L|64:264,1,50,0|0,1:2|1:0,1:0:0:0:
120,192,391000,6,0,P|128:140|16:48,1,200,4|8,1:0|0:0,0:0:0:0:
391,191,391625,2,0,P|399:96|482:47,1,200,2|8,0:0|0:0,0:0:0:0:
332,316,392250,2,0,P|256:372|180:316,1,200,4|8,0:3|0:0,0:0:0:0:
152,224,392718,1,0,0:0:0:0:
52,216,392875,2,0,B|64:148|128:128|128:128|176:68,1,200,2|8,0:0|0:0,0:0:0:0:
320,28,393343,5,0,0:0:0:0:
456,92,393500,2,0,P|484:192|440:276,1,200,2|8,0:3|0:0,0:0:0:0:
320,356,393968,2,0,P|292:256|336:172,1,200,2|0,0:0|0:0,0:0:0:0:
442,273,394437,1,8,0:0:0:0:
196,348,394593,2,0,B|116:412|56:340|56:340|48:256|124:236|124:236|96:192|96:192|124:148|124:148|48:128|56:44|56:44|116:-28|196:36,1,700,2|8,0:0|0:0,0:0:0:0:
336,92,395843,5,0,0:0:0:0:
336,92,396000,2,0,B|436:104|436:104|528:68,1,200,4|8,0:0|0:0,0:0:0:0:
512,264,396468,1,0,0:0:0:0:
512,264,396625,2,0,B|412:252|412:252|320:288,1,200,2|8,0:0|0:0,0:0:0:0:
60,112,397093,5,0,0:0:0:0:
60,112,397250,2,0,B|160:124|160:124|252:88,1,200,4|8,0:3|0:0,0:0:0:0:
252,340,397718,1,0,0:0:0:0:
252,340,397875,2,0,B|152:328|152:328|60:364,1,200,2|8,0:0|0:0,0:0:0:0:
376,308,398500,6,0,P|428:252|400:140,1,200,4|8,1:0|0:0,0:0:0:0:
184,52,398968,2,0,P|136:44|80:48,1,100,4|0,1:2|0:0,0:0:0:0:
400,140,399281,2,0,P|448:148|504:144,1,100,4|0,1:2|0:0,0:0:0:0:
132,204,399593,2,0,P|104:292|192:328,1,200,4|0,1:2|1:0,0:0:0:0:
186,329,399984,5,0,1:0:0:0:
186,329,400062,1,8,1:2:0:0:
316,252,400218,2,0,L|304:200,2,50,0|0|8,1:0|1:0|1:2,1:0:0:0:
452,316,400531,1,0,1:0:0:0:
448,296,400609,1,0,1:0:0:0:
444,276,400687,1,8,1:2:0:0:
440,256,400765,1,0,1:0:0:0:
436,236,400843,1,0,1:0:0:0:
432,216,400921,1,0,1:0:0:0:
428,196,401000,6,0,P|420:144|400:88,1,100,4|0,1:0|0:0,0:0:0:0:
232,40,401312,2,0,P|240:92|260:148,1,100,8|0,0:0|0:0,0:0:0:0:
304,296,401625,2,0,P|220:356|136:320,1,200,2|8,0:0|0:0,0:0:0:0:
48,204,402093,2,0,B|12:170|20:116|39:112|59:107|67:52|32:21,1,200,2|0,0:3|0:0,0:0:0:0:
132,16,402562,1,8,0:0:0:0:
224,56,402718,1,0,0:0:0:0:
272,144,402875,6,0,P|316:168|364:160,1,100,2|0,0:0|0:0,0:0:0:0:
468,16,403187,2,0,L|484:120,1,100,8|0,0:0|0:0,0:0:0:0:
468,240,403500,2,0,P|412:288|288:276,1,200,4|8,0:3|0:0,0:0:0:0:
44,248,404125,2,0,P|100:200|224:212,1,200,2|8,0:0|0:0,0:0:0:0:
148,308,404593,2,0,L|104:104,1,200,2|0,0:0|0:0,0:0:0:0:
105,112,405062,1,8,0:0:0:0:
396,40,405375,6,0,P|416:88|412:136,1,100,2|0,0:3|0:0,0:0:0:0:
408,312,405687,2,0,P|388:260|392:212,1,100,8|0,0:0|0:0,0:0:0:0:
288,64,406000,2,0,L|192:32,1,100,4|0,0:0|0:0,0:0:0:0:
100,160,406312,2,0,L|197:139,1,100,8|0,0:0|0:0,0:0:0:0:
336,272,406625,2,0,L|240:240,1,100,2|0,0:0|0:0,0:0:0:0:
76,372,406937,2,0,L|173:351,1,100,8|0,0:0|0:0,0:0:0:0:
388,316,407250,5,2,0:0:0:0:
355,83,407406,1,0,0:0:0:0:
488,183,407562,1,10,0:0:0:0:
255,215,407718,1,0,0:0:0:0:
442,105,407875,1,2,0:0:0:0:
300,293,408031,1,0,0:0:0:0:
277,128,408187,1,10,0:0:0:0:
465,270,408343,1,0,0:0:0:0:
300,293,408500,6,0,P|196:280|144:200,1,200,4|8,0:0|0:0,0:0:0:0:
336,52,409125,2,0,P|440:65|492:145,1,200,2|8,0:3|0:0,0:0:0:0:
400,264,409593,2,2,B|354:231|362:176|362:176|319:212|269:188,1,200,4|0,0:0|0:0,0:0:0:0:
88,140,410062,1,8,0:0:0:0:
188,132,410218,1,0,0:0:0:0:
32,224,410375,5,0,1:0:0:0:
36,244,410453,1,0,1:0:0:0:
48,260,410531,1,0,1:0:0:0:
64,272,410609,1,0,1:0:0:0:
84,280,410687,2,0,L|132:292,1,50,8|0,1:2|1:0,1:0:0:0:
176,368,410843,2,0,L|224:356,1,50,0|0,1:0|1:0,1:0:0:0:
264,272,411000,6,0,P|348:224|440:260,1,200,4|8,1:0|0:0,0:0:0:0:
356,336,411468,2,0,P|336:232|388:156,1,200,2|0,0:0|0:0,0:0:0:0:
472,104,411937,1,8,0:0:0:0:
380,64,412093,2,0,P|336:40|288:40,1,100,2|0,0:0|0:0,0:0:0:0:
112,128,412406,2,0,P|92:76|96:24,1,100,2|8,0:3|0:0,0:0:0:0:
196,240,412718,2,0,P|212:188|212:136,1,100,2|0,0:0|0:0,0:0:0:0:
104,364,413031,2,0,P|96:312|96:252,1,100,2|8,0:0|0:0,0:0:0:0:
256,340,413343,5,0,0:0:0:0:
256,340,413500,2,0,B|356:344|356:344|448:296,1,200,4|8,0:3|0:0,0:0:0:0:
316,192,413968,2,0,L|320:84,1,100,2|0,0:0|0:0,0:0:0:0:
463,48,414281,2,0,L|460:148,1,100,2|8,0:3|0:0,0:0:0:0:
192,291,414593,2,0,L|196:192,1,100,2|0,0:0|0:0,0:0:0:0:
52,236,414906,2,0,L|48:335,1,100,2|8,0:3|0:0,0:0:0:0:
88,92,415218,1,0,0:0:0:0:
248,216,415531,2,0,B|291:192|297:138|280:129|262:119|268:64|310:43,1,200,2|0,0:0|0:0,0:0:0:0:
412,28,416000,5,4,0:0:0:0:
456,324,416312,2,0,P|432:280|392:244,1,100,8|0,0:0|0:0,0:0:0:0:
252,196,416625,1,2,0:0:0:0:
284,344,416781,1,0,0:0:0:0:
348,160,416937,1,10,0:0:0:0:
204,284,417093,1,0,0:0:0:0:
172,96,417250,6,0,P|104:88|4:168,1,200,4|8,0:3|0:0,0:0:0:0:
108,336,417875,1,2,0:0:0:0:
152,192,418031,1,0,0:0:0:0:
136,340,418187,1,10,0:0:0:0:
256,164,418343,1,0,0:0:0:0:
376,340,418500,2,0,P|464:288|464:196,1,200,2|8,0:3|0:0,0:3:0:0:
372,168,418968,2,0,P|377:72|461:26,1,200,2|0,0:0|0:0,0:0:0:0:
461,26,419437,1,8,0:0:0:0:
160,32,419750,2,0,L|148:244,3,200,4|8|0|8,3:0|0:0|0:0|0:0,0:0:0:0:
148,231,421000,6,0,P|188:256|224:304,1,100,4|0,0:0|0:0,0:0:0:0:
300,356,421312,1,8,0:0:0:0:
400,336,421468,1,0,0:0:0:0:
448,204,421625,1,2,0:0:0:0:
348,224,421781,1,0,0:0:0:0:
372,76,421937,1,8,0:0:0:0:
232,132,422093,1,0,1:0:0:0:
184,128,422171,1,0,1:0:0:0:
144,100,422250,2,0,P|116:144|72:172,1,100,0|0,1:0|0:0,0:0:0:0:
28,256,422562,1,8,0:0:0:0:
92,332,422718,2,0,B|160:332|160:332|188:316|188:316|216:332|216:332|284:332,1,200,2|0,0:0|0:0,0:0:0:0:
408,208,423187,6,0,P|432:156|432:100,1,100,8|0,0:0|1:0,0:0:0:0:
412,68,423421,1,0,1:0:0:0:
368,40,423500,2,0,P|320:28|260:36,1,100,8|0,1:2|0:0,0:0:0:0:
60,96,423812,2,0,P|108:108|168:100,1,100,8|0,0:2|0:0,0:0:0:0:
408,208,424125,2,0,P|360:196|300:204,1,100,8|0,0:2|0:0,0:0:0:0:
32,280,424437,2,0,P|80:292|140:284,1,100,8|0,0:2|1:0,0:0:0:0:
148,280,424671,5,0,1:0:0:0:
164,268,424750,1,8,1:2:0:0:
256,84,424906,1,0,1:0:0:0:
268,100,424984,1,0,1:0:0:0:
280,116,425062,1,8,1:2:0:0:
364,296,425218,1,0,1:0:0:0:
380,288,425296,1,0,1:0:0:0:
396,276,425375,1,8,1:2:0:0:
408,260,425453,1,0,1:0:0:0:
416,244,425531,1,0,1:0:0:0:
420,224,425609,1,0,1:0:0:0:
416,204,425687,2,0,L|404:140,1,50,8|0,1:2|1:0,1:0:0:0:
336,40,425843,2,0,L|345:89,1,50,8|0,1:2|1:0,1:0:0:0:
300,172,426000,1,0,1:0:0:0:
256,192,426078,12,0,427093,0:0:0:0:
212,212,427250,6,0,P|112:196|88:104,2,200,4|8|0,1:0|0:0|0:0,0:0:0:0:
444,52,428187,1,8,0:0:0:0:
404,144,428343,1,0,0:0:0:0:
452,232,428500,2,0,B|452:296|452:296|452:320|432:340|408:340|408:340|336:340,1,200,2|8,0:0|0:0,0:0:0:0:
171,340,428968,2,0,B|104:340|104:340|80:340|60:320|60:296|60:296|60:232,1,200,2|0,0:0|0:0,0:0:0:0:
128,64,429437,2,0,P|140:116|132:168,1,100,8|0,0:0|0:0,0:0:0:0:
256,252,429750,6,0,P|296:220|352:204,1,100,4|0,0:3|0:0,0:0:0:0:
472,128,430062,2,0,P|480:76|464:32,1,100,8|0,0:0|0:0,0:0:0:0:
292,8,430375,2,0,P|284:60|300:104,1,100,2|0,0:0|0:0,0:0:0:0:
508,224,430687,1,8,0:0:0:0:
508,224,430843,2,0,B|542:336|430:383|430:383|310:360|321:243,1,400,2|0,0:3|0:0,0:0:0:0:
36,340,431781,5,2,0:0:0:0:
36,340,431937,2,0,L|20:232,1,100,8|0,0:0|0:0,0:0:0:0:
40,144,432250,2,0,P|112:80|200:120,1,200,4|8,0:0|0:0,0:0:0:0:
300,288,432875,1,2,0:0:0:0:
300,288,433031,2,0,P|352:304|396:296,1,100,0|8,0:0|0:0,0:0:0:0:
368,88,433343,2,0,P|348:140|352:184,1,100,2|0,0:0|0:0,0:0:0:0:
200,64,433656,2,0,P|198:119|217:159,1,100,2|8,0:3|0:0,0:0:0:0:
40,84,433968,2,0,B|10:120|28:173|48:174|68:175|85:227|56:266,1,200,2|2,0:0|0:0,0:0:0:0:
4,352,434437,1,8,0:0:0:0:
244,360,434750,6,0,L|448:372,1,200,4|8,0:3|0:0,0:0:0:0:
496,232,435218,2,0,L|296:220,1,200,2|0,0:0|0:0,0:0:0:0:
200,192,435687,1,8,0:0:0:0:
148,104,435843,1,0,0:0:0:0:
52,72,436000,6,0,P|44:120|64:168,1,100,0|8,1:0|1:2,1:0:0:0:
189,286,436312,2,0,P|181:238|201:190,1,100,0|8,1:0|1:2,1:0:0:0:
320,100,436625,1,0,1:0:0:0:
440,188,436781,1,0,1:0:0:0:
444,208,436859,1,0,1:0:0:0:
448,228,436937,1,8,1:2:0:0:
452,248,437015,1,0,1:0:0:0:
456,268,437093,1,0,1:0:0:0:
460,288,437171,1,0,1:0:0:0:
464,308,437250,6,0,P|412:368|304:332,2,200,4|8|0,1:0|0:0|0:0,0:0:0:0:
164,312,438187,2,0,P|148:260|116:208,1,100,8|0,0:0|0:0,0:0:0:0:
24,224,438500,2,0,P|68:136|164:128,1,200,2|8,0:0|0:0,0:0:0:0:
304,176,438968,2,0,P|399:164|440:78,1,200,2|0,0:0|0:0,0:0:0:0:
272,36,439437,2,0,B|248:80|240:132,1,100,8|0,0:0|0:0,0:0:0:0:
316,328,439750,6,0,L|424:312,1,100,4|0,0:3|0:0,0:0:0:0:
196,328,440062,2,0,L|88:312,1,100,8|0,0:0|0:0,0:0:0:0:
352,232,440375,2,0,L|432:168,1,100,2|0,0:0|0:0,0:0:0:0:
160,232,440687,1,8,0:0:0:0:
160,232,440843,2,0,B|80:168|80:168|64:64,1,200,2|0,0:0|0:0,0:0:0:0:
65,71,441312,1,8,0:0:0:0:
446,71,441625,5,4,0:3:0:0:
396,368,441937,1,8,0:0:0:0:
320,76,442250,2,0,P|224:40|144:96,1,200,4|8,0:0|0:0,0:0:0:0:
56,332,442875,2,0,P|108:328|148:304,1,100,2|0,0:0|0:0,0:0:0:0:
259,204,443187,2,0,P|303:180|352:180,1,100,8|0,0:0|0:0,0:0:0:0:
500,300,443500,5,2,0:0:0:0:
324,368,443656,1,0,0:0:0:0:
260,204,443812,1,10,0:0:0:0:
432,376,443968,1,0,0:0:0:0:
496,140,444125,1,2,0:0:0:0:
240,308,444281,1,0,0:0:0:0:
496,140,444437,1,10,0:0:0:0:
240,308,444593,1,0,0:0:0:0:
496,140,444750,6,0,P|432:64|324:72,1,200,4|8,0:3|0:0,0:0:0:0:
16,140,445375,2,0,P|80:64|188:72,1,200,2|8,0:3|0:0,0:0:0:0:
256,192,445843,1,0,0:0:0:0:
116,248,446000,1,4,0:3:0:0:
252,308,446156,6,0,L|248:376,2,50,0|0|8,1:0|1:0|1:2,1:0:0:0:
396,264,446468,2,0,L|416:312,2,50,0|0|8,1:0|1:0|1:2,1:0:0:0:
404,112,446781,1,0,1:0:0:0:
396,92,446859,1,0,1:0:0:0:
384,76,446937,1,0,1:0:0:0:
368,64,447015,1,0,1:0:0:0:
348,56,447093,1,0,1:0:0:0:
328,52,447171,1,0,1:0:0:0:
308,52,447250,6,0,L|200:64,1,100,4|0,1:0|0:0,0:0:0:0:
48,164,447562,2,0,L|147:152,1,100,0|0,1:0|0:0,0:0:0:0:
276,228,447875,1,2,1:2:0:0:
176,340,448031,1,0,0:0:0:0:
176,340,448109,2,0,P|240:376|324:372,1,150,2|0,0:0|0:0,0:0:0:0:
452,312,448500,1,0,1:0:0:0:
460,212,448656,1,0,0:0:0:0:
372,84,448812,1,0,1:0:0:0:
340,180,448968,1,0,0:0:0:0:
200,236,449125,1,0,1:0:0:0:
16,16,449437,6,0,P|24:68|24:124,1,100,0|0,1:0|0:0,0:0:0:0:
68,260,449750,2,0,B|84:288|84:316|84:316|132:260|200:236,1,200,0|0,1:0|1:0,0:0:0:0:
198,236,450218,1,0,0:0:0:0:
444,260,450375,2,0,B|428:288|428:316|428:316|380:260|312:236,1,200,0|2,1:0|1:2,0:0:0:0:
484,24,451000,2,0,P|440:48|388:48,1,100,0|0,1:0|0:0,0:0:0:0:
236,100,451312,2,0,P|284:112|324:144,1,100,0|0,1:0|0:0,0:0:0:0:
444,260,451625,1,2,1:3:0:0:
320,344,451781,1,0,0:0:0:0:
172,336,451937,2,0,L|116:328,1,50,0|0,1:0|1:0,1:0:0:0:
112,240,452093,2,0,L|56:208,1,50,0|0,1:0|1:0,1:0:0:0:
100,128,452250,5,6,1:0:0:0:
100,128,452562,2,0,P|144:100|192:88,1,100,2|0,1:0|0:0,0:0:0:0:
400,92,452875,2,0,P|356:120|308:132,1,100,2|0,1:0|0:0,0:0:0:0:
192,220,453187,1,2,1:0:0:0:
268,348,453343,1,0,0:0:0:0:
416,320,453500,5,2,1:0:0:0:
416,320,453812,2,0,L|432:200,1,119.999996337891,2|0,1:0|0:0,0:0:0:0:
312,48,454125,2,0,P|304:108|284:176,1,119.999996337891,2|0,1:0|0:0,0:0:0:0:
184,312,454437,1,2,1:0:0:0:
132,140,454593,1,0,0:0:0:0:
64,308,454750,5,2,1:0:0:0:
64,308,455062,2,0,P|132:296|208:328,1,139.999995727539,2|0,1:0|0:0,0:0:0:0:
404,352,455375,2,0,P|436:288|428:216,1,139.999995727539,2|2,1:0|0:2,0:0:0:0:
352,56,455687,1,2,1:0:0:0:
172,40,455843,1,2,1:2:0:0:
24,148,456000,6,0,B|8:216|8:216|40:280,1,139.999995727539,2|0,1:0|0:0,0:0:0:0:
200,192,456312,2,0,L|344:168,1,139.999995727539,2|0,1:0|0:0,0:0:0:0:
468,40,456625,1,2,1:0:0:0:
496,276,456781,1,0,0:0:0:0:
468,40,456937,1,2,1:0:0:0:
84,76,457250,5,4,0:0:0:0:
384,324,466937,5,2,0:0:0:0:
332,184,467093,1,0,0:0:0:0:
384,44,467250,2,0,P|332:32|280:44,1,100,4|0,0:0|0:0,0:0:0:0:
88,140,467562,2,0,P|140:152|192:140,1,100,8|0,0:0|0:0,0:0:0:0:
332,184,467875,1,0,0:3:0:0:
80,344,468187,6,0,L|60:240,1,100,8|0,0:0|0:0,0:0:0:0:
185,143,468500,2,0,L|201:39,1,100,2|0,0:0|0:0,0:0:0:0:
348,16,468812,1,8,0:0:0:0:
476,92,468968,1,2,0:0:0:0:
328,108,469125,1,2,0:3:0:0:
476,368,469437,5,8,0:0:0:0:
356,280,469593,1,0,0:0:0:0:
220,344,469750,1,2,0:3:0:0:
108,68,470062,2,0,P|124:112|124:172,1,100,8|0,0:0|0:0,0:0:0:0:
72,308,470375,1,2,0:0:0:0:
220,344,470531,1,0,0:0:0:0:
373,183,470687,2,0,P|372:233|356:280,1,100,8|0,0:0|0:0,0:0:0:0:
224,84,471000,5,2,0:3:0:0:
404,68,471156,1,0,0:0:0:0:
268,188,471312,1,8,0:0:0:0:
308,12,471468,1,0,0:0:0:0:
136,64,471625,1,2,0:0:0:0:
20,200,471781,5,0,1:0:0:0:
104,360,471937,1,8,1:2:0:0:
284,364,472093,1,0,1:0:0:0:
284,364,472171,1,0,1:0:0:0:
284,364,472250,2,0,P|328:332|372:328,1,100,2|0,1:2|0:0,1:0:0:0:
460,160,472562,2,0,P|468:220|460:260,1,100,2|0,0:0|0:0,0:0:0:0:
360,96,472875,1,2,0:3:0:0:
64,44,473187,5,8,0:0:0:0:
160,64,473343,1,0,0:0:0:0:
88,196,473500,1,2,0:0:0:0:
184,216,473656,1,0,0:0:0:0:
112,348,473812,2,0,P|160:368|208:368,1,100,8|0,0:0|0:0,0:0:0:0:
304,344,474125,1,2,0:3:0:0:
420,68,474437,5,8,0:0:0:0:
324,184,474593,1,0,0:0:0:0:
272,44,474750,1,4,1:0:0:0:
92,316,475062,1,2,0:0:0:0:
188,200,475218,1,0,1:0:0:0:
240,340,475375,1,4,1:0:0:0:
492,134,475687,2,0,P|460:94|416:66,1,100,2|0,0:0|0:0,0:0:0:0:
232,40,476000,5,8,1:2:0:0:
80,224,476156,1,8,1:2:0:0:
288,104,476312,1,8,1:2:0:0:
52,144,476468,1,8,1:2:0:0:
384,332,476625,2,0,L|336:317,1,50,8|0,1:2|1:0,1:0:0:0:
208,328,476781,2,0,L|260:344,1,50,8|0,1:2|1:0,1:0:0:0:
272,260,476937,1,8,1:2:0:0:
276,240,477015,1,0,1:0:0:0:
284,220,477093,1,0,1:0:0:0:
296,204,477171,1,0,1:0:0:0:
312,188,477250,6,0,L|343:146,1,50,8|0,1:2|1:0,1:0:0:0:
143,178,477484,2,0,L|183:209,1,50,8|0,1:2|1:0,1:0:0:0:
372,346,477718,2,0,L|333:316,1,50,8|0,1:2|1:0,1:0:0:0:
173,376,477953,2,0,L|204:337,1,50,8|0,1:2|1:0,1:0:0:0:
342,148,478187,1,8,1:2:0:0:
220,64,478343,5,0,1:0:0:0:
200,60,478421,1,0,1:0:0:0:
180,60,478500,1,0,1:0:0:0:
160,64,478578,1,0,1:0:0:0:
144,72,478656,1,0,1:0:0:0:
128,84,478734,1,0,1:0:0:0:
116,100,478812,1,8,1:2:0:0:
128,272,478968,5,0,1:0:0:0:
148,268,479046,1,0,1:0:0:0:
168,260,479125,1,0,1:0:0:0:
184,248,479203,1,0,1:0:0:0:
196,232,479281,1,0,1:0:0:0:
204,216,479359,1,0,1:0:0:0:
212,196,479437,2,0,P|228:172|252:152,1,50,8|0,1:2|1:0,1:0:0:0:
324,100,479593,2,0,P|340:132|340:156,1,50,0|0,1:0|1:0,1:0:0:0:
340,244,479750,6,0,P|352:292|392:336,1,100,4|2,1:0|0:0,0:0:0:0:
432,348,479984,1,0,0:0:0:0:
480,344,480062,1,8,0:0:0:0:
508,304,480140,1,0,0:0:0:0:
508,256,480218,1,2,0:0:0:0:
460,112,480375,1,0,0:0:0:0:
180,68,480531,1,2,0:0:0:0:
328,44,480687,1,8,0:0:0:0:
192,336,481000,6,0,P|168:292|124:268,1,100,4|2,0:3|0:0,0:0:0:0:
76,256,481234,1,0,0:0:0:0:
36,224,481312,1,8,0:0:0:0:
24,176,481390,1,0,0:0:0:0:
40,128,481468,1,2,0:0:0:0:
180,68,481625,1,0,0:0:0:0:
460,112,481781,1,2,0:0:0:0:
312,136,481937,1,8,0:0:0:0:
481,326,482250,6,0,L|359:337,1,100,2|0,0:0|0:0,0:0:0:0:
332,340,482484,1,0,0:0:0:0:
284,344,482562,1,8,0:0:0:0:
236,348,482640,1,0,0:0:0:0:
188,352,482718,1,2,0:0:0:0:
140,356,482796,1,0,0:0:0:0:
88,360,482875,1,0,0:0:0:0:
40,128,483031,1,2,0:0:0:0:
8,276,483187,1,8,0:0:0:0:
204,48,483500,6,0,P|256:36|300:48,1,100,4|2,0:3|0:0,0:0:0:0:
344,68,483734,1,0,0:0:0:0:
384,100,483812,1,8,0:0:0:0:
412,144,483890,1,0,0:0:0:0:
420,192,483968,1,2,0:0:0:0:
220,272,484125,2,0,P|272:260|324:268,1,100,2|0,0:0|0:0,0:0:0:0:
512,360,484437,2,0,P|460:368|412:356,1,100,8|0,0:0|0:0,0:0:0:0:
220,272,484750,6,0,P|208:220|172:180,1,100,4|2,0:0|0:0,0:0:0:0:
132,164,484984,1,0,0:0:0:0:
96,128,485062,1,8,0:0:0:0:
100,80,485140,1,0,0:0:0:0:
132,40,485218,1,2,0:0:0:0:
180,32,485296,1,0,0:0:0:0:
228,48,485375,2,0,P|276:60|336:44,2,100,0|2|8,0:0|0:0|0:0,0:0:0:0:
476,216,486000,6,0,P|420:208|380:232,1,100,4|2,0:3|0:0,0:0:0:0:
352,268,486234,1,0,0:0:0:0:
344,316,486312,2,0,P|304:348|256:348,1,100,8|2,0:0|0:0,0:0:0:0:
212,328,486546,1,0,0:0:0:0:
164,312,486625,2,0,L|52:300,2,100,0|2|8,0:0|0:0|0:0,0:0:0:0:
64,28,487250,5,2,0:0:0:0:
172,128,487406,1,0,0:0:0:0:
220,144,487484,1,0,0:0:0:0:
268,140,487562,1,8,0:0:0:0:
304,108,487640,1,0,0:0:0:0:
316,60,487718,1,2,0:0:0:0:
416,172,487875,1,0,0:0:0:0:
472,32,488031,1,2,0:0:0:0:
336,256,488187,5,8,0:0:0:0:
304,108,488343,1,2,0:0:0:0:
83,106,488500,2,0,P|117:70|164:52,1,100,2|0,0:0|0:0,0:0:0:0:
176,296,488812,2,0,P|192:248|184:196,1,100,8|0,0:0|0:0,0:0:0:0:
304,108,489125,2,2,P|360:104|396:128,1,100,2|0,0:0|1:0,0:0:0:0:
408,144,489359,1,0,1:0:0:0:
416,160,489437,1,8,1:2:0:0:
424,180,489515,1,0,1:0:0:0:
428,200,489593,1,0,1:0:0:0:
428,220,489671,1,0,1:0:0:0:
424,240,489750,6,0,P|412:300|428:348,1,100,4|0,1:2|0:0,0:0:0:0:
200,240,490062,2,0,P|212:300|196:348,1,100,8|0,0:0|0:0,0:0:0:0:
460,256,490375,2,0,P|464:308|488:348,1,100
164,256,490687,2,0,P|160:308|136:348,1,100,8|0,0:0|0:0,0:0:0:0:
64,152,491000,2,0,P|80:100|124:72,1,100,2|0,0:0|0:0,0:0:0:0:
164,64,491234,1,0,0:0:0:0:
212,72,491312,2,0,P|264:80|316:64,1,100,8|0,0:0|0:0,0:0:0:0:
456,32,491625,2,0,B|491:63|483:118|463:123|444:127|436:181|472:215,1,200,0|8,0:3|0:0,0:0:0:0:
188,312,492250,6,0,B|196:208|196:208|224:172,2,150,4|0|0,0:3|0:0|0:0,0:0:0:0:
44,360,492875,2,0,P|16:300|44:168,1,200,4|8,0:3|0:0,0:0:0:0:
328,88,493500,2,0,B|280:64|232:88|232:88|184:64|136:88,1,200,2|8,0:0|0:0,0:0:0:0:
188,228,493968,1,2,0:0:0:0:
216,268,494046,1,0,0:0:0:0:
260,296,494125,2,0,P|360:312|424:244,1,200,0|8,0:0|1:2,0:0:0:0:
444,100,494593,5,0,1:0:0:0:
444,100,494671,1,0,1:0:0:0:
444,100,494750,2,0,P|420:52|376:32,1,100,4|2,1:2|0:0,0:0:0:0:
332,28,494984,1,0,0:0:0:0:
288,48,495062,2,0,P|248:76|188:76,1,100,8|2,0:0|0:0,0:0:0:0:
52,48,495375,2,0,L|60:148,1,100,4|2,0:3|0:0,0:0:0:0:
100,176,495609,1,0,0:0:0:0:
140,204,495687,2,0,L|148:304,1,100,8|2,0:0|0:0,0:0:0:0:
288,356,496000,6,0,P|344:364|380:344,1,100,8|0,0:3|0:0,0:0:0:0:
324,276,496234,2,0,L|316:176,1,100,2|0,0:0|0:0,0:0:0:0:
308,88,496468,1,2,0:0:0:0:
456,120,496625,1,4,0:3:0:0:
156,144,496937,1,8,0:0:0:0:
24,364,497250,6,0,B|80:368|108:322|108:322|128:373|184:378,1,200,4|8,3:0|0:0,0:0:0:0:
332,352,497718,1,0,0:0:0:0:
376,332,497796,1,0,0:0:0:0:
408,292,497875,2,0,P|424:244|420:192,1,100,2|0,0:0|0:0,0:0:0:0:
336,52,498187,2,0,P|320:100|324:152,1,100,10|0,0:0|0:0,0:0:0:0:
196,228,498500,2,0,P|112:272|32:208,1,200,2|8,0:0|0:0,0:0:0:0:
128,100,498968,5,0,1:0:0:0:
144,88,499046,1,0,1:0:0:0:
164,80,499125,1,0,1:0:0:0:
184,76,499203,1,0,1:0:0:0:
204,76,499281,1,0,1:0:0:0:
224,80,499359,1,0,1:0:0:0:
244,88,499437,1,8,1:2:0:0:
344,200,499593,6,0,P|444:204|472:116,1,200,4|0,1:0|0:0,0:0:0:0:
473,122,500062,1,8,0:0:0:0:
280,352,500375,2,0,P|236:328|184:328,1,100,2|0,0:0|0:0,0:0:0:0:
88,344,500687,1,8,0:0:0:0:
20,136,500843,2,0,B|52:264|52:264|88:248|128:268,1,200,4|0,1:0|0:0,0:0:0:0:
187,327,501312,1,8,0:0:0:0:
272,40,501625,5,2,0:0:0:0:
356,96,501781,1,0,0:0:0:0:
452,76,501937,1,8,0:0:0:0:
360,284,502093,2,0,P|328:192|356:96,1,200,4|0,1:0|0:0,0:0:0:0:
356,96,502562,1,8,0:0:0:0:
156,96,502718,2,0,P|184:190|152:284,1,200,2|0,0:0|0:0,0:0:0:0:
64,336,503187,2,0,P|48:288|64:236,1,100,8|4,0:0|1:0,0:0:0:0:
272,24,503500,6,0,B|256:124|256:124|184:192,1,200,2|8,0:0|0:0,0:0:0:0:
92,152,503968,1,0,0:0:0:0:
194,308,504125,2,0,L|152:283,1,50,0|0,1:0|1:0,1:0:0:0:
314,334,504281,2,0,L|272:360,1,50,0|0,1:0|1:0,1:0:0:0:
392,288,504437,1,8,1:2:0:0:
392,288,504593,6,0,B|423:240|403:201|392:193|380:186|360:146|392:99,1,200,4|0,1:0|0:0,0:0:0:0:
464,28,505062,1,8,0:0:0:0:
164,32,505375,2,0,P|172:88|164:136,1,100,2|0,0:0|0:0,0:0:0:0:
96,204,505687,1,8,0:0:0:0:
140,296,505843,2,0,B|211:307|211:307|250:349|250:349|322:361,1,200,4|0,1:0|0:0,0:0:0:0:
420,340,506312,1,8,0:0:0:0:
468,200,506468,2,0,B|396:188|396:188|357:146|357:146|285:134,1,200,2|0,0:0|0:0,0:0:0:0:
188,124,506937,1,8,0:0:0:0:
88,344,507093,6,0,P|60:264|96:152,1,200,4|0,1:0|0:0,0:0:0:0:
188,124,507562,1,8,0:0:0:0:
252,48,507718,2,0,P|308:60|356:48,1,100,2|0,0:0|0:0,0:0:0:0:
452,192,508031,1,2,0:3:0:0:
344,296,508187,1,8,0:0:0:0:
488,336,508343,2,0,P|448:280|380:232,1,150,4|0,1:0|0:0,0:0:0:0:
312,212,508656,5,2,1:2:0:0:
144,320,508812,1,0,1:0:0:0:
32,156,508968,1,4,1:0:0:0:
440,100,509437,6,0,L|443:50,1,50,0|0,1:0|1:0,1:0:0:0:
384,160,509593,1,2,0:0:0:0:
380,208,509671,1,0,0:0:0:0:
408,252,509750,2,0,B|444:288|422:345|422:345|365:367|328:331,1,200,4|8,0:0|0:0,0:0:0:0:
220,228,510218,1,2,0:0:0:0:
92,308,510375,2,0,L|76:192,1,100
144,32,510687,2,0,L|157:131,1,100,8|0,0:0|0:0,0:0:0:0:
228,308,511000,2,0,B|283:298|298:244|298:244|337:283|390:265,1,200,2|8,0:3|0:0,0:0:0:0:
500,12,511625,2,0,B|444:21|429:75|429:75|390:36|337:54,1,200,2|8,0:0|0:0,0:0:0:0:
204,116,512093,5,2,0:0:0:0:
156,112,512171,1,0,0:0:0:0:
112,88,512250,2,0,B|88:132|88:132|44:160,1,100,4|0,0:3|0:0,0:0:0:0:
8,252,512562,1,8,0:0:0:0:
128,340,512718,1,2,0:0:0:0:
252,256,512875,2,0,P|296:228|348:228,1,100,2|0,0:3|0:0,0:0:0:0:
512,292,513187,2,0,P|468:320|416:320,1,100,8|0,0:0|0:0,0:0:0:0:
252,256,513500,6,0,P|224:204|232:152,1,100,4|0,0:3|0:0,0:0:0:0:
380,40,513812,2,0,P|408:92|400:144,1,100,10|0,0:0|0:0,0:0:0:0:
36,108,514125,1,8,0:3:0:0:
228,164,514281,1,0,0:0:0:0:
76,224,514437,1,10,0:0:0:0:
156,32,514593,1,0,0:0:0:0:
152,276,514750,6,0,P|236:304|332:236,1,200,4|8,0:0|0:0,0:0:0:0:
228,164,515218,1,0,0:0:0:0:
128,80,515375,2,0,P|208:25|301:52,1,200,2|8,0:0|0:0,0:0:0:0:
228,164,515843,1,0,0:0:0:0:
133,304,516000,2,0,P|238:339|358:254,1,250,4|8,0:0|0:0,0:0:0:0:
228,164,516468,1,0,0:0:0:0:
103,59,516625,2,0,P|203:-8|319:25,1,250,2|8,0:0|0:0,0:0:0:0:
228,164,517093,5,0,0:0:0:0:
476,152,517250,2,0,P|420:180|356:180,1,125,2|0,0:0|0:0,0:0:0:0:
360,356,517562,2,0,P|300:316|272:264,1,125,10|0,0:0|0:0,0:0:0:0:
97,328,517875,2,0,P|93:260|229:164,1,250,2|8,0:0|0:0,0:0:0:0:
380,276,518343,1,0,0:0:0:0:
404,88,518500,6,0,L|352:96,5,50,8|0|0|0|0|0,1:2|1:0|1:0|1:0|1:0|1:0,1:0:0:0:
268,72,518968,2,0,L|208:80,5,50,8|0|0|0|0|0,1:2|1:0|1:0|1:0|1:0|1:0,1:0:0:0:
128,64,519437,1,8,1:2:0:0:
36,180,519593,5,2,0:0:0:0:
40,228,519671,1,0,0:0:0:0:
64,272,519750,1,4,0:0:0:0:
284,304,519906,1,0,0:0:0:0:
236,292,519984,1,0,0:0:0:0:
188,296,520062,1,10,0:0:0:0:
218,78,520218,1,0,0:0:0:0:
234,126,520296,1,0,0:0:0:0:
262,170,520375,1,2,0:0:0:0:
408,332,520531,1,0,0:0:0:0:
408,284,520609,1,0,0:0:0:0:
424,236,520687,1,10,0:0:0:0:
442,46,520843,5,0,0:0:0:0:
422,94,520921,1,0,0:0:0:0:
378,122,521000,2,0,P|326:142|274:134,1,100,2|0,0:0|0:0,0:0:0:0:
234,126,521234,1,0,0:0:0:0:
194,154,521312,2,0,P|150:178|94:178,1,100,10|0,0:0|0:0,0:0:0:0:
52,168,521546,1,0,0:0:0:0:
16,204,521625,2,0,L|0:308,2,100,2|8|10,0:0|0:0|0:0,0:0:0:0:
128,80,522093,6,0,L|136:24,2,50,0|0|2,0:0|0:0|0:0,0:0:0:0:
208,264,522406,2,0,L|200:313,2,50,0|0|10,0:0|0:0|0:0,0:0:0:0:
288,80,522718,2,0,L|296:24,2,50,0|0|2,0:0|0:0|0:0,0:0:0:0:
368,264,523031,2,0,L|360:313,2,50,0|0|10,0:0|0:0|0:0,0:0:0:0:
448,80,523343,6,0,L|456:24,1,50
480,148,523500,2,0,P|496:200|480:248,1,100,2|0,0:0|0:0,0:0:0:0:
448,280,523734,1,0,0:0:0:0:
412,312,523812,2,0,B|364:296|364:296|316:312,1,100,10|0,0:0|0:0,0:0:0:0:
272,332,524046,1,0,0:0:0:0:
220,332,524125,1,2,0:0:0:0:
40,316,524281,1,8,0:0:0:0:
212,260,524437,1,10,0:0:0:0:
80,140,524593,6,0,L|56:96,2,50,0|0|4,0:0|0:0|0:0,0:0:0:0:
292,68,524906,1,0,0:0:0:0:
340,56,524984,1,0,0:0:0:0:
388,64,525062,1,10,0:0:0:0:
360,284,525218,2,0,P|352:252|352:224,2,50,0|0|2,0:0|0:0|0:0,0:0:0:0:
144,348,525531,1,0,0:0:0:0:
96,332,525609,1,0,0:0:0:0:
72,288,525687,1,10,0:0:0:0:
228,136,525843,6,0,P|256:140|284:136,1,50
364,112,526000,2,0,P|416:112|452:144,1,100,2|0,0:0|0:0,0:0:0:0:
468,188,526234,1,0,0:0:0:0:
460,236,526312,2,0,B|443:284|476:284|460:332,1,100,10|0,0:0|0:0,0:0:0:0:
420,364,526546,1,0,0:0:0:0:
368,368,526625,2,0,P|316:348|300:300,2,100,2|8|10,0:0|0:0|0:0,0:0:0:0:
148,340,527093,5,0,0:0:0:0:
132,292,527171,1,0,0:0:0:0:
116,244,527250,1,2,0:0:0:0:
320,176,527406,1,0,0:0:0:0:
304,224,527485,1,0,0:0:0:0:
288,272,527563,1,10,0:0:0:0:
116,244,527718,1,0,0:0:0:0:
100,196,527796,1,0,0:0:0:0:
84,148,527875,1,2,0:0:0:0:
352,80,528031,1,0,0:0:0:0:
336,128,528110,1,0,0:0:0:0:
320,176,528188,1,10,0:0:0:0:
448,356,528343,5,0,0:0:0:0:
436,308,528421,1,0,0:0:0:0:
452,260,528500,2,0,P|464:208|452:156,1,100,2|0,0:0|0:0,0:0:0:0:
420,128,528734,1,0,0:0:0:0:
372,112,528812,2,0,P|320:104|288:72,1,100,10|0,0:0|0:0,0:0:0:0:
248,44,529046,1,0,0:0:0:0:
196,48,529125,6,0,L|140:56,3,50,2|0|0|0,1:2|1:0|1:0|1:0,1:0:0:0:
68,96,529437,2,0,L|56:152,1,50,8|0,1:2|1:0,0:0:0:0:
128,200,529593,2,0,L|136:256,1,50,0|0,1:0|1:0,1:0:0:0:
80,324,529750,6,0,P|160:336|224:248,1,200,4|8,1:0|0:0,0:0:0:0:
212,100,530218,1,2,0:0:0:0:
352,40,530375,2,0,P|404:32|456:52,1,100,2|0,0:3|0:0,0:0:0:0:
500,188,530687,1,8,0:0:0:0:
420,312,530843,1,0,0:0:0:0:
270,334,531000,2,0,P|242:298|222:234,1,100,2|0,0:0|0:0,0:0:0:0:
156,60,531312,2,0,P|148:112|132:164,1,100,8|0,0:0|0:0,0:0:0:0:
100,276,531625,1,2,0:3:0:0:
308,60,531937,5,8,0:0:0:0:
332,156,532093,1,0,0:0:0:0:
420,204,532250,2,0,P|440:256|424:304,1,100,2|0,0:0|0:0,0:0:0:0:
204,324,532562,1,8,0:0:0:0:
180,228,532718,1,0,0:0:0:0:
92,180,532875,2,0,P|64:108|156:60,1,200,2|8,0:0|0:0,0:0:0:0:
156,60,533500,5,2,0:0:0:0:
344,84,533656,1,0,0:0:0:0:
164,144,533812,1,10,0:0:0:0:
344,208,533968,1,0,0:0:0:0:
172,292,534125,1,2,0:3:0:0:
172,292,534437,6,0,P|204:336|248:348,1,100,8|0,0:0|0:0,0:0:0:0:
344,324,534750,2,0,P|384:244|500:244,1,200,4|8,0:0|0:0,0:0:0:0:
444,328,535218,1,0,0:0:0:0:
444,328,535375,2,0,L|336:152,1,200,2|8,0:0|0:0,0:0:0:0:
208,80,535843,1,0,0:0:0:0:
6,173,536000,1,2,0:0:0:0:
114,17,536156,1,0,0:0:0:0:
96,237,536312,1,10,0:0:0:0:
15,64,536468,1,0,0:0:0:0:
196,189,536625,1,2,0:3:0:0:
456,336,536937,6,0,L|468:232,1,100,8|0,0:0|0:0,0:0:0:0:
372,72,537250,1,2,0:0:0:0:
448,136,537406,1,0,0:0:0:0:
320,276,537562,1,10,0:0:0:0:
308,176,537718,1,0,0:0:0:0:
176,56,537875,2,0,B|92:24|36:88|36:88|40:144,1,200,8|8,0:3|0:0,0:0:0:0:
80,224,538343,1,0,0:0:0:0:
40,316,538500,6,0,P|96:324|136:308,1,100,4|0,0:3|0:0,0:0:0:0:
308,176,538812,2,0,P|252:168|212:184,1,100,2|0,0:0|0:0,0:0:0:0:
396,300,539125,1,0,1:0:0:0:
416,304,539203,1,0,1:0:0:0:
436,304,539281,1,0,1:0:0:0:
456,296,539359,1,0,1:0:0:0:
472,284,539437,6,0,P|484:232|476:180,1,100,8|0,1:2|0:0,0:0:0:0:
420,48,539750,2,0,L|264:56,1,150,4|0,1:2|0:0,0:0:0:0:
220,140,540062,2,0,L|320:136,1,100,8|0,1:2|0:0,0:0:0:0:
312,288,540375,2,0,P|228:344|140:300,1,200,0|8,1:0|1:2,0:0:0:0:
60,160,540843,5,2,0:0:0:0:
140,8,541000,1,0,1:0:0:0:
92,172,541156,1,2,0:0:0:0:
224,68,541312,1,8,1:2:0:0:
112,196,541468,1,0,0:0:0:0:
276,156,541625,2,0,P|352:148|420:180,1,150,2|0,1:3|0:0,0:0:0:0:
500,228,541937,6,0,L|492:124,1,100,8|0,1:2|0:0,0:0:0:0:
265,6,542250,2,0,L|277:174,1,150,0|0,1:0|0:0,0:0:0:0:
284,248,542562,2,0,P|232:236|196:200,1,100,8|0,1:2|0:0,0:0:0:0:
116,56,542875,2,0,B|48:132|48:132|32:232,1,200,2|8,1:2|1:2,0:0:0:0:
136,364,543343,5,2,0:0:0:0:
198,204,543500,1,0,1:2:0:0:
316,384,543656,1,2,0:0:0:0:
289,214,543813,1,8,1:2:0:0:
484,316,543968,1,0,0:0:0:0:
375,182,544125,1,2,1:3:0:0:
375,182,544437,6,0,P|344:144|332:96,1,100,8|0,1:2|1:0,1:0:0:0:
320,48,544671,1,0,1:0:0:0:
272,36,544750,2,0,P|224:48|124:32,1,150,4|0,1:2|0:0,0:0:0:0:
40,72,545062,2,0,L|44:184,1,100,8|0,1:2|0:0,0:0:0:0:
76,320,545375,2,0,P|160:364|244:296,1,200,0|8,1:0|1:2,0:0:0:0:
192,168,545843,5,2,0:0:0:0:
220,20,546000,1,0,1:0:0:0:
424,132,546156,1,2,0:0:0:0:
276,104,546313,1,8,1:2:0:0:
360,228,546468,1,0,0:0:0:0:
364,24,546625,1,2,1:3:0:0:
436,316,546937,6,0,P|392:344|336:344,1,100,0|0,1:0|0:0,0:0:0:0:
244,236,547250,2,0,L|236:76,1,150,0|0,1:0|0:0,0:0:0:0:
156,40,547562,2,0,L|163:189,1,150,8|0,1:2|0:0,0:0:0:0:
88,244,547875,2,0,L|80:84,1,150,0|0,1:0|0:0,0:0:0:0:
0,48,548187,2,0,L|7:197,1,150,8|0,1:2|0:0,0:0:0:0:
16,288,548500,5,2,1:2:0:0:
200,368,548656,1,0,0:0:0:0:
88,244,548812,1,10,0:2:0:0:
284,284,548968,1,0,0:0:0:0:
216,96,549125,6,0,P|236:72|256:56,3,50,0|0|0|0,1:0|1:0|1:0|1:0,1:0:0:0:
340,44,549437,2,0,L|440:56,1,100,8|0,0:0|0:0,0:0:0:0:
492,196,549750,6,0,P|488:248|456:284,1,100,4|0,0:0|0:0,0:0:0:0:
256,284,550062,2,0,P|304:268|352:276,1,100,8|0,0:0|0:0,0:0:0:0:
180,356,550375,1,2,0:0:0:0:
80,340,550531,1,0,0:0:0:0:
0,212,550687,1,8,0:0:0:0:
100,196,550843,1,0,0:0:0:0:
384,104,551156,6,0,B|416:92|432:72|432:72|396:212,1,200,2|0,0:0|0:0,0:0:0:0:
296,340,551625,2,0,P|284:292|292:236,1,100,2|0,0:0|0:0,0:0:0:0:
232,60,551937,1,8,0:0:0:0:
188,148,552093,1,0,0:0:0:0:
48,208,552250,6,0,P|64:256|104:288,1,100,2|0,0:0|0:0,0:0:0:0:
343,321,552562,2,0,P|327:273|287:241,1,100,8|0,0:0|0:0,0:0:0:0:
188,148,552875,1,2,0:0:0:0:
164,52,553031,1,0,0:0:0:0:
292,128,553187,1,8,0:0:0:0:
392,16,553343,1,2,0:3:0:0:
452,312,553656,5,0,0:0:0:0:
372,252,553812,1,8,0:0:0:0:
284,304,553968,2,0,B|230:320|191:283|191:283|138:296|100:254,1,200,2|0,0:0|0:0,0:0:0:0:
72,56,554437,2,0,P|96:104|96:156,1,100,8|0,0:0|0:0,0:0:0:0:
76,351,554750,5,4,0:0:0:0:
100,255,554906,1,0,0:0:0:0:
232,100,555062,1,8,0:0:0:0:
256,196,555218,1,0,0:0:0:0:
384,336,555375,2,0,P|384:288|404:236,1,100,2|0,0:0|0:0,0:0:0:0:
484,48,555687,1,8,0:0:0:0:
468,148,555843,1,0,0:0:0:0:
269,171,556156,6,0,L|469:147,1,200,2|0,0:0|0:0,0:0:0:0:
496,296,556625,2,0,L|392:308,1,100,2|0,0:0|0:0,0:0:0:0:
169,182,556937,2,0,L|268:170,1,100,8|0,0:0|0:0,0:0:0:0:
120,344,557250,6,0,P|24:300|8:208,1,200,4|8,0:3|0:0,0:0:0:0:
56,72,557718,1,0,0:0:0:0:
192,132,557875,2,0,P|288:132|356:56,1,200,4|8,0:3|0:0,0:0:0:0:
157,324,558500,6,0,P|222:252|320:252,1,200,2|8,0:0|0:0,0:0:0:0:
456,312,558968,1,0,0:0:0:0:
468,160,559125,1,0,1:0:0:0:
464,140,559203,1,0,1:0:0:0:
452,124,559281,1,0,1:0:0:0:
436,112,559359,1,0,1:0:0:0:
416,104,559437,1,8,1:2:0:0:
396,104,559515,1,0,1:0:0:0:
376,108,559593,1,0,1:0:0:0:
360,116,559671,1,0,1:0:0:0:
344,132,559750,6,0,P|300:156|252:148,1,100,4|0,0:0|0:0,0:0:0:0:
64,84,560062,2,0,P|108:60|156:68,1,100,8|0,0:0|0:0,0:0:0:0:
96,256,560375,2,0,P|116:304|160:328,1,100,2|0,0:0|0:0,0:0:0:0:
248,304,560609,2,0,B|296:288|296:288|344:304,1,100,2|0,0:0|0:0,0:0:0:0:
428,344,560843,1,0,0:0:0:0:
492,208,561000,5,2,0:0:0:0:
476,108,561156,1,0,0:0:0:0:
388,228,561312,1,8,0:0:0:0:
328,92,561468,1,0,0:0:0:0:
240,216,561625,1,2,0:0:0:0:
300,352,561781,1,0,0:0:0:0:
300,352,561859,1,2,0:0:0:0:
152,336,562015,5,2,0:0:0:0:
152,336,562093,1,0,0:0:0:0:
52,88,562250,2,0,P|88:52|136:48,1,100,2|0,0:0|0:0,0:0:0:0:
224,76,562484,1,2,0:3:0:0:
320,100,562640,1,0,0:0:0:0:
220,116,562796,1,0,0:3:0:0:
316,140,562953,1,0,0:0:0:0:
216,160,563109,1,2,0:3:0:0:
440,208,563265,5,0,0:0:0:0:
440,208,563343,2,0,L|436:264,1,50
428,352,563500,1,2,0:0:0:0:
176,260,563656,1,0,0:0:0:0:
324,244,563812,1,8,0:0:0:0:
92,384,563968,2,0,P|56:344|48:296,1,100,2|0,0:0|0:0,0:0:0:0:
68,88,564281,6,0,L|56:40,2,50,0|0|8,1:0|1:0|1:2,1:0:0:0:
200,156,564593,1,0,1:0:0:0:
200,156,564671,1,0,1:0:0:0:
200,156,564750,5,4,0:0:0:0:
408,122,564906,1,2,0:0:0:0:
320,243,565062,1,8,0:0:0:0:
287,34,565218,1,2,0:0:0:0:
476,256,565375,1,0,0:0:0:0:
500,288,565453,1,2,0:0:0:0:
320,243,565609,1,0,0:0:0:0:
304,280,565687,2,0,P|268:316|216:328,1,100,8|0,0:0|0:0,0:0:0:0:
128,104,566000,6,0,P|144:160|140:204,1,100,2|0,0:0|0:0,0:0:0:0:
60,384,566312,2,0,P|44:328|48:284,1,100,8|0,0:0|0:0,0:0:0:0:
128,104,566625,2,0,L|228:80,1,100,2|0,0:0|0:0,0:0:0:0:
316,56,566859,2,0,P|316:108|288:148,1,100,2|0,0:0|0:0,0:0:0:0:
220,208,567093,1,0,0:0:0:0:
392,356,567250,5,2,0:0:0:0:
468,144,567406,1,0,0:0:0:0:
468,144,567484,1,2,0:3:0:0:
380,100,567640,1,0,0:0:0:0:
289,146,567796,1,0,0:0:0:0:
200,96,567953,1,0,0:0:0:0:
112,144,568109,1,2,0:3:0:0:
48,312,568265,5,0,0:0:0:0:
48,312,568343,2,0,L|100:320,1,50,2|0,0:0|0:0,0:0:0:0:
192,332,568500,1,0,0:0:0:0:
416,308,568656,1,0,0:0:0:0:
208,200,568812,1,8,0:0:0:0:
468,144,568968,1,2,0:0:0:0:
228,40,569125,6,0,P|196:36|168:40,1,50,0|0,1:0|1:0,1:0:0:0:
24,104,569281,2,0,P|48:107|73:106,1,50,0|0,1:0|1:0,1:0:0:0:
228,176,569437,2,0,P|196:172|168:176,1,50,0|0,1:0|1:0,1:0:0:0:
24,240,569593,2,0,P|48:243|73:242,1,50,0|0,1:0|1:0,1:0:0:0:
224,316,569750,6,0,P|304:300|368:336,1,150,4|0,0:0|0:0,0:0:0:0:
452,372,570062,2,0,L|464:268,1,100,2|0,0:1|0:0,0:1:0:0:
392,204,570296,2,0,L|404:100,1,100,2|0,0:0|0:0,0:1:0:0:
468,32,570531,1,2,0:0:0:0:
320,64,570687,1,2,0:1:0:0:
180,12,570843,1,0,0:0:0:0:
82,202,571000,2,0,P|66:150|78:94,1,100,2|0,0:0|0:0,0:0:0:0:
176,144,571234,2,2,P|192:196|180:252,1,100,2|0,0:0|0:0,0:1:0:0:
132,316,571468,1,0,0:0:0:0:
132,316,571546,2,0,P|208:328|264:284,1,150,2|0,0:0|0:0,0:0:0:0:
316,144,571937,1,2,0:1:0:0:
316,144,572250,5,4,0:3:0:0:
108,40,572406,1,0,0:0:0:0:
36,188,572562,2,0,P|28:244|44:288,1,100,2|0,0:1|0:0,0:0:0:0:
68,316,572796,1,0,0:0:0:0:
108,328,572875,2,0,B|156:312|156:312|204:328,1,100,2|0,0:0|0:0,0:0:0:0:
344,380,573187,1,2,0:1:0:0:
464,288,573343,1,0,0:0:0:0:
480,252,573421,2,0,B|511:207|479:170|464:162|448:154|417:117|448:73,1,200,2|0,0:0|0:1,0:0:0:0:
360,32,573812,2,0,L|348:104,2,66.6666666666667,2|2|0,0:1|0:0|0:0,0:0:0:0:
276,52,574125,5,0,1:0:0:0:
200,24,574229,1,0,1:0:0:0:
132,68,574333,1,0,1:0:0:0:
60,36,574437,2,0,P|56:92|108:144,1,133.333333333333,2|0,1:0|0:0,0:0:0:0:
220,328,574750,6,0,P|220:280|200:228,1,100,4|0,0:0|0:0,0:0:0:0:
276,52,575062,2,0,P|276:100|296:152,1,100,2|0,0:1|0:0,0:0:0:0:
384,196,575296,2,0,B|458:202|458:202|501:263,1,150,2|0,0:0|0:0,0:0:0:0:
400,376,575687,1,2,0:1:0:0:
260,324,575843,1,0,0:0:0:0:
116,372,576000,2,0,P|88:328|92:276,1,100,2|0,0:0|0:0,0:0:0:0:
152,212,576234,2,2,L|160:112,1,100,2|0,0:0|0:0,0:1:0:0:
88,52,576468,2,0,P|148:20|224:48,1,150,2|0,0:3|0:0,0:0:0:0:
244,80,576781,1,2,0:0:0:0:
364,172,576937,1,2,0:1:0:0:
492,92,577093,5,0,0:0:0:0:
500,132,577171,2,0,B|520:228|520:228|476:260|480:320,1,200,2|0,0:0|0:0,0:0:0:0:
479,316,577562,1,2,0:1:0:0:
344,256,577718,1,0,0:0:0:0:
212,332,577875,2,0,P|160:340|116:316,1,100,2|0,0:0|0:0,0:0:0:0:
64,240,578109,2,0,L|20:268,1,50,0|2,0:0|0:1,0:0:0:0:
68,200,578265,1,0,0:0:0:0:
84,164,578343,1,2,0:0:0:0:
112,136,578421,1,0,0:0:0:0:
152,124,578500,6,0,P|176:124|204:132,2,50,2|8|0,1:0|1:2|1:0,1:0:0:0:
180,272,578812,1,2,1:0:0:0:
328,288,578968,2,8,P|352:284|376:268,1,50,0|2,1:2|1:0,1:2:0:0:
420,200,579125,1,0,1:2:0:0:
424,180,579203,1,0,1:2:0:0:
428,160,579281,1,0,1:0:0:0:
432,140,579359,1,0,1:0:0:0:
436,120,579437,1,2,1:0:0:0:
440,100,579515,1,0,1:0:0:0:
444,80,579593,1,0,1:0:0:0:
448,60,579671,1,2,1:0:0:0:
452,40,579750,1,4,1:0:0:0:
108,76,589125,5,0,1:0:0:0:
112,96,589203,1,0,1:0:0:0:
116,116,589281,1,0,1:0:0:0:
120,136,589359,1,0,1:0:0:0:
124,156,589437,2,0,L|136:216,1,50,2|0,1:2|1:0,1:0:0:0:
232,252,589593,2,0,L|222:202,1,50,0|0,1:0|1:0,1:0:0:0:
260,116,589750,6,0,P|304:88|360:88,1,100,4|0,1:0|0:0,0:0:0:0:
448,108,590062,1,8,0:0:0:0:
500,248,590218,2,0,P|436:328|344:336,1,200,2|0,0:0|0:0,0:0:0:0:
260,116,590687,2,0,L|244:220,1,100,8|0,0:0|0:0,0:0:0:0:
52,352,591000,2,0,L|76:192,1,150,4|0,0:3|0:0,0:0:0:0:
96,92,591312,2,0,P|112:140|104:196,1,100,8|0,0:0|0:0,0:0:0:0:
255,311,591625,2,0,P|239:263|247:207,1,100,2|0,0:0|0:0,0:0:0:0:
360,76,591937,5,8,0:0:0:0:
448,196,592093,1,0,0:0:0:0:
432,348,592250,2,0,P|384:368|336:360,1,100,4|0,0:3|0:0,0:0:0:0:
255,311,592562,1,8,0:0:0:0:
96,360,592718,2,0,P|44:272|64:172,1,200,2|0,0:0|0:0,0:0:0:0:
252,63,593187,2,0,P|264:111|248:171,1,100,8|0,0:0|0:0,0:0:0:0:
159,319,593500,2,0,P|207:303|255:311,1,100,2|0,0:0|0:0,0:0:0:0:
397,357,593812,1,8,0:0:0:0:
485,235,593968,1,0,0:0:0:0:
396,112,594125,1,2,0:0:0:0:
254,160,594281,5,0,1:0:0:0:
236,164,594359,1,0,1:0:0:0:
216,168,594437,1,8,1:2:0:0:
88,244,594593,1,0,1:0:0:0:
106,248,594671,1,0,1:0:0:0:
126,252,594750,6,0,L|228:268,1,100,4|0,1:0|0:0,0:0:0:0:
324,284,595062,1,8,0:0:0:0:
436,184,595218,2,0,P|412:84|328:52,1,200,2|0,0:0|0:0,0:0:0:0:
188,112,595687,1,8,0:0:0:0:
52,52,595843,1,0,0:0:0:0:
68,200,596000,2,0,P|72:252|52:296,1,100,2|0,0:0|0:0,0:0:0:0:
32,328,596234,1,0,0:0:0:0:
36,368,596312,2,0,L|140:376,1,100,8|0,0:0|0:0,0:0:0:0:
360,316,596625,2,0,L|256:308,1,100,2|0,0:0|0:0,0:0:0:0:
68,200,596937,2,0,L|172:208,1,100,8|0,0:0|0:0,0:0:0:0:
380,116,597250,6,0,P|312:40|216:40,1,200,4|8,0:3|0:0,0:0:0:0:
96,124,597718,1,0,0:0:0:0:
96,276,597875,2,0,P|128:320|180:336,1,100,2|0,0:0|0:0,0:0:0:0:
304,272,598187,1,8,0:0:0:0:
444,324,598343,2,0,B|437:266|407:232|407:232|447:210|473:158,1,200,2|0,0:0|0:0,0:0:0:0:
472,159,598812,1,8,0:0:0:0:
304,24,598968,1,2,0:0:0:0:
152,36,599125,2,0,B|84:40|84:40|44:68|64:116,1,150,2|0,0:0|0:0,0:0:0:0:
89,221,599437,2,0,P|101:173|93:117,1,100,8|0,0:0|0:0,0:0:0:0:
168,292,599750,5,2,1:2:0:0:
180,308,599828,1,0,1:0:0:0:
196,320,599906,1,0,1:0:0:0:
216,328,599984,1,0,1:0:0:0:
236,328,600062,1,8,1:2:0:0:
256,328,600140,1,0,1:0:0:0:
276,328,600218,1,2,1:2:0:0:
296,328,600296,1,0,1:0:0:0:
316,328,600375,2,0,L|368:328,1,50,2|0,1:2|1:0,1:0:0:0:
408,232,600531,2,0,L|358:232,1,50,0|0,1:0|1:0,1:0:0:0:
288,156,600687,1,8,1:2:0:0:
32,32,600843,6,4,P|88:124|72:272,1,259.999988098145,12|12,1:2|1:2,0:0:0:0:
366,328,601312,1,8,1:2:0:0:
366,328,602245,6,0,P|440:280|464:176,1,200,4|8,0:0|0:0,0:0:0:0:
304,212,602695,2,0,P|299:123|221:51,1,200,2|0,0:0|0:0,0:0:0:0:
180,248,603145,2,0,P|101:207|0:239,1,200,10|0,0:0|0:0,0:0:0:0:
320,316,603745,2,0,B|368:332|368:332|416:308,1,100,10|0,0:0|0:0,0:0:0:0:
463,175,604045,2,0,B|415:159|415:159|367:183,1,100,2|0,0:0|0:0,0:0:0:0:
248,248,604345,1,8,0:0:0:0:
132,172,604495,1,0,0:0:0:0:
8,240,604645,6,0,P|32:284|76:312,1,100,2|0,0:0|0:0,0:0:0:0:
92,104,604945,2,0,P|68:60|24:32,1,100,10|0,0:0|0:0,0:0:0:0:
200,220,605245,2,2,P|224:264|268:292,1,100,2|0,0:0|0:0,0:0:0:0:
224,56,605545,2,0,B|196:2|251:-41|310:-26|326:14|325:50|325:50|343:18|377:-7|436:7|461:73|411:106,1,400,10|8,0:0|0:0,0:0:0:0:
468,360,606445,6,0,P|388:300|288:300,1,200,2|8,0:0|0:0,0:0:0:0:
160,352,606895,2,0,P|36:340|112:240,1,300,4|8,0:0|0:0,0:0:0:0:
468,24,607645,2,0,P|388:84|288:84,1,200,2|8,0:0|0:0,0:0:0:0:
160,32,608095,2,0,P|36:44|68:136,1,250,2|0,0:3|0:0,0:0:0:0:
132,176,608545,6,0,L|232:184,1,100,8|0,0:0|0:0,0:0:0:0:
376,284,608845,2,0,L|276:276,1,100,2|0,0:0|0:0,0:0:0:0:
120,356,609145,2,0,L|220:364,1,100,8|0,0:0|0:0,0:0:0:0:
376,284,609445,5,2,0:0:0:0:
400,104,609595,1,0,0:0:0:0:
480,264,609745,1,10,0:0:0:0:
312,196,609895,1,0,0:0:0:0:
484,136,610045,2,0,P|488:84|468:40,1,100,2|0,0:0|0:0,0:0:0:0:
206,136,610345,2,0,P|294:104|402:104,1,200,8|0,0:0|0:0,0:0:0:0:
480,264,610795,6,0,L|492:312,2,50,0|0|8,1:0|1:0|1:2,1:0:0:0:
300,244,611095,2,0,P|272:248|248:264,1,50,0|0,1:0|1:0,1:0:0:0:
192,328,611245,1,0,1:0:0:0:
176,340,611320,1,0,1:0:0:0:
156,348,611395,1,0,1:0:0:0:
136,352,611470,1,0,1:0:0:0:
116,348,611545,1,8,1:2:0:0:
100,340,611620,1,0,1:0:0:0:
84,328,611695,1,0,1:0:0:0:
72,312,611770,1,0,1:0:0:0:
68,292,611845,6,0,P|68:192|4:112,1,200,4|8,1:0|0:0,0:0:0:0:
120,12,612273,2,0,P|190:82|292:94,1,200,2|0,0:0|0:0,0:0:0:0:
436,48,612702,2,0,P|456:96|448:144,1,100,8|0,0:0|0:0,0:0:0:0:
376,284,612987,2,0,P|336:188|372:100,1,200,4|8,0:3|0:0,0:0:0:0:
96,316,613559,6,0,L|80:208,1,100,2|0,0:0|0:0,0:0:0:0:
152,52,613845,2,0,L|166:150,1,100,8|0,0:0|0:0,0:0:0:0:
256,288,614130,2,0,P|352:312|416:244,1,200,4|8,0:3|0:0,0:0:0:0:
468,84,614559,2,0,P|372:60|308:128,1,200,2|0,0:0|0:0,0:0:0:0:
256,288,614987,1,8,0:0:0:0:
88,308,615130,1,0,0:0:0:0:
4,160,615273,2,0,B|25:107|73:106|85:118|98:129|146:128|167:76,1,200,2|8,0:0|0:0,0:0:0:0:
404,48,615845,5,2,0:0:0:0:
424,216,615987,1,0,0:0:0:0:
372,27,616130,1,8,0:0:0:0:
455,236,616272,1,0,0:0:0:0:
292,40,616416,2,0,P|240:48|204:84,2,100,4|0|8,0:0|0:0|0:0,0:0:0:0:
304,320,616987,5,4,0:3:0:0:
208,220,617130,1,0,0:0:0:0:
164,352,617273,2,0,L|76:296,1,100,8|0,0:0|0:0,0:0:0:0:
208,220,617559,2,0,L|159:127,1,100,2|0,0:0|0:0,0:0:0:0:
292,40,617845,1,8,0:0:0:0:
208,320,618130,5,4,0:3:0:0:
304,220,618273,1,0,0:0:0:0:
348,352,618416,2,0,L|436:296,1,100,8|0,0:0|0:0,0:0:0:0:
304,220,618702,2,0,L|352:127,1,100,2|0,0:0|0:0,0:0:0:0:
220,40,618987,2,0,L|228:140,1,100,8|0,0:0|0:0,0:0:0:0:
432,298,619273,2,0,L|400:200,1,100,2|0,0:0|0:0,0:0:0:0:
108,124,619559,2,0,L|176:204,1,100,10|0,0:0|0:0,0:0:0:0:
350,131,619845,1,2,0:0:0:0:
256,320,619987,5,0,1:0:0:0:
256,320,620059,1,0,1:0:0:0:
256,320,620130,1,8,1:2:0:0:
116,344,620273,1,0,1:0:0:0:
76,332,620345,1,0,1:0:0:0:
52,300,620416,2,0,L|40:248,3,50,0|0|0|0,1:0|1:0|1:0|1:0,1:0:0:0:
80,164,620702,2,0,L|68:112,3,50,8|0|0|0,1:2|1:0|1:0|1:0,1:0:0:0:
116,24,620987,6,0,P|216:16|288:84,1,200,4|0,1:0|0:0,0:0:0:0:
232,208,621416,2,0,P|305:272|401:263,1,200,2|0,0:0|0:0,0:0:0:0:
436,40,621845,2,0,P|424:88|436:144,1,100,8|0,0:0|0:0,0:0:0:0:
472,324,622130,2,0,P|376:360|280:352,1,200,4|8,0:3|0:0,0:0:0:0:
84,72,622702,5,2,0:0:0:0:
252,96,622845,1,0,0:0:0:0:
72,112,622987,1,8,0:0:0:0:
260,128,623130,1,0,0:0:0:0:
60,148,623273,2,0,B|48:248|48:248|112:328,1,200,2|8,0:0|0:0,0:0:0:0:
244,284,623702,2,0,P|344:280|420:344,1,200,2|0,0:0|0:0,0:0:0:0:
452,116,624130,2,0,L|460:216,1,100,10|0,0:0|0:0,0:0:0:0:
308,48,624416,2,0,B|223:60|223:60|207:84|207:84|122:96,1,200,4|8,0:3|0:0,0:0:0:0:
24,360,624987,2,0,B|108:347|108:347|124:323|124:323|209:311,1,200,2|8,0:0|0:0,0:0:0:0:
404,108,625559,6,0,P|440:200|424:304,3,200,4|8|0|8,0:0|0:0|0:0|0:0,0:0:0:0:
148,340,626702,2,0,L|136:240,1,100,2|0,0:0|0:0,0:0:0:0:
184,56,626987,2,0,L|196:156,1,100,8|0,0:0|0:0,0:0:0:0:
136,348,627273,2,0,L|124:248,1,100,2|0,0:0|0:0,0:0:0:0:
172,64,627558,2,0,L|184:164,1,100,10|0,0:0|0:0,0:0:0:0:
128,352,627845,6,0,L|100:144,1,200,4|8,0:0|0:0,0:0:0:0:
384,352,628416,2,0,L|412:144,1,200,4|8,0:0|0:0,0:0:0:0:
128,352,628987,1,4,0:0:0:0:
92,184,629130,2,0,L|40:180,2,50,0|0|12,1:0|1:0|1:2,1:0:0:0:
208,48,629416,1,0,1:0:0:0:
228,52,629487,1,0,1:0:0:0:
248,56,629559,2,0,L|296:68,1,50,4|0,1:2|1:0,1:0:0:0:
448,108,629702,2,0,L|400:120,1,50,0|0,1:0|1:0,1:0:0:0:
248,152,629845,2,0,L|296:164,1,50,4|0,1:2|1:0,1:0:0:0:
448,204,629988,2,0,L|400:216,1,50,0|0,1:0|1:0,1:0:0:0:
260,256,630130,6,0,P|168:220|144:124,1,200,4|8,1:2|0:0,0:0:0:0:
236,24,630539,1,0,0:0:0:0:
376,44,630675,2,0,P|424:60|456:100,1,100,2|0,0:0|0:0,0:0:0:0:
376,248,630948,2,0,P|360:200|364:148,1,100,8|0,0:0|0:0,0:0:0:0:
476,328,631220,6,0,P|440:364|392:380,1,100,2|0,0:0|0:0,0:0:0:0:
144,352,631493,1,8,0:0:0:0:
276,308,631630,1,0,0:0:0:0:
31,175,631766,2,0,P|67:139|115:123,1,100,2|0,0:0|0:0,0:0:0:0:
363,151,632039,1,8,0:0:0:0:
231,195,632176,1,0,0:0:0:0:
296,16,632311,6,0,P|396:0|476:60,1,200,2|8,0:0|0:0,0:0:0:0:
500,192,632720,2,0,B|485:275|395:322|338:286|328:195|233:221|269:305|238:364|137:368|82:303,1,500,2|4,0:0|0:3,0:0:0:0:
82,303,633675,6,0,L|62:199,1,100,8|0,0:0|0:0,0:0:0:0:
140,40,633948,2,0,L|158:138,1,100,2|0,0:0|0:0,0:0:0:0:
252,284,634220,2,0,P|292:252|312:200,1,100,8|0,0:0|0:0,0:0:0:0:
396,44,634493,2,0,P|452:124|448:228,1,200,4|8,0:0|0:0,0:0:0:0:
328,352,634902,1,0,0:0:0:0:
328,352,635039,2,0,L|228:344,1,100,4|0,0:3|0:0,0:0:0:0:
68,252,635311,2,0,L|168:260,1,100,8|0,0:0|0:0,0:0:0:0:
344,204,635584,6,0,B|324:154|343:106|343:106|291:108|252:72,1,200,2|8,0:0|0:0,0:0:0:0:
128,12,635993,2,0,B|56:-8|16:56|16:56|36:128,1,200,2|0,0:0|0:0,0:0:0:0:
112,312,636402,2,0,P|120:260|100:204,1,100,8|0,0:0|0:0,0:0:0:0:
252,73,636675,2,0,P|352:105|460:89,1,200,4|8,0:0|0:0,0:0:0:0:
496,372,637220,2,0,P|396:340|288:356,1,200,4|8,0:0|0:0,0:0:0:0:
44,244,637766,5,4,1:2:0:0:
80,108,637902,2,0,L|60:60,2,50,0|0|12,1:0|1:0|1:2,1:0:0:0:
220,128,638175,1,0,1:0:0:0:
240,132,638243,1,0,1:0:0:0:
260,132,638311,1,4,1:2:0:0:
280,128,638380,1,0,1:0:0:0:
300,120,638448,1,0,1:0:0:0:
316,108,638516,1,0,1:0:0:0:
336,100,638584,1,12,1:2:0:0:
356,96,638652,1,0,1:0:0:0:
376,100,638720,1,0,1:0:0:0:
396,108,638789,1,0,1:0:0:0:
412,124,638857,6,0,P|440:220|396:304,2,200,4|8|0,1:2|0:0|0:0,0:0:0:0:
136,72,639639,2,0,P|100:108|96:160,1,100,8|0,0:0|0:0,0:0:0:0:
200,256,639900,2,0,P|120:308|24:284,1,200,4|8,1:2|0:0,0:0:0:0:
234,60,640291,2,0,P|182:60|133:72,1,100,4|0,1:2|0:0,0:0:0:0:
376,312,640552,2,0,P|327:324|278:324,1,100,4|8,1:2|0:0,0:0:0:0:
448,44,640813,6,0,B|360:36|308:64|308:64|360:84,1,200,4|0,1:2|0:0,0:0:0:0:
464,280,641204,2,0,P|464:224|440:176,1,100,8|0,0:0|0:0,0:0:0:0:
308,160,641465,1,2,0:0:0:0:
126,186,641596,1,0,0:0:0:0:
203,81,641726,1,8,0:0:0:0:
229,263,641857,1,0,0:0:0:0:
440,332,641987,2,0,P|464:224|417:153,1,200,4|8,1:2|0:0,0:0:0:0:
103,86,642378,2,0,L|206:80,1,100,4|0,1:2|0:0,0:0:0:0:
288,304,642639,2,0,L|185:310,1,100,4|8,1:2|0:0,0:0:0:0:
72,56,642900,6,0,L|272:44,1,200,4|0,1:2|0:0,0:0:0:0:
418,153,643291,2,0,P|434:205|420:260,1,100,8|0,0:0|0:0,0:0:0:0:
304,384,643552,2,0,P|252:296|288:200,1,200,2|8,0:0|0:0,0:0:0:0:
72,56,644074,2,0,P|124:144|88:240,1,200,4|8,1:2|0:0,0:0:0:0:
271,44,644465,2,0,B|263:96|263:96|275:148,1,100,4|0,1:2|0:0,0:0:0:0:
380,360,644726,2,0,B|388:308|388:308|376:256,1,100,4|8,1:2|0:0,0:0:0:0:
420,24,644987,6,0,P|464:92|468:208,1,200,4|0,1:2|0:0,0:0:0:0:
308,316,645378,2,0,P|292:264|304:216,1,100,8|0,0:0|0:0,0:0:0:0:
324,80,645639,1,2,0:0:0:0:
192,36,645770,2,0,P|140:32|92:56,1,100,0|8,0:0|0:0,0:0:0:0:
56,208,646030,2,0,P|108:212|156:188,1,100,2|8,0:0|0:0,0:0:0:0:
324,80,646291,5,0,1:0:0:0:
336,96,646357,1,0,1:0:0:0:
344,112,646422,1,8,1:2:0:0:
305,260,646552,1,0,1:0:0:0:
301,240,646617,1,0,1:0:0:0:
301,220,646683,1,8,1:2:0:0:
452,160,646813,1,0,1:0:0:0:
456,180,646878,1,0,1:0:0:0:
456,200,646943,2,0,L|452:264,1,50,8|0,1:2|1:0,1:0:0:0:
400,360,647074,2,0,L|396:296,1,50,0|0,1:0|1:0,1:0:0:0:
336,208,647204,6,0,P|256:160|160:208,1,200,4|8,1:2|0:0,0:0:0:0:
112,328,647579,2,0,P|48:264|40:152,1,200,2|0,0:0|0:0,0:0:0:0:
172,0,647954,2,0,P|184:48|176:104,1,100,8|0,0:0|0:0,0:0:0:0:
252,284,648204,2,0,P|252:193|325:108,1,200,2|8,0:0|0:0,0:0:0:0:
488,332,648704,6,0,P|440:348|392:336,1,100,2|0,0:0|0:0,0:0:0:0:
201,220,648954,2,0,P|247:204|296:216,1,100,8|0,0:0|0:0,0:0:0:0:
80,316,649204,2,0,L|52:108,1,200,2|8,0:0|0:0,0:0:0:0:
180,36,649579,2,0,B|227:3|265:28|271:44|277:59|316:84|363:52,1,200,2|0,0:0|0:0,0:0:0:0:
480,144,649954,2,0,P|432:160|388:200,1,100,8|0,0:0|0:0,0:0:0:0:
339,340,650204,6,0,P|295:256|195:220,1,200,2|0,0:0|0:0,0:0:0:0:
56,264,650579,2,0,P|60:164|128:88,1,200,2|0,0:0|0:0,0:0:0:0:
362,52,650954,2,0,P|322:84|266:100,1,100,8|0,0:0|0:0,0:0:0:0:
44,44,651204,6,0,P|124:92|164:196,1,200,4|8,0:0|0:0,0:0:0:0:
232,320,651579,2,0,B|258:373|312:363|312:363|348:321|315:271,1,200,2|0,0:0|0:0,0:0:0:0:
272,48,651954,2,0,L|280:160,1,100,8|0,0:0|0:0,0:0:0:0:
440,288,652204,2,0,L|424:80,1,200,4|8,0:3|0:0,0:0:0:0:
136,72,652704,6,0,P|96:116|88:160,1,100,2|0,0:0|0:0,0:0:0:0:
164,304,652954,2,0,P|204:260|212:216,1,100,8|0,0:0|0:0,0:0:0:0:
96,4,653204,2,0,P|36:60|8:172,1,200,2|8,0:0|0:0,0:0:0:0:
88,328,653579,2,0,B|142:337|185:319|185:319|220:351|275:360,1,200,2|0,0:0|0:0,0:0:0:0:
480,284,653954,2,0,P|432:272|380:276,1,100,8|0,0:0|0:0,0:0:0:0:
168,216,654204,6,0,P|217:215|266:197,1,100,2|0,0:0|0:0,0:0:0:0:
348,76,654454,1,0,0:0:0:0:
216,0,654579,2,0,B|128:8|128:8|72:40|88:104,1,200,2|0,0:0|1:0,0:0:0:0:
92,124,654891,1,0,1:0:0:0:
96,144,654954,1,8,1:2:0:0:
144,276,655079,1,0,0:0:0:0:
264,198,655204,6,0,P|352:190|428:270,1,200,4|8,0:0|0:0,0:0:0:0:
272,372,655579,2,0,P|184:380|108:300,1,200,2|0,0:0|0:0,0:0:0:0:
108,72,655954,2,0,L|120:180,1,100,8|0,0:0|0:0,0:0:0:0:
216,272,656204,2,0,B|248:240|248:240|268:184,1,100,4|0,0:3|0:0,0:0:0:0:
308,8,656454,1,8,0:0:0:0:
452,248,656704,6,0,P|460:312|440:356,1,100,2|0,0:0|0:0,0:0:0:0:
303,104,656954,2,0,P|295:40|315:-4,1,100,8|0,0:0|0:0,0:0:0:0:
280,304,657204,2,0,P|176:288|104:228,1,200,2|8,0:0|0:0,0:0:0:0:
303,104,657579,2,0,P|407:120|479:180,1,200,2|0,0:0|0:0,0:0:0:0:
368,376,657954,2,0,L|352:264,1,100,8|0,0:0|0:0,0:0:0:0:
204,44,658204,2,2,B|216:144|216:144|160:236,1,200,2|8,0:0|0:0,0:0:0:0:
8,356,658579,2,0,P|108:348|208:368,1,200,2|0,0:0|0:0,0:0:0:0:
452,276,658954,2,0,P|400:284|352:276,1,100,8|0,0:0|0:0,0:0:0:0:
156,184,659204,6,0,P|252:156|352:188,1,200,4|8,0:0|0:0,0:0:0:0:
452,276,659579,1,2,0:0:0:0:
76,48,659954,2,0,L|88:160,1,100,8|0,0:0|0:0,0:0:0:0:
260,252,660204,1,2,0:0:0:0:
60,224,660329,1,0,0:0:0:0:
252,176,660454,1,8,0:0:0:0:
88,292,660579,1,2,0:0:0:0:
436,48,660954,6,0,L|424:160,1,100,8|0,0:0|0:0,0:0:0:0:
408,308,661204,2,0,P|312:356|224:320,1,200,4|8,0:0|0:0,0:0:0:0:
160,84,661579,2,0,P|180:132|176:184,1,100,4|0,0:0|0:0,0:0:0:0:
68,368,661829,2,0,P|48:320|52:268,1,100,0|8,0:0|0:0,0:0:0:0:
80,148,662079,1,4,0:0:0:0:
284,60,662204,5,0,1:0:0:0:
420,140,662329,1,0,1:0:0:0:
420,140,662391,1,0,1:0:0:0:
420,140,662454,2,0,L|408:200,3,50,8|0|0|0,1:2|1:0|1:0|1:0,1:0:0:0:
328,244,662704,2,0,L|316:184,3,50,0|0|0|0,1:0|1:0|1:0|1:0,1:0:0:0:
236,148,662954,1,8,1:2:0:0:
232,168,663016,1,0,1:0:0:0:
228,188,663079,1,0,1:0:0:0:
224,208,663141,1,0,1:0:0:0:
220,224,663204,1,4,1:0:0:0:
88,140,678202,6,0,L|92:196,7,50,2|0|0|0|0|0|0|0,0:0|0:0|0:0|0:0|0:0|0:0|0:0|0:0,0:0:0:0:
128,268,678702,2,0,L|120:328,1,50,2|0,0:0|0:0,0:0:0:0:
212,268,678827,2,0,L|216:324,1,50
288,248,678952,2,0,L|308:296,1,50,2|0,0:0|0:0,0:0:0:0:
352,200,679077,2,0,L|396:248,1,50
388,128,679202,6,0,P|328:56|216:52,1,200,4|8,0:0|0:0,0:0:0:0:
112,88,679577,2,0,B|100:160|100:160|121:208|121:208|110:281,1,200
196,368,679952,1,8,0:0:0:0:
316,352,680077,1,0,0:0:0:0:
368,244,680202,2,0,P|372:192|352:136,1,100,2|0,0:0|0:0,0:0:0:0:
227,47,680452,2,0,P|223:99|243:155,1,100,8|0,0:0|0:0,0:0:0:0:
376,16,680702,1,2,0:0:0:0:
316,352,680952,5,8,0:0:0:0:
216,284,681077,1,0,0:0:0:0:
100,312,681202,2,0,P|44:228|48:128,1,200,2|8,0:0|0:0,0:0:0:0:
136,52,681577,2,0,L|340:64,1,200,2|0,0:0|0:0,0:0:0:0:
428,180,681952,2,0,L|316:176,1,100,8|0,0:0|0:0,0:0:0:0:
133,239,682202,6,0,P|185:251|221:295,1,100,2|0,0:0|0:0,0:0:0:0:
305,363,682452,1,8,0:0:0:0:
425,347,682577,1,0,0:0:0:0:
428,180,682702,2,0,L|432:56,1,100,2|0,0:0|0:0,0:0:0:0:
292,16,682952,2,0,L|288:115,1,100,8|0,0:0|0:0,0:0:0:0:
215,283,683202,2,0,P|203:179|139:107,1,200,6|8,0:0|0:0,0:0:0:0:
425,347,683702,6,0,P|373:363|329:359,1,100,2|0,0:0|0:0,0:0:0:0:
104,336,683952,1,8,0:0:0:0:
220,304,684077,1,0,0:0:0:0:
12,260,684202,2,0,P|24:156|104:120,1,200,2|8,0:0|0:0,0:0:0:0:
200,188,684577,2,0,P|300:204|372:140,1,200,2|0,0:0|0:0,0:0:0:0:
476,0,684952,2,0,L|488:108,1,100,8|0,0:0|0:0,0:0:0:0:
448,272,685202,6,0,P|404:300|348:312,1,100,2|0,0:0|0:0,0:0:0:0:
156,328,685452,2,0,P|200:300|256:288,1,100,8|0,0:0|0:0,0:0:0:0:
370,143,685702,1,2,0:0:0:0:
296,48,685827,1,0,0:0:0:0:
176,28,685952,1,8,0:0:0:0:
76,92,686077,1,2,0:0:0:0:
32,204,686202,5,0,0:0:0:0:
32,204,686264,1,0,0:0:0:0:
32,204,686327,1,0,0:0:0:0:
234,384,686452,2,0,P|250:336|246:288,1,100,10|0,0:0|0:0,0:0:0:0:
296,48,686702,2,0,P|291:97|307:144,1,100,2|0,0:0|0:0,0:0:0:0:
484,312,686952,2,8,P|448:276|400:256,1,100,10|0,0:0|0:0,0:0:0:0:
156,272,687202,6,0,L|88:296,2,66.6666666666667,2|0|0,0:0|0:0|0:0,0:0:0:0:
128,196,687452,2,0,L|65:218,2,66.6666666666667,8|0|0,0:0|0:0|0:0,0:0:0:0:
100,120,687702,2,0,L|32:144,2,66.6666666666667
72,44,687952,2,0,L|9:66,2,66.6666666666667,8|0|0,0:0|0:0|0:0,0:0:0:0:
180,12,688202,6,0,P|232:4|284:20,1,100,2|0,0:0|0:0,0:0:0:0:
420,208,688452,2,0,P|440:160|436:104,1,100,8|0,0:0|0:0,0:0:0:0:
248,188,688702,2,0,P|243:231|267:291,1,100,2|0,0:0|0:0,0:0:0:0:
136,144,688952,5,8,0:0:0:0:
156,264,689077,1,0,0:0:0:0:
176,384,689202,2,0,P|88:368|32:280,1,200,2|8,0:0|0:0,0:0:0:0:
44,160,689577,2,0,B|76:64|76:64|120:100|168:84,1,200,2|0,0:0|0:0,0:0:0:0:
380,16,689952,2,0,P|328:8|284:24,1,100,8|0,0:0|0:0,0:0:0:0:
352,184,690202,6,0,L|364:292,1,100,2|0,0:0|0:0,0:0:0:0:
288,376,690452,1,8,0:0:0:0:
168,356,690577,1,0,0:0:0:0:
48,208,690702,2,0,P|72:160|120:140,1,100,2|0,0:0|0:0,0:0:0:0:
228,176,690952,1,8,0:0:0:0:
296,76,691077,1,0,0:0:0:0:
503,210,691202,6,0,P|419:250|351:178,1,200,6|8,0:0|0:0,0:0:0:0:
351,183,691577,1,0,0:0:0:0:
156,44,691702,2,0,P|172:96|164:148,1,100,2|0,0:0|0:0,0:0:0:0:
120,324,691952,2,0,P|104:272|112:220,1,100,8|0,0:0|0:0,0:0:0:0:
296,76,692202,2,0,B|396:76|396:76|433:173,1,200,2|8,0:0|0:0,0:0:0:0:
476,364,692577,2,0,B|376:364|376:364|339:267,1,200,2|0,0:0|0:0,0:0:0:0:
260,40,692952,2,0,P|264:96|252:140,1,100,8|0,0:0|0:0,0:0:0:0:
156,308,693202,6,0,P|160:252|148:208,1,100,2|0,0:0|0:0,0:0:0:0:
76,116,693452,1,8,0:0:0:0:
28,224,693577,1,0,0:0:0:0:
232,364,693702,2,0,P|304:364|400:276,1,200,2|8,0:0|0:0,0:0:0:0:
420,168,694077,1,2,0:0:0:0:
344,76,694202,6,0,L|360:12,2,66.6666666666667
296,132,694452,5,10,0:0:0:0:
244,144,694535,1,0,0:0:0:0:
196,124,694618,1,0,0:0:0:0:
128,96,694702,5,2,0:0:0:0:
76,88,694785,1,0,0:0:0:0:
28,112,694868,1,0,0:0:0:0:
4,184,694952,5,10,0:0:0:0:
28,232,695035,1,0,0:0:0:0:
32,284,695118,1,0,0:0:0:0:
68,356,695202,6,0,P|176:376|280:272,1,259.999988098145,6|8,0:0|0:0,0:0:0:0:
296,152,695577,1,0,0:0:0:0:
216,48,695702,2,0,P|148:36|92:68,1,129.999994049073,2|0,0:0|0:0,0:0:0:0:
60,188,695952,1,8,0:0:0:0:
204,340,696077,2,0,P|332:360|436:284,1,259.999988098145,2|0,0:0|0:0,0:0:0:0:
484,168,696452,1,8,0:0:0:0:
396,72,696577,2,0,P|268:52|164:128,1,259.999988098145,2|2,0:0|0:0,0:0:0:0:
156,344,696952,2,0,P|200:292|196:232,1,129.999994049073,8|0,0:0|0:0,0:0:0:0:
72,36,697202,6,0,B|12:84|48:152|48:152|116:264,1,259.999988098145,2|8,0:0|0:0,0:0:0:0:
272,352,697577,2,0,P|352:248|476:240,1,259.999988098145,2|2,0:0|0:0,0:0:0:0:
510,39,697952,2,0,P|466:75|394:71,1,129.999994049073,8|0,0:0|0:0,0:0:0:0:
216,24,698202,2,0,P|152:18|101:56,1,129.999994049073,2|0,0:0|0:0,0:0:0:0:
148,180,698452,1,8,0:0:0:0:
84,292,698577,2,0,B|136:332|136:332|204:328,1,129.999994049073,2|0,0:0|0:0,0:0:0:0:
384,264,698827,2,0,B|332:224|332:224|264:228,1,129.999994049073,2|8,0:0|0:0,0:0:0:0:
148,180,699077,5,0,0:0:0:0:
216,24,699202,2,0,P|348:16|440:108,1,259.999988098145,6|8,0:0|0:0,0:0:0:0:
487,302,699577,2,0,P|355:310|263:218,1,259.999988098145,2|0,0:0|0:0,0:0:0:0:
220,104,699952,1,8,0:0:0:0:
120,304,700077,2,0,L|92:40,1,259.999988098145,2|0,0:0|0:0,0:0:0:0:
268,8,700452,2,0,L|284:152,1,129.999994049073,8|0,0:0|0:0,0:0:0:0:
312,304,700702,2,0,B|326:373|409:369|409:369|465:308|421:252,1,259.999988098145,2|8,0:0|0:0,0:0:0:0:
92,45,701202,6,0,P|108:181|28:285,1,259.999988098145,2|8,0:0|0:0,0:0:0:0:
188,360,701577,2,0,P|204:296|260:248,1,129.999994049073,2|0,0:0|0:0,0:0:0:0:
372,212,701827,1,2,0:0:0:0:
344,340,701952,1,8,0:0:0:0:
288,168,702077,1,0,0:0:0:0:
424,44,702202,6,0,L|504:8,2,86.6666626993817,2|0|0,0:0|0:0|0:0,0:0:0:0:
332,92,702452,2,0,P|264:104|204:88,1,129.999994049073,8|2,0:0|0:0,0:0:0:0:
84,44,702702,1,0,0:0:0:0:
56,196,702827,1,2,0:0:0:0:
62,21,702952,1,8,0:0:0:0:
77,218,703077,1,0,0:0:0:0:
205,88,703202,6,0,P|265:60|333:64,1,129.999994049073,6|0,0:0|0:0,0:0:0:0:
480,184,703452,2,0,P|420:212|352:208,1,129.999994049073,8|0,0:0|0:0,0:0:0:0:
160,24,703702,1,2,0:0:0:0:
32,116,703827,1,0,0:0:0:0:
230,67,703952,1,8,0:0:0:0:
77,218,704077,2,0,B|88:283|154:297|174:286|195:275|261:289|272:355,1,259.999988098145,2|0,0:0|0:0,0:0:0:0:
337,83,704452,2,0,P|357:147|355:221,1,129.999994049073,10|0,0:0|0:0,0:0:0:0:
496,364,704702,2,0,P|460:236|476:112,1,259.999988098145,2|8,0:0|0:0,0:0:0:0:
104,40,705202,6,0,L|232:68,1,129.999994049073,2|0,0:0|0:0,0:0:0:0:
356,209,705452,2,0,L|228:237,1,129.999994049073,8|0,0:0|0:0,0:0:0:0:
124,352,705702,1,2,0:0:0:0:
8,248,705827,1,0,0:0:0:0:
60,100,705952,1,8,0:0:0:0:
228,236,706077,2,0,P|352:268|440:176,1,259.999988098145,2|0,0:0|0:0,0:0:0:0:
456,16,706452,2,0,P|396:4|336:48,1,129.999994049073,8|0,0:0|0:0,0:0:0:0:
348,268,706702,2,0,B|320:140|320:140|200:72,1,259.999988098145,2|8,0:0|0:0,0:0:0:0:
128,360,707202,6,0,P|136:292|116:228,1,129.999994049073,6|0,0:0|0:0,0:0:0:0:
48,24,707452,2,0,P|40:92|60:156,1,129.999994049073,8|0,0:0|0:0,0:0:0:0:
144,368,707702,2,0,P|152:300|132:236,1,129.999994049073,2|0,0:0|0:0,0:0:0:0:
64,32,707952,2,0,P|56:100|76:164,1,129.999994049073,8|0,0:0|0:0,0:0:0:0:
256,336,708202,1,2,0:0:0:0:
398,211,708327,1,0,0:0:0:0:
210,228,708452,1,10,0:0:0:0:
372,325,708577,1,0,0:0:0:0:
298,151,708702,2,0,P|204:112|96:208,1,259.999988098145,2|8,0:0|0:0,0:0:0:0:
484,320,709202,6,0,L|464:184,1,129.999994049073,2|0,0:0|0:0,0:0:0:0:
340,32,709452,2,0,L|360:168,1,129.999994049073,8|0,0:0|0:0,0:0:0:0:
472,332,709702,2,0,L|452:196,1,129.999994049073,2|0,0:0|0:0,0:0:0:0:
328,44,709952,2,0,L|348:180,1,129.999994049073,8|0,0:0|0:0,0:0:0:0:
296,348,710202,2,0,L|292:252,2,86.6666626993817,2|0|0,0:0|0:0|0:0,0:0:0:0:
192,364,710452,1,10,0:0:0:0:
44,312,710577,1,0,0:0:0:0:
140,56,710702,1,2,0:0:0:0:
156,213,710827,1,0,0:0:0:0:
296,348,710952,6,0,P|300:280|336:220,1,129.999994049073,8|0,0:0|0:0,0:0:0:0:
436,68,711202,2,0,P|384:92|312:80,1,129.999994049073,6|0,0:0|0:0,0:0:0:0:
76,64,711452,2,0,P|128:40|200:52,1,129.999994049073,12|0,0:2|0:0,0:0:0:0:
140,280,711702,2,0,B|156:216|156:216|148:152,1,129.999994049073
52,344,711952,1,12,0:2:0:0:
52,344,712077,2,0,P|152:388|244:280,1,259.999988098145,2|0,0:0|0:0,0:0:0:0:
252,132,712452,1,12,0:2:0:0:
444,40,712577,5,0,0:0:0:0:
444,40,712702,2,0,P|420:104|440:176,1,129.999994049073,2|0,0:0|0:0,0:0:0:0:
416,356,712952,2,0,P|411:292|372:240,1,129.999994049073,12|0,0:2|0:0,0:0:0:0:
123,109,713202,2,0,L|259:133,1,129.999994049073,2|0,0:0|0:0,0:0:0:0:
500,217,713452,2,0,L|364:241,1,129.999994049073,12|0,0:2|0:0,0:0:0:0:
168,360,713702,2,0,P|148:296|156:224,1,129.999994049073,2|0,0:0|0:0,0:0:0:0:
236,5,713952,2,0,P|256:69|248:141,1,129.999994049073,12|0,0:2|0:0,0:0:0:0:
80,368,714202,2,0,B|60:314|60:256|72:212|72:212|32:112,1,259.999988098145,2|12,0:0|0:2,0:0:0:0:
436,56,714702,6,0,P|372:72|336:128,1,129.999994049073,2|0,0:0|0:0,0:0:0:0:
273,306,714952,2,0,P|337:290|373:234,1,129.999994049073,12|0,0:2|0:0,0:0:0:0:
256,52,715202,1,6,0:0:0:0:
100,40,715327,1,0,0:0:0:0:
4,164,715452,1,12,0:2:0:0:
232,252,715577,2,0,P|196:140|99:39,1,259.999988098145,2|2,0:0|0:0,0:0:0:0:
4,164,715952,1,12,0:2:0:0:
508,220,716202,5,2,0:0:0:0:
412,344,716327,1,0,0:0:0:0:
256,332,716452,1,12,0:2:0:0:
280,132,716577,2,0,P|316:244|413:345,1,259.999988098145,2|2,0:0|0:0,0:0:0:0:
508,220,716952,1,12,0:2:0:0:
256,52,717202,6,0,B|124:64|124:64|64:104|88:176,1,259.999988098145,2|12,0:0|0:2,0:0:0:0:
240,356,717577,2,0,P|260:256|160:136,1,259.999988098145,2|2,0:0|0:0,0:0:0:0:
32,344,717952,2,0,P|96:352|160:324,1,129.999994049073,12|0,0:2|0:0,0:0:0:0:
280,132,718202,2,0,L|272:40,2,86.6666626993817,2|0|0,0:0|0:0|0:0,0:0:0:0:
324,228,718452,1,12,0:2:0:0:
444,328,718577,2,0,P|476:272|476:208,1,129.999994049073,2|0,0:0|0:0,0:0:0:0:
400,24,718827,2,0,P|368:80|368:144,1,129.999994049073,2|12,0:0|0:2,0:0:0:0:
160,312,719202,6,0,L|80:372,2,86.6666626993817,6|0|0,0:0|0:0|0:0,0:0:0:0:
124,236,719452,2,0,L|36:248,2,86.6666626993817,8|0|0,0:0|0:0|0:0,0:0:0:0:
124,148,719702,2,0,L|38:136,3,86.6666626993817,2|0|0|0,0:0|0:0|0:0|0:0,0:0:0:0:
160,72,719952,2,0,L|90:20,2,86.6666626993817,8|2|0,0:0|0:0|0:0,0:0:0:0:
240,108,720202,6,0,P|308:120|372:92,1,129.999994049073
512,252,720452,2,0,P|444:240|380:268,1,129.999994049073,8|0,0:0|0:0,0:0:0:0:
192,352,720702,2,0,P|260:364|324:336,1,129.999994049073,2|0,0:0|0:0,0:0:0:0:
240,108,720952,2,0,L|248:244,1,129.999994049073,10|0,0:0|0:0,0:0:0:0:
124,248,721202,5,0,0:0:0:0:
412,132,721452,2,0,P|400:84|336:36,1,129.999994049073,10|0,0:0|0:0,0:0:0:0:
84,76,721702,2,0,B|41:126|72:185|94:194|116:203|147:262|104:313,1,259.999988098145,2|8,0:0|0:0,0:0:0:0:
304,312,722077,2,0,P|432:320|512:220,1,259.999988098145,2|0,0:0|0:0,0:0:0:0:
428,40,722452,2,0,P|372:80|348:140,1,129.999994049073,8|0,0:0|0:0,0:0:0:0:
304,312,722702,2,0,P|272:252|216:216,1,129.999994049073,2|0,0:0|0:0,0:0:0:0:
68,192,722952,1,8,0:0:0:0:
444,192,723202,5,4,0:0:0:0:
444,192,723452,2,0,P|432:124|384:76,1,129.999994049073,8|0,0:0|0:0,0:0:0:0:
236,48,723702,1,2,0:0:0:0:
44,76,723827,1,0,0:0:0:0:
240,72,723952,1,8,0:0:0:0:
48,104,724077,1,0,0:0:0:0:
244,92,724202,2,0,P|192:208|64:224,1,259.999988098145,2|8,0:0|0:0,0:0:0:0:
232,384,724577,2,0,B|304:276|304:276|424:228,1,259.999988098145,2|0,0:0|0:0,0:0:0:0:
460,72,724952,5,8,0:0:0:0:
316,12,725077,1,0,0:0:0:0:
159,37,725202,2,0,B|83:41|43:121|43:121|71:229,1,259.999988098145,2|8,0:0|0:0,0:0:0:0:
232,384,725577,2,0,P|280:288|232:144,1,259.999988098145,2|0,0:0|0:0,0:0:0:0:
428,32,725952,2,0,P|408:96|428:160,1,129.999994049073,10|0,0:0|0:0,0:0:0:0:
428,352,726202,6,0,L|512:376,2,86.6666626993817
340,316,726452,5,0,0:0:0:0:
292,296,726535,1,0,0:0:0:0:
240,300,726618,1,0,0:0:0:0:
168,328,726702,5,0,0:0:0:0:
116,328,726785,1,0,0:0:0:0:
68,304,726868,1,0,0:0:0:0:
24,240,726952,5,0,0:0:0:0:
28,188,727035,1,0,0:0:0:0:
52,144,727118,1,0,0:0:0:0:
116,104,727202,6,0,P|188:84|264:92,1,150.000005722046,4|0,0:0|0:0,0:0:0:0:
400,156,727702,1,0,0:0:0:0:
324,336,727952,2,0,P|284:272|296:200,1,150.000005722046,2|0,0:0|0:0,0:0:0:0:
352,64,728452,5,0,0:0:0:0:
444,184,728702,1,0,0:0:0:0:
156,167,728952,2,0,B|231:161|231:161|295:201,1,150.000005722046,2|0,0:0|0:0,0:0:0:0:
220,332,729452,5,0,0:0:0:0:
84,272,729702,1,0,0:0:0:0:
134,31,729952,2,0,P|170:99|154:171,1,150.000005722046,2|0,0:0|0:0,0:0:0:0:
276,256,730452,5,0,0:0:0:0:
412,188,730702,1,0,0:0:0:0:
408,40,730952,2,0,P|332:8|276:36,1,150.000005722046,2|0,0:0|0:0,0:0:0:0:
212,172,731452,1,0,0:0:0:0:
76,108,731702,1,0,0:0:0:0:
20,248,731952,6,0,P|36:324|108:356,1,150.000005722046,2|0,0:0|0:0,0:0:0:0:
208,260,732452,1,0,0:0:0:0:
356,240,732702,1,0,0:0:0:0:
296,376,732952,2,0,L|276:196,1,150.000005722046,2|0,0:0|0:0,0:0:0:0:
264,76,733452,5,0,0:0:0:0:
160,184,733702,1,2,0:0:0:0:
50,80,733952,1,0,0:0:0:0:
55,296,734202,1,0,0:0:0:0:
264,76,734452,1,2,0:0:0:0:
269,291,734702,1,0,0:0:0:0:
50,80,734952,1,2,0:0:0:0:
55,296,735202,5,2,0:3:0:0:
184,376,735452,1,0,0:0:0:0:
328,340,735702,1,0,0:0:0:0:
396,208,735952,2,0,P|404:132|360:68,1,150.000005722046,2|0,0:0|0:0,0:0:0:0:
216,52,736452,5,0,0:0:0:0:
68,68,736702,1,0,0:0:0:0:
59,298,736952,2,0,P|119:254|151:187,1,150.000005722046,2|0,0:0|0:0,0:0:0:0:
216,52,737452,5,0,0:0:0:0:
364,40,737702,1,0,0:0:0:0:
472,248,737952,2,0,L|456:96,1,150.000005722046,2|0,0:0|0:0,0:0:0:0:
248,336,738452,5,0,0:0:0:0:
396,324,738702,1,2,0:0:0:0:
252,340,738952,1,0,0:0:0:0:
400,328,739202,1,0,0:0:0:0:
316,204,739452,5,0,0:0:0:0:
316,204,739702,2,0,B|220:169|135:91|95:-69|277:-92|402:42|268:139|153:145|58:110,1,600.000022888185,2|0,0:0|0:0,0:0:0:0:
48,288,740952,6,2,B|57:294|57:294|67:283|67:283|78:294|78:294|88:283|88:283|99:294|99:294|109:283|109:283|120:294|120:294|130:283|130:283|141:294|141:294|151:283|151:283|159:294|159:294|172:283|172:283|183:294|183:294|193:283|193:283|204:294|204:294|214:283|214:283|225:294|225:294|235:283|235:283|245:294|245:294|256:283|256:283|267:294|267:294|277:283|277:283|288:294|288:294|298:283|298:283|309:294|309:294|319:283|319:283|330:294|330:294|340:283|340:283|351:294|351:294|361:283|361:283|372:294|372:294|382:283|382:283|393:294|393:294|403:283|403:283|414:294|414:294|424:283|424:283|435:294|435:294|445:283|445:283|456:294|456:294|466:283|466:283|474:291,1,600.000022888185,2|0,0:0|0:0,0:0:0:0:
432,192,745202,5,2,0:0:0:0:
256,24,745702,1,0,0:0:0:0:
80,192,746202,1,2,0:0:0:0:
256,360,746702,1,0,0:0:0:0:
432,192,747202,5,2,0:0:0:0:
256,24,747702,1,0,0:0:0:0:
80,192,748202,1,2,0:0:0:0:
256,360,748702,1,0,0:0:0:0:
432,192,749202,6,0,P|256:111|80:192,1,400,4|0,0:0|0:0,0:0:0:0:
