osu file format v14

[General]
AudioFilename: Datsuji-P - Anison Sprint (Anime Song Medley II).mp3
AudioLeadIn: 0
PreviewTime: 2760
Countdown: 0
SampleSet: Normal
StackLeniency: 0.7
Mode: 0
LetterboxInBreaks: 0
WidescreenStoryboard: 1

[Editor]
Bookmarks: 55415,120415,170415,219165,274165,339165,404165,456665,501665,581977
DistanceSpacing: 0.9
BeatDivisor: 4
GridSize: 8
TimelineZoom: 0.8999999

[Metadata]
Title:Kakenukeru Anime Song Medley 2
TitleUnicode:駆け抜けるアニソンメドレーⅡ
Artist:M.Iz
ArtistUnicode:M.Iz
Creator:z1085684963
Version:pp box
Source:SOUND VOLTEX II -infinite infection-
Tags:
BeatmapID:731724
BeatmapSetID:330112

[Difficulty]
HPDrainRate:4
CircleSize:4
OverallDifficulty:8
ApproachRate:9
SliderMultiplier:1.7
SliderTickRate:1

[Events]
//Background and Video events
0,0,"BG.jpg",0,0
//Break Periods
2,85615,98615
2,189365,197365
2,259364,265958
//Storyboard Layer 0 (Background)
//Storyboard Layer 1 (Fail)
//Storyboard Layer 2 (Pass)
//Storyboard Layer 3 (Foreground)
//Storyboard Sound Samples

[TimingPoints]
2915,312.5,4,1,1,80,1,0

[HitObjects]
201,56,2915,5,0,0:0:0:0:
182,65,2993,1,0,0:0:0:0:
163,74,3071,1,0,0:0:0:0:
144,83,3149,1,0,0:0:0:0:
125,92,3227,1,0,0:0:0:0:
413,94,3540,1,0,0:0:0:0:
432,103,3618,1,0,0:0:0:0:
451,112,3696,1,0,0:0:0:0:
470,121,3774,1,0,0:0:0:0:
489,130,3852,1,0,0:0:0:0:
255,212,4165,5,0,0:0:0:0:
168,280,4321,1,0,0:0:0:0:
270,321,4477,1,0,0:0:0:0:
81,348,4633,1,0,0:0:0:0:
255,212,4790,1,0,0:0:0:0:
33,32,5102,1,0,0:0:0:0:
255,212,5415,6,0,P|286:242|324:259,1,85
346,263,5649,1,0,0:0:0:0:
367,264,5727,1,0,0:0:0:0:
470,226,5883,1,0,0:0:0:0:
458,115,6040,2,0,P|427:85|389:68,1,85
368,65,6274,1,0,0:0:0:0:
347,64,6352,1,0,0:0:0:0:
243,101,6508,1,0,0:0:0:0:
162,22,6665,5,0,0:0:0:0:
136,129,6821,1,0,0:0:0:0:
136,129,6899,1,0,0:0:0:0:
136,129,6977,1,0,0:0:0:0:
243,101,7133,1,0,0:0:0:0:
55,50,7290,1,0,0:0:0:0:
29,157,7446,1,0,0:0:0:0:
29,157,7524,1,0,0:0:0:0:
29,157,7602,1,0,0:0:0:0:
110,236,7758,1,0,0:0:0:0:
301,189,7915,6,0,L|381:162,1,85
394,145,8149,1,0,0:0:0:0:
406,127,8227,2,0,L|486:100,1,85
319,57,8540,1,0,0:0:0:0:
388,236,8696,1,0,0:0:0:0:
406,127,8852,1,0,0:0:0:0:
303,166,9008,1,0,0:0:0:0:
491,197,9165,5,0,0:0:0:0:
285,275,9321,1,0,0:0:0:0:
498,333,9477,1,0,0:0:0:0:
360,161,9633,1,0,0:0:0:0:
370,381,9790,2,0,L|327:374,3,42.5
317,333,10102,2,0,L|274:326,3,42.5
234,340,10415,6,0,P|155:314|116:240,1,170
226,230,10883,1,0,0:0:0:0:
161,140,11040,2,0,P|165:98|185:60,1,85
289,21,11351,1,0,0:0:0:0:
271,129,11508,6,0,P|314:128|352:112,1,85
440,43,11821,1,0,0:0:0:0:
419,187,11977,1,0,0:0:0:0:
507,118,12133,1,0,0:0:0:0:
486,261,12290,2,0,P|449:282|407:287,1,85
353,112,12602,2,0,P|389:91|431:86,1,85
274,232,12915,6,0,P|219:168|210:85,1,170
296,17,13383,1,0,0:0:0:0:
352,111,13540,2,0,P|374:148|385:189,1,85
274,232,13852,2,0,P|252:195|241:154,1,85
352,267,14165,5,0,0:0:0:0:
386,189,14321,1,0,0:0:0:0:
195,265,14477,1,0,0:0:0:0:
273,299,14633,1,0,0:0:0:0:
163,185,14790,5,0,0:0:0:0:
165,164,14869,1,0,0:0:0:0:
171,144,14947,1,0,0:0:0:0:
181,125,15025,1,0,0:0:0:0:
194,109,15103,1,0,0:0:0:0:
211,95,15181,1,0,0:0:0:0:
229,85,15259,1,0,0:0:0:0:
249,78,15337,1,0,0:0:0:0:
270,75,15415,6,0,B|319:111|319:111|428:105,1,170
501,23,15883,1,0,0:0:0:0:
505,184,16040,2,0,B|456:220|456:220|346:214,1,170
237,199,16508,1,0,0:0:0:0:
278,300,16665,6,0,P|249:332|212:352,1,85
102,337,16977,1,0,0:0:0:0:
67,232,17133,1,0,0:0:0:0:
229,239,17290,2,0,P|242:200|241:157,1,85
203,54,17602,1,0,0:0:0:0:
98,17,17758,1,0,0:0:0:0:
299,0,17915,6,0,P|326:33|344:72,1,85
347,93,18149,1,0,0:0:0:0:
350,114,18227,1,0,0:0:0:0:
241,158,18383,1,0,0:0:0:0:
393,224,18540,2,0,P|429:201|455:168,1,85
350,114,18852,1,0,0:0:0:0:
284,268,19008,1,0,0:0:0:0:
445,288,19165,6,0,L|428:248,3,42.5
394,224,19477,2,0,L|377:184,3,42.5
359,173,19790,5,0,0:0:0:0:
340,162,19868,1,0,0:0:0:0:
320,154,19946,1,0,0:0:0:0:
298,152,20024,1,0,0:0:0:0:
276,154,20102,1,0,0:0:0:0:
254,156,20180,1,0,0:0:0:0:
232,156,20258,1,0,0:0:0:0:
211,151,20336,1,0,0:0:0:0:
192,142,20415,6,0,P|155:120|114:109,1,85
72,105,20649,2,0,P|99:74|137:54,1,85
177,40,20883,2,0,P|216:56|252:78,1,85
338,229,21196,1,0,0:0:0:0:
192,142,21352,1,0,0:0:0:0:
362,142,21508,1,0,0:0:0:0:
177,40,21665,6,0,P|136:54|106:83,1,85
89,122,21899,2,0,P|90:164|109:202,1,85
140,228,22133,2,0,P|181:242|223:238,1,85
385,185,22446,1,0,0:0:0:0:
192,142,22602,1,0,0:0:0:0:
353,89,22758,1,0,0:0:0:0:
160,45,22915,6,0,P|123:67|99:101,1,85
223,239,23227,2,0,P|259:217|283:183,1,85
77,244,23540,2,0,P|93:306|134:354,2,127.5
191,141,24165,6,0,P|276:151|360:141,1,170
451,147,24633,1,0,0:0:0:0:
460,166,24711,1,0,0:0:0:0:
469,185,24790,2,0,L|469:227,2,42.5
390,225,25024,2,0,L|348:235,2,42.5
360,142,25258,2,0,L|319:132,1,42.5
246,62,25415,6,0,P|162:52|78:62,1,170
79,232,25883,1,0,0:0:0:0:
79,232,25961,1,0,0:0:0:0:
79,232,26040,2,0,P|163:242|247:232,1,170
394,147,26508,1,0,0:0:0:0:
394,147,26586,1,0,0:0:0:0:
394,147,26665,5,0,0:0:0:0:
356,251,26821,1,0,0:0:0:0:
356,251,26899,1,0,0:0:0:0:
355,250,26977,2,0,P|385:280|424:298,1,85
394,147,27290,2,0,L|382:105,1,42.5
296,171,27446,2,0,L|261:196,1,42.5
274,67,27602,2,0,L|262:25,1,42.5
176,91,27758,2,0,L|141:116,1,42.5
273,66,27915,6,0,P|337:66|398:46,1,127.5
433,23,28227,2,0,B|455:42|455:42|463:97,1,85
415,258,28540,2,0,P|351:257|290:237,1,127.5
256,214,28852,2,0,B|234:233|234:233|225:288,1,85
384,352,29165,5,0,0:0:0:0:
405,350,29243,1,0,0:0:0:0:
426,347,29321,1,0,0:0:0:0:
446,342,29399,1,0,0:0:0:0:
465,332,29477,1,0,0:0:0:0:
477,315,29555,1,0,0:0:0:0:
485,295,29633,1,0,0:0:0:0:
490,275,29711,1,0,0:0:0:0:
493,254,29790,6,0,L|484:212,1,42.5
369,206,29946,2,0,L|377:247,1,42.5
451,138,30102,2,0,L|442:96,1,42.5
326,89,30258,2,0,L|334:130,1,42.5
377,247,30415,6,0,P|335:255|294:248,1,85
158,197,30727,2,0,P|149:238|153:280,1,85
121,309,30961,2,0,B|78:283|78:283|57:208,1,127.5
67,43,31352,2,0,B|96:60|96:60|110:110,1,85
286,161,31665,6,0,P|322:183|349:215,1,85
351,343,31977,1,0,0:0:0:0:
240,280,32133,1,0,0:0:0:0:
315,84,32290,1,0,0:0:0:0:
209,155,32446,1,0,0:0:0:0:
350,216,32602,1,0,0:0:0:0:
315,84,32758,1,0,0:0:0:0:
455,144,32915,6,0,P|467:104|467:61,1,85
315,84,33227,2,0,P|303:124|303:167,1,85
315,207,33461,2,0,B|275:234|275:234|195:238,1,127.5
52,167,33852,2,0,B|79:149|79:149|132:147,1,85
265,60,34165,6,0,B|267:92|267:92|242:139,1,85
195,238,34477,1,0,0:0:0:0:
305,230,34633,2,0,L|385:203,1,85
496,139,34946,1,0,0:0:0:0:
373,107,35102,1,0,0:0:0:0:
483,43,35258,1,0,0:0:0:0:
360,10,35415,6,0,P|320:25|291:56,1,85
385,203,35727,2,0,P|424:188|453:157,1,85
291,56,36040,1,0,0:0:0:0:
192,136,36196,1,0,0:0:0:0:
311,182,36352,1,0,0:0:0:0:
291,56,36508,6,0,P|259:27|220:11,1,85
311,182,36821,1,0,0:0:0:0:
192,136,36977,1,0,0:0:0:0:
290,55,37133,2,0,P|332:55|372:69,1,85
311,182,37446,1,0,0:0:0:0:
423,244,37602,1,0,0:0:0:0:
361,356,37758,1,0,0:0:0:0:
479,305,37915,6,0,P|456:270|423:244,1,85
372,70,38227,2,0,P|352:107|346:149,1,85
221,280,38540,2,0,P|263:278|302:262,1,85
237,153,38852,1,0,0:0:0:0:
114,118,39008,6,0,P|109:161|119:202,1,85
237,153,39321,1,0,0:0:0:0:
159,51,39477,1,0,0:0:0:0:
284,33,39633,2,0,P|321:56|347:88,1,85
301,264,39946,1,0,0:0:0:0:
412,200,40102,1,0,0:0:0:0:
237,153,40258,1,0,0:0:0:0:
219,164,40336,1,0,0:0:0:0:
201,175,40415,6,0,B|161:220|168:280|168:280|213:247,1,170
276,94,40883,2,0,P|240:72|199:64,1,85
104,122,41196,1,0,0:0:0:0:
201,175,41352,1,0,0:0:0:0:
106,232,41508,6,0,P|135:263|173:281,1,85
281,252,41821,1,0,0:0:0:0:
253,359,41977,1,0,0:0:0:0:
359,329,42133,2,0,P|382:294|391:253,1,85
281,252,42446,1,0,0:0:0:0:
253,359,42602,1,0,0:0:0:0:
174,282,42758,1,0,0:0:0:0:
309,145,42915,6,0,P|237:100|153:90,1,170
30,121,43383,2,0,P|27:79|37:38,1,85
165,171,43696,2,0,P|168:213|157:254,1,85
41,201,44008,1,0,0:0:0:0:
94,317,44165,6,0,P|130:339|172:341,1,85
311,383,44477,2,0,P|312:341|294:304,1,85
201,218,44790,1,0,0:0:0:0:
173,342,44946,1,0,0:0:0:0:
294,304,45102,1,0,0:0:0:0:
201,218,45258,1,0,0:0:0:0:
368,132,45415,6,0,P|313:69|236:35,1,170
201,218,45883,1,0,0:0:0:0:
132,109,46040,1,0,0:0:0:0:
236,35,46196,2,0,P|254:73|259:115,1,85
74,211,46508,1,0,0:0:0:0:
5,102,46665,5,0,0:0:0:0:
109,28,46821,2,0,P|127:66|132:109,1,85
236,35,47133,2,0,P|273:14|314:8,1,85
393,108,47446,2,0,P|355:129|314:135,1,85
315,8,47759,1,0,0:0:0:0:
486,51,47915,6,0,P|501:91|499:134,1,85
394,292,48227,1,0,0:0:0:0:
493,244,48383,1,0,0:0:0:0:
401,182,48540,1,0,0:0:0:0:
499,134,48696,2,0,P|474:100|438:78,1,85
401,182,49008,1,0,0:0:0:0:
227,138,49165,5,0,0:0:0:0:
343,276,49321,1,0,0:0:0:0:
330,97,49477,1,0,0:0:0:0:
234,248,49633,2,0,P|201:221|175:187,1,85
343,276,49946,1,0,0:0:0:0:
330,97,50102,1,0,0:0:0:0:
401,182,50258,1,0,0:0:0:0:
393,7,50415,6,0,P|436:10|476:24,2,85
401,182,50883,1,0,0:0:0:0:
304,97,51040,1,0,0:0:0:0:
393,7,51196,2,0,P|418:41|430:82,1,85
274,196,51508,1,0,0:0:0:0:
177,111,51665,5,0,0:0:0:0:
267,21,51821,2,0,P|292:56|304:97,1,85
104,6,52133,2,0,P|73:35|54:72,1,85
126,177,52446,2,0,P|157:148|177:111,1,85
26,171,52758,1,0,0:0:0:0:
176,110,52915,6,0,P|187:152|186:194,1,85
90,349,53227,2,0,P|80:308|81:266,1,85
242,289,53540,1,0,0:0:0:0:
111,195,53696,1,0,0:0:0:0:
268,158,53852,1,0,0:0:0:0:
137,63,54008,1,0,0:0:0:0:
120,77,54086,1,0,0:0:0:0:
101,87,54164,5,0,0:0:0:0:
81,92,54242,1,0,0:0:0:0:
60,93,54320,1,0,0:0:0:0:
241,26,54477,1,0,0:0:0:0:
258,40,54555,1,0,0:0:0:0:
277,50,54633,1,0,0:0:0:0:
297,55,54711,1,0,0:0:0:0:
318,56,54790,2,0,L|358:44,3,42.5
393,19,55102,2,0,L|433:7,3,42.5
475,13,55415,6,0,B|492:124|492:124|463:175,1,170
392,259,55883,1,0,0:0:0:0:
501,279,56040,1,0,0:0:0:0:
430,363,56196,1,0,0:0:0:0:
463,175,56352,2,0,P|426:154|385:149,1,85
292,285,56665,6,0,P|353:227|385:149,1,170
385,22,57133,1,0,0:0:0:0:
311,125,57290,1,0,0:0:0:0:
431,86,57446,1,0,0:0:0:0:
310,46,57602,2,0,P|270:35|228:30,1,85
120,156,57915,6,0,P|160:168|202:172,1,85
227,29,58227,2,0,P|248:67|274:100,1,85
430,174,58540,2,0,P|472:169|512:157,1,85
358,100,58852,2,0,P|383:66|403:29,1,85
284,172,59165,6,0,P|258:205|237:243,1,85
199,346,59477,1,0,0:0:0:0:
308,327,59634,1,0,0:0:0:0:
128,262,59790,1,0,0:0:0:0:
90,366,59946,1,0,0:0:0:0:
56,178,60102,2,0,P|93:157|135:152,1,85
266,260,60415,6,0,P|302:184|297:100,1,170
232,11,60883,1,0,0:0:0:0:
77,124,61040,1,0,0:0:0:0:
187,112,61196,1,0,0:0:0:0:
12,35,61352,1,0,0:0:0:0:
122,23,61508,1,0,0:0:0:0:
79,207,61665,6,0,P|71:165|77:123,1,85
184,241,61977,1,0,0:0:0:0:
102,315,62133,1,0,0:0:0:0:
289,275,62290,2,0,P|328:258|358:227,1,85
184,241,62602,2,0,P|150:215|109:204,1,85
207,349,62915,6,0,P|276:302|293:220,1,170
242,62,63383,1,0,0:0:0:0:
376,161,63540,1,0,0:0:0:0:
345,63,63696,1,0,0:0:0:0:
211,160,63852,2,0,P|174:138|149:104,1,85
345,63,64165,5,0,0:0:0:0:
315,160,64321,1,0,0:0:0:0:
444,41,64477,1,0,0:0:0:0:
414,138,64633,1,0,0:0:0:0:
246,85,64790,1,0,0:0:0:0:
285,257,64946,1,0,0:0:0:0:
74,124,65102,1,0,0:0:0:0:
113,296,65258,1,0,0:0:0:0:
246,84,65415,6,0,P|330:86|404:127,1,170
477,210,65883,1,0,0:0:0:0:
465,69,66040,2,0,P|431:95|404:127,1,85
369,232,66352,1,0,0:0:0:0:
303,78,66508,6,0,P|264:63|222:58,1,85
33,68,66821,2,0,P|72:84|115:88,1,85
223,59,67133,1,0,0:0:0:0:
275,236,67290,2,0,P|312:214|339:181,1,85
223,59,67602,2,0,P|186:80|159:113,1,85
325,79,67915,6,0,B|393:83|410:13|410:13|438:17|452:38,1,170
441,148,68383,1,0,0:0:0:0:
331,2,68540,1,0,0:0:0:0:
261,170,68696,1,0,0:0:0:0:
441,148,68852,1,0,0:0:0:0:
250,75,69008,6,0,P|213:53|172:46,1,85
61,49,69321,1,0,0:0:0:0:
102,200,69477,2,0,P|141:183|175:156,1,85
250,75,69790,1,0,0:0:0:0:
142,51,69946,1,0,0:0:0:0:
283,180,70102,2,0,P|320:159|347:126,1,85
175,157,70415,6,0,P|189:238|256:287,1,170
363,258,70883,1,0,0:0:0:0:
311,73,71040,1,0,0:0:0:0:
284,180,71196,1,0,0:0:0:0:
417,43,71352,1,0,0:0:0:0:
390,150,71508,1,0,0:0:0:0:
205,103,71665,6,0,P|167:82|137:53,1,85
311,73,71977,2,0,P|348:52|378:23,1,85
284,180,72290,1,0,0:0:0:0:
450,239,72446,1,0,0:0:0:0:
282,290,72602,1,0,0:0:0:0:
389,149,72758,6,0,P|339:84|257:72,1,170
204,257,73227,1,0,0:0:0:0:
284,180,73383,1,0,0:0:0:0:
97,226,73540,1,0,0:0:0:0:
124,334,73696,1,0,0:0:0:0:
177,150,73852,1,0,0:0:0:0:
309,288,74008,6,0,P|356:217|368:134,1,170
342,26,74477,1,0,0:0:0:0:
448,57,74633,1,0,0:0:0:0:
457,76,74711,1,0,0:0:0:0:
464,96,74789,5,0,0:0:0:0:
471,116,74867,1,0,0:0:0:0:
476,136,74945,1,0,0:0:0:0:
479,157,75023,1,0,0:0:0:0:
482,178,75101,1,0,0:0:0:0:
482,200,75179,1,0,0:0:0:0:
482,221,75258,1,0,0:0:0:0:
480,242,75336,1,0,0:0:0:0:
476,263,75415,6,0,B|436:263|436:263|348:303|348:303|314:303,1,170
171,355,75883,2,0,P|162:314|165:272,1,85
225,179,76196,1,0,0:0:0:0:
75,207,76352,1,0,0:0:0:0:
15,300,76508,1,0,0:0:0:0:
14,114,76665,6,0,P|54:98|96:98,1,85
261,154,76977,2,0,P|222:169|179:170,1,85
201,61,77289,1,0,0:0:0:0:
306,24,77446,1,0,0:0:0:0:
180,170,77602,1,0,0:0:0:0:
96,98,77758,1,0,0:0:0:0:
285,133,77915,6,0,B|339:146|339:146|405:239,1,170
410,349,78383,1,0,0:0:0:0:
472,190,78540,2,0,P|434:209|405:239,1,85
284,133,78852,2,0,P|284:175|297:215,1,85
395,122,79165,6,0,P|395:79|382:39,1,85
285,133,79477,2,0,P|255:102|217:83,1,85
121,208,79790,2,0,P|150:238|188:257,1,85
298,243,80102,1,0,0:0:0:0:
285,133,80258,1,0,0:0:0:0:
304,124,80336,1,0,0:0:0:0:
323,115,80415,6,0,L|407:104,1,85
408,231,80727,2,0,L|493:221,1,85
298,243,81040,2,0,P|277:238|257:230,2,42.5
362,332,81352,2,0,P|324:349|282:352,1,85
265,339,81586,1,0,0:0:0:0:
248,326,81665,6,0,L|207:339,2,42.5
106,292,81977,2,0,P|86:254|78:212,1,85
86,193,82211,1,0,0:0:0:0:
93,173,82290,2,0,L|51:162,2,42.5
164,89,82602,2,0,P|206:87|245:72,1,85
262,58,82836,1,0,0:0:0:0:
278,43,82915,6,0,B|393:26|393:26|440:51,1,170
463,159,83383,1,0,0:0:0:0:
448,174,83461,1,0,0:0:0:0:
433,189,83540,2,0,L|418:228,1,42.5
303,237,83696,2,0,L|318:198,1,42.5
370,306,83852,2,0,L|355:345,1,42.5
240,354,84008,2,0,L|255:315,1,42.5
188,245,84165,5,0,0:0:0:0:
188,245,84790,5,0,0:0:0:0:
168,252,84868,1,0,0:0:0:0:
149,263,84946,1,0,0:0:0:0:
133,276,85024,1,0,0:0:0:0:
121,294,85102,1,0,0:0:0:0:
110,310,85180,1,0,0:0:0:0:
90,319,85258,1,0,0:0:0:0:
70,324,85336,1,0,0:0:0:0:
49,327,85415,5,0,0:0:0:0:
277,24,100415,6,0,B|285:80|261:104|261:104|285:128|277:184,1,170
30,273,101040,1,0,0:0:0:0:
134,307,101196,1,0,0:0:0:0:
52,381,101352,1,0,0:0:0:0:
122,199,101508,6,0,B|157:159|157:159|216:185|261:133,1,170
373,133,101977,2,0,B|418:184|477:158|477:158|512:198,1,170
441,86,102446,1,0,0:0:0:0:
315,188,102602,1,0,0:0:0:0:
411,244,102758,1,0,0:0:0:0:
253,96,102915,6,0,P|212:106|174:124,1,85
315,188,103227,2,0,P|356:198|394:216,1,85
253,96,103540,1,0,0:0:0:0:
253,265,103696,2,0,P|215:282|174:292,1,85
27,377,104008,6,0,P|4:296|24:214,1,170
134,108,104477,2,0,P|159:142|174:182,1,85
174,293,104790,1,0,0:0:0:0:
269,237,104946,1,0,0:0:0:0:
271,127,105102,1,0,0:0:0:0:
367,182,105257,1,0,0:0:0:0:
386,173,105335,1,0,0:0:0:0:
404,163,105415,6,0,P|454:94|469:11,1,170
309,218,106040,1,0,0:0:0:0:
405,273,106196,1,0,0:0:0:0:
309,328,106353,1,0,0:0:0:0:
404,162,106508,6,0,P|339:112|256:122,1,170
119,190,106977,2,0,P|157:209|198:217,1,85
309,218,107290,1,0,0:0:0:0:
254,314,107446,1,0,0:0:0:0:
443,300,107602,2,0,P|434:258|418:218,1,85
299,57,107915,6,0,P|281:138|308:217,1,170
419,219,108383,1,0,0:0:0:0:
250,312,108540,1,0,0:0:0:0:
361,315,108696,1,0,0:0:0:0:
198,214,108852,1,0,0:0:0:0:
368,124,109008,1,0,0:0:0:0:
256,121,109165,6,0,P|214:118|173:108,1,85
309,218,109477,1,0,0:0:0:0:
257,315,109633,2,0,P|214:317|173:327,1,85
106,239,109946,1,0,0:0:0:0:
104,218,110024,1,0,0:0:0:0:
106,197,110102,1,0,0:0:0:0:
173,108,110258,1,0,0:0:0:0:
188,93,110336,1,0,0:0:0:0:
198,74,110415,6,0,B|250:107|250:107|358:104,1,170
468,98,110883,1,0,0:0:0:0:
418,197,111040,1,0,0:0:0:0:
407,5,111196,2,0,L|322:5,1,85
126,5,111508,6,0,L|211:5,1,85
50,85,111821,1,0,0:0:0:0:
184,118,111977,2,0,L|269:118,1,85
108,198,112290,1,0,0:0:0:0:
242,231,112446,1,0,0:0:0:0:
166,311,112602,1,0,0:0:0:0:
108,198,112758,1,0,0:0:0:0:
258,318,112915,6,0,P|295:243|297:159,1,170
120,101,113383,1,0,0:0:0:0:
297,159,113540,1,0,0:0:0:0:
120,217,113696,1,0,0:0:0:0:
230,65,113852,1,0,0:0:0:0:
230,250,114008,6,0,P|178:316|96:330,1,170
120,217,114477,1,0,0:0:0:0:
267,178,114633,2,0,P|349:191|401:257,1,170
290,292,115102,1,0,0:0:0:0:
390,368,115258,1,0,0:0:0:0:
412,368,115336,1,0,0:0:0:0:
434,368,115415,6,0,P|472:348|500:317,1,85
511,169,115727,1,0,0:0:0:0:
400,256,115883,2,0,P|317:271|234:255,1,170
122,169,116352,1,0,0:0:0:0:
82,304,116508,6,0,P|165:303|234:255,1,170
189,120,116977,2,0,P|152:138|122:168,1,85
287,163,117290,1,0,0:0:0:0:
243,28,117446,1,0,0:0:0:0:
189,120,117602,1,0,0:0:0:0:
340,71,117758,6,0,P|360:152|351:236,1,170
227,272,118227,1,0,0:0:0:0:
361,143,118383,2,0,P|402:135|444:137,1,85
238,179,118696,1,0,0:0:0:0:
351,237,118852,1,0,0:0:0:0:
249,86,119008,6,0,P|151:166|173:246,1,170
265,254,119477,1,0,0:0:0:0:
321,139,119633,1,0,0:0:0:0:
341,132,119711,1,0,0:0:0:0:
361,125,119790,2,0,L|394:150,1,42.5
381,31,119946,2,0,L|347:5,1,42.5
466,75,120102,1,0,0:0:0:0:
275,80,120258,6,0,P|191:87|112:118,1,170
124,245,120727,2,0,P|82:242|43:226,1,85
210,176,121040,1,0,0:0:0:0:
227,285,121196,1,0,0:0:0:0:
319,159,121352,1,0,0:0:0:0:
410,221,121508,6,0,P|451:212|487:189,1,85
323,291,121821,2,0,P|363:303|405:301,1,85
212,307,122133,2,0,P|242:337|279:357,1,85
195,198,122446,1,0,0:0:0:0:
108,266,122602,2,0,P|117:307|140:343,1,85
93,157,122915,6,0,P|51:147|9:144,1,85
195,198,123227,2,0,P|236:207|278:210,1,85
180,89,123540,1,0,0:0:0:0:
93,157,123696,1,0,0:0:0:0:
195,198,123852,1,0,0:0:0:0:
78,47,124008,6,0,P|37:61|6:89,1,85
180,89,124321,2,0,P|211:116|251:130,1,85
332,46,124633,2,0,P|345:85|373:117,1,85
441,29,124946,2,0,L|481:15,2,42.5
484,131,125258,1,0,0:0:0:0:
498,147,125336,1,0,0:0:0:0:
511,163,125415,6,0,P|494:201|466:233,1,85
410,365,125727,2,0,P|385:331|372:291,1,85
284,175,126040,2,0,P|327:170|368:178,1,85
190,232,126352,1,0,0:0:0:0:
287,285,126508,1,0,0:0:0:0:
191,342,126664,6,0,P|148:346|107:338,1,85
287,285,126977,1,0,0:0:0:0:
383,342,127133,2,0,P|425:346|466:338,1,85
383,231,127446,2,0,P|375:189|358:150,2,85
249,170,127915,6,0,P|231:131|224:89,1,85
297,6,128227,1,0,0:0:0:0:
380,78,128383,2,0,P|422:75|464:68,2,85
297,6,128852,1,0,0:0:0:0:
225,89,129008,1,0,0:0:0:0:
307,160,129165,6,0,P|326:199|336:240,1,85
336,367,129477,1,0,0:0:0:0:
226,303,129633,1,0,0:0:0:0:
208,292,129711,1,0,0:0:0:0:
190,281,129790,2,0,L|147:275,1,42.5
27,247,129946,2,0,L|69:241,1,42.5
139,186,130102,1,0,0:0:0:0:
153,170,130180,1,0,0:0:0:0:
160,150,130258,1,0,0:0:0:0:
153,130,130336,1,0,0:0:0:0:
139,114,130415,6,0,P|96:116|58:135,1,85
248,123,130727,1,0,0:0:0:0:
291,225,130883,2,0,P|328:243|371:246,1,85
248,123,131196,1,0,0:0:0:0:
357,136,131352,2,0,P|353:93|334:56,1,85
291,225,131665,6,0,P|294:267|313:304,1,85
147,324,131977,2,0,P|179:351|220:365,1,85
117,217,132290,2,0,P|75:209|34:217,2,85
147,324,132758,1,0,0:0:0:0:
224,243,132915,6,0,P|226:201|212:161,1,85
105,134,133227,2,0,P|103:177|116:217,1,85
213,162,133540,1,0,0:0:0:0:
183,55,133696,2,0,P|148:32|106:23,1,85
290,83,134008,6,0,P|327:64|355:32,1,85
213,162,134321,2,0,P|210:204|223:244,1,85
342,309,134633,2,0,P|345:267|332:227,1,85
241,353,134946,1,0,0:0:0:0:
224,366,135024,1,0,0:0:0:0:
207,379,135102,1,0,0:0:0:0:
100,353,135258,1,0,0:0:0:0:
83,366,135336,1,0,0:0:0:0:
65,378,135415,6,0,P|26:304|19:220,1,170
96,141,135883,2,0,P|60:118|19:109,1,85
126,248,136196,2,0,P|161:271|202:279,1,85
312,264,136508,1,0,0:0:0:0:
421,279,136665,6,0,P|457:257|481:222,1,85
311,263,136977,2,0,P|312:305|330:343,1,85
380,176,137290,2,0,P|343:155|302:151,1,85
421,278,137602,2,0,P|457:256|480:222,1,85
310,262,137915,6,0,P|270:190|291:110,2,170
510,88,138852,2,0,P|502:46|486:6,1,85
423,156,139165,5,0,0:0:0:0:
402,162,139243,1,0,0:0:0:0:
381,165,139321,1,0,0:0:0:0:
360,165,139399,1,0,0:0:0:0:
339,162,139477,1,0,0:0:0:0:
318,157,139555,1,0,0:0:0:0:
299,148,139633,1,0,0:0:0:0:
281,137,139711,1,0,0:0:0:0:
264,124,139790,6,0,L|254:165,1,42.5
166,187,139946,2,0,L|175:228,1,42.5
265,250,140102,2,0,L|255:291,1,42.5
166,312,140258,2,0,L|175:353,1,42.5
86,262,140415,6,0,P|60:228|51:187,1,85
103,43,140727,2,0,P|129:76|138:118,1,85
86,262,141040,1,0,0:0:0:0:
182,208,141196,1,0,0:0:0:0:
236,304,141352,1,0,0:0:0:0:
140,358,141508,1,0,0:0:0:0:
181,207,141665,6,0,P|221:192|263:195,1,85
367,235,141977,1,0,0:0:0:0:
281,304,142133,1,0,0:0:0:0:
350,126,142290,1,0,0:0:0:0:
264,195,142446,1,0,0:0:0:0:
453,166,142602,1,0,0:0:0:0:
367,235,142758,1,0,0:0:0:0:
247,86,142915,6,0,P|204:86|163:97,1,85
8,69,143227,2,0,P|30:105|60:136,1,85
113,283,143540,2,0,P|133:245|144:204,1,85
164,98,143852,1,0,0:0:0:0:
60,136,144008,1,0,0:0:0:0:
248,167,144165,6,0,P|291:166|330:150,2,85
164,98,144633,1,0,0:0:0:0:
268,60,144790,1,0,0:0:0:0:
268,60,144868,1,0,0:0:0:0:
268,60,144946,1,0,0:0:0:0:
330,151,145102,1,0,0:0:0:0:
434,114,145258,1,0,0:0:0:0:
434,114,145336,1,0,0:0:0:0:
434,114,145415,6,0,P|451:75|456:33,1,85
330,151,145727,2,0,P|312:189|308:231,1,85
379,372,146040,2,0,P|396:334|401:292,2,85
231,334,146508,6,0,P|146:324|62:333,1,170
29,227,146977,2,0,P|33:184|50:146,1,85
159,120,147290,1,0,0:0:0:0:
83,40,147446,1,0,0:0:0:0:
190,14,147602,1,0,0:0:0:0:
240,111,147758,6,0,P|199:124|158:119,1,85
325,40,148071,1,0,0:0:0:0:
432,14,148227,1,0,0:0:0:0:
482,110,148383,2,0,P|441:123|399:118,1,85
240,191,148696,2,0,P|281:203|323:199,1,85
292,93,149008,1,0,0:0:0:0:
435,233,149165,5,0,0:0:0:0:
323,199,149321,1,0,0:0:0:0:
466,339,149477,1,0,0:0:0:0:
354,305,149633,1,0,0:0:0:0:
332,305,149711,1,0,0:0:0:0:
312,309,149789,5,0,0:0:0:0:
293,319,149867,1,0,0:0:0:0:
277,334,149945,1,0,0:0:0:0:
259,343,150023,1,0,0:0:0:0:
237,344,150101,1,0,0:0:0:0:
217,340,150179,1,0,0:0:0:0:
196,333,150258,1,0,0:0:0:0:
177,325,150336,1,0,0:0:0:0:
158,316,150415,6,0,P|120:296|79:287,1,85
265,340,150727,1,0,0:0:0:0:
306,237,150883,1,0,0:0:0:0:
374,325,151040,2,0,P|415:333|456:325,1,85
306,237,151352,2,0,P|264:228|223:236,1,85
107,137,151665,6,0,P|91:97|92:55,1,85
200,78,151977,1,0,0:0:0:0:
293,137,152133,1,0,0:0:0:0:
386,77,152290,2,0,P|401:117|400:159,1,85
341,323,152602,2,0,P|326:284|327:242,1,85
386,78,152915,6,0,P|302:69|224:100,1,170
251,208,153383,2,0,P|292:217|327:242,1,85
247,319,153696,1,0,0:0:0:0:
154,260,153852,1,0,0:0:0:0:
148,370,154008,1,0,0:0:0:0:
251,208,154165,6,0,P|188:154|105:159,1,170
43,250,154633,1,0,0:0:0:0:
154,260,154790,2,0,L|196:254,3,42.5
208,213,155102,2,0,L|251:208,3,42.5
261,166,155415,6,0,P|324:171|378:204,1,127.5
417,223,155727,2,0,B|405:260|405:260|369:290,1,85
261,166,156040,2,0,P|313:200|344:255,1,127.5
369,290,156352,2,0,B|340:316|340:316|294:325,1,85
160,332,156665,6,0,P|129:276|76:241,1,127.5
37,225,156977,2,0,B|11:254|11:254|2:300,1,85
120,152,157290,2,0,L|135:112,1,42.5
218,161,157446,2,0,L|202:200,1,42.5
219,65,157602,2,0,L|234:25,1,42.5
317,74,157758,2,0,L|301:113,1,42.5
218,161,157915,6,0,P|247:193|286:209,1,85
392,186,158227,1,0,0:0:0:0:
420,78,158383,2,0,P|392:47|354:31,1,85
180,14,158696,2,0,P|208:45|247:62,1,85
354,31,159008,1,0,0:0:0:0:
243,173,159165,5,0,0:0:0:0:
417,124,159321,1,0,0:0:0:0:
247,62,159477,1,0,0:0:0:0:
349,212,159633,1,0,0:0:0:0:
166,225,159790,5,0,0:0:0:0:
146,231,159868,1,0,0:0:0:0:
130,244,159946,1,0,0:0:0:0:
119,262,160024,1,0,0:0:0:0:
115,282,160102,1,0,0:0:0:0:
119,303,160180,1,0,0:0:0:0:
130,321,160258,1,0,0:0:0:0:
146,334,160336,1,0,0:0:0:0:
165,339,160415,6,0,P|207:332|243:310,1,85
166,225,160727,2,0,P|124:232|88:254,1,85
279,201,161040,1,0,0:0:0:0:
389,311,161196,1,0,0:0:0:0:
279,311,161352,1,0,0:0:0:0:
389,201,161508,1,0,0:0:0:0:
436,348,161665,6,0,P|352:351|279:311,1,170
279,201,162133,1,0,0:0:0:0:
358,123,162290,2,0,P|381:159|388:201,1,85
253,93,162602,2,0,L|253:50,1,42.5
174,14,162758,2,0,L|174:56,1,42.5
173,135,162915,6,0,P|202:167|241:181,1,85
336,57,163227,2,0,P|343:98|329:138,1,85
284,269,163540,2,0,P|368:271|437:224,1,170
329,138,164008,1,0,0:0:0:0:
195,166,164165,6,0,P|163:137|145:99,1,85
39,69,164477,2,0,P|58:31|90:3,1,85
201,4,164790,5,0,0:0:0:0:
218,16,164868,1,0,0:0:0:0:
232,31,164946,1,0,0:0:0:0:
244,49,165024,1,0,0:0:0:0:
251,69,165102,1,0,0:0:0:0:
255,90,165180,1,0,0:0:0:0:
255,111,165258,1,0,0:0:0:0:
251,132,165336,1,0,0:0:0:0:
242,150,165415,6,0,P|239:193|252:233,1,85
224,339,165727,2,0,P|266:342|307:329,1,85
403,275,166040,2,0,P|427:194|406:112,1,170
334,30,166508,1,0,0:0:0:0:
297,135,166665,6,0,P|268:165|230:183,1,85
85,213,166977,2,0,P|114:243|153:262,1,85
308,262,167290,2,0,L|344:239,2,42.5
230,340,167602,2,0,L|193:362,2,42.5
385,340,167915,6,0,P|444:281|444:198,1,170
126,340,168540,2,0,P|67:281|67:198,1,170
106,95,169008,1,0,0:0:0:0:
127,98,169086,1,0,0:0:0:0:
148,101,169165,5,0,0:0:0:0:
453,210,169477,1,0,0:0:0:0:
497,374,169633,1,0,0:0:0:0:
320,210,169790,1,0,0:0:0:0:
276,374,169946,1,0,0:0:0:0:
204,143,170102,1,0,0:0:0:0:
84,263,170258,1,0,0:0:0:0:
137,27,170415,5,0,0:0:0:0:
84,263,171665,6,0,P|76:181|127:116,1,170
182,212,172133,1,0,0:0:0:0:
238,116,172290,1,0,0:0:0:0:
293,212,172446,1,0,0:0:0:0:
347,115,172602,2,0,P|379:144|398:181,1,85
278,321,172915,6,0,P|206:280|183:200,1,170
293,212,173383,1,0,0:0:0:0:
138,100,173540,1,0,0:0:0:0:
313,21,173696,1,0,0:0:0:0:
203,10,173852,1,0,0:0:0:0:
358,122,174008,1,0,0:0:0:0:
182,198,174165,6,0,P|203:234|232:265,1,85
386,238,174477,2,0,P|364:274|336:306,1,85
250,376,174790,1,0,0:0:0:0:
233,266,174946,1,0,0:0:0:0:
386,238,175102,2,0,P|373:198|349:162,1,85
233,266,175415,6,0,P|193:283|158:307,2,85
381,315,175883,1,0,0:0:0:0:
283,364,176040,1,0,0:0:0:0:
332,217,176196,1,0,0:0:0:0:
381,315,176352,1,0,0:0:0:0:
430,168,176508,1,0,0:0:0:0:
456,309,176665,6,0,B|444:225|368:257|354:182,1,170
397,80,177133,1,0,0:0:0:0:
246,198,177290,1,0,0:0:0:0:
218,10,177446,1,0,0:0:0:0:
286,95,177602,2,0,P|249:114|207:119,1,85
37,79,177915,6,0,P|74:59|117:55,1,85
167,222,178227,2,0,P|130:241|88:246,1,85
208,119,178540,1,0,0:0:0:0:
277,204,178696,1,0,0:0:0:0:
248,16,178852,2,0,P|291:14|333:22,1,85
481,4,179165,6,0,B|464:119|464:119|421:152,1,170
312,131,179633,1,0,0:0:0:0:
458,257,179790,1,0,0:0:0:0:
349,236,179946,1,0,0:0:0:0:
386,48,180102,1,0,0:0:0:0:
495,69,180259,1,0,0:0:0:0:
312,131,180415,5,0,0:0:0:0:
458,257,180571,1,0,0:0:0:0:
240,215,180727,1,0,0:0:0:0:
421,152,180883,1,0,0:0:0:0:
277,27,181040,2,0,L|318:35,1,42.5
205,111,181196,2,0,L|163:102,1,42.5
312,131,181352,2,0,L|353:139,1,42.5
240,215,181508,2,0,L|198:206,1,42.5
348,236,181665,6,0,P|304:306|223:325,1,170
240,215,182133,1,0,0:0:0:0:
121,368,182290,1,0,0:0:0:0:
224,326,182447,1,0,0:0:0:0:
35,299,182602,2,0,P|46:257|66:220,1,85
254,247,182915,6,0,P|243:288|224:326,1,85
354,294,183227,2,0,P|364:335|384:372,1,85
445,231,183540,2,0,P|455:189|475:152,1,85
345,183,183852,2,0,P|334:142|315:105,1,85
162,41,184165,6,0,P|243:16|328:10,1,170
434,40,184633,1,0,0:0:0:0:
381,224,184789,1,0,0:0:0:0:
461,147,184945,1,0,0:0:0:0:
274,194,185102,2,0,P|233:181|199:156,1,85
65,13,185415,6,0,P|17:82|3:165,1,170
105,243,185883,1,0,0:0:0:0:
199,156,186040,2,0,L|282:138,1,85
337,253,186352,2,0,L|420:270,1,85
282,369,186665,6,0,P|222:311|211:228,1,170
469,97,187290,2,0,P|485:137|495:178,2,85
173,23,187915,5,0,0:0:0:0:
247,137,188071,1,0,0:0:0:0:
309,16,188227,1,0,0:0:0:0:
111,144,188383,2,0,P|140:222|210:267,1,170
230,258,188774,1,0,0:0:0:0:
249,249,188852,2,0,L|256:290,1,42.5
325,213,189008,2,0,L|317:171,1,42.5
337,295,189165,5,0,0:0:0:0:
210,166,199165,6,0,P|167:167|125:164,1,85
20,130,199477,1,0,0:0:0:0:
43,238,199633,1,0,0:0:0:0:
59,252,199711,1,0,0:0:0:0:
77,263,199789,1,0,0:0:0:0:
97,270,199867,1,0,0:0:0:0:
118,274,199945,1,0,0:0:0:0:
228,257,200102,2,0,P|233:215|254:178,1,85
275,171,200336,1,0,0:0:0:0:
294,162,200415,6,0,P|361:209|443:196,1,170
469,88,200883,1,0,0:0:0:0:
448,86,200961,1,0,0:0:0:0:
427,87,201039,1,0,0:0:0:0:
406,93,201117,1,0,0:0:0:0:
387,102,201195,1,0,0:0:0:0:
277,80,201352,2,0,P|277:122|294:162,1,85
443,195,201665,6,0,P|401:269|328:310,1,170
218,303,202133,1,0,0:0:0:0:
219,324,202211,1,0,0:0:0:0:
224,345,202289,1,0,0:0:0:0:
232,364,202367,1,0,0:0:0:0:
244,381,202445,1,0,0:0:0:0:
329,310,202602,1,0,0:0:0:0:
218,303,202758,1,0,0:0:0:0:
200,292,202836,1,0,0:0:0:0:
182,281,202915,6,0,B|148:230|148:230|46:191,1,170
0,291,203383,1,0,0:0:0:0:
19,299,203461,1,0,0:0:0:0:
39,307,203539,1,0,0:0:0:0:
59,314,203617,1,0,0:0:0:0:
79,322,203695,1,0,0:0:0:0:
182,281,203852,2,0,B|203:257|203:257|203:204,1,85
214,186,204086,1,0,0:0:0:0:
223,167,204165,6,0,P|286:158|349:170,1,127.5
386,188,204477,2,0,P|380:231|383:273,1,85
400,285,204711,1,0,0:0:0:0:
419,294,204789,1,0,0:0:0:0:
439,300,204867,1,0,0:0:0:0:
460,303,204945,1,0,0:0:0:0:
386,189,205102,2,0,P|349:167|308:158,1,85
120,144,205415,6,0,P|156:165|198:175,1,85
155,39,205727,2,0,P|118:17|77:8,1,85
64,25,205961,1,0,0:0:0:0:
51,42,206039,1,0,0:0:0:0:
38,58,206117,1,0,0:0:0:0:
25,75,206195,1,0,0:0:0:0:
155,124,206352,2,0,L|155:39,1,85
60,180,206665,6,0,B|60:268|60:268|85:298,1,127.5
118,325,206977,2,0,P|159:316|192:290,1,85
206,274,207211,1,0,0:0:0:0:
220,257,207290,2,0,B|308:257|308:257|338:231,1,127.5
366,200,207602,2,0,P|403:182|427:147,1,85
423,127,207836,1,0,0:0:0:0:
418,106,207915,6,0,B|330:106|330:106|300:132,1,127.5
270,162,208227,2,0,B|206:162|206:162|188:150,1,85
172,137,208461,1,0,0:0:0:0:
155,124,208540,5,0,0:0:0:0:
148,144,208618,1,0,0:0:0:0:
143,164,208696,1,0,0:0:0:0:
140,185,208774,1,0,0:0:0:0:
140,207,208852,1,0,0:0:0:0:
140,228,208930,1,0,0:0:0:0:
143,249,209008,1,0,0:0:0:0:
148,270,209086,1,0,0:0:0:0:
155,290,209165,6,0,B|212:257|212:257|315:245,1,170
318,356,209633,1,0,0:0:0:0:
207,354,209790,2,0,P|174:327|154:289,1,85
148,124,210102,2,0,P|181:151|201:189,1,85
349,131,210415,6,0,L|432:114,1,85
297,33,210727,2,0,L|213:16,1,85
349,130,211040,2,0,P|280:180|197:192,1,170
107,129,211508,1,0,0:0:0:0:
213,16,211665,6,0,P|298:11|382:22,1,170
432,120,212133,1,0,0:0:0:0:
355,200,212290,2,0,P|390:223|431:230,1,85
324,94,212602,2,0,P|326:51|312:12,1,85
248,174,212915,6,0,P|210:193|182:225,1,85
217,68,213227,2,0,P|175:73|138:93,1,85
248,174,213540,2,0,P|289:168|326:148,1,85
393,59,213852,1,0,0:0:0:0:
408,74,213930,1,0,0:0:0:0:
421,91,214008,1,0,0:0:0:0:
430,110,214086,1,0,0:0:0:0:
435,131,214165,6,0,P|434:214|389:285,1,170
280,306,214633,1,0,0:0:0:0:
286,326,214711,1,0,0:0:0:0:
296,345,214789,1,0,0:0:0:0:
309,361,214867,1,0,0:0:0:0:
325,375,214945,1,0,0:0:0:0:
317,201,215102,2,0,P|275:195|234:205,1,85
154,128,215415,6,0,P|131:163|123:205,2,85
234,205,215883,1,0,0:0:0:0:
231,226,215961,1,0,0:0:0:0:
225,246,216039,1,0,0:0:0:0:
216,265,216117,1,0,0:0:0:0:
202,281,216195,1,0,0:0:0:0:
123,205,216352,1,0,0:0:0:0:
178,108,216508,6,0,P|138:95|96:98,1,85
234,205,216821,1,0,0:0:0:0:
314,128,216978,1,0,0:0:0:0:
259,31,217134,2,0,P|299:17|341:20,1,85
178,108,217446,1,0,0:0:0:0:
98,31,217603,1,0,0:0:0:0:
259,31,217758,1,0,0:0:0:0:
279,23,217836,1,0,0:0:0:0:
298,15,217915,6,0,L|340:19,3,42.5
364,54,218227,2,0,L|406:58,3,42.5
430,93,218540,5,0,0:0:0:0:
440,111,218618,1,0,0:0:0:0:
449,130,218696,1,0,0:0:0:0:
455,151,218774,1,0,0:0:0:0:
459,171,218852,1,0,0:0:0:0:
460,193,218930,1,0,0:0:0:0:
459,214,219008,1,0,0:0:0:0:
456,235,219086,1,0,0:0:0:0:
450,255,219165,6,0,P|407:254|366:244,1,85
350,230,219399,1,0,0:0:0:0:
334,216,219477,2,0,P|293:205|250:203,1,85
52,255,219790,2,0,P|94:254|135:244,1,85
152,230,220024,1,0,0:0:0:0:
168,216,220102,2,0,P|208:205|251:203,1,85
366,244,220415,5,0,0:0:0:0:
343,123,220571,2,0,L|315:90,2,42.5
458,164,220883,2,0,L|485:196,2,42.5
366,244,221196,1,0,0:0:0:0:
346,251,221274,1,0,0:0:0:0:
326,258,221352,2,0,P|311:297|287:332,1,85
176,228,221665,6,0,P|151:193|137:153,1,85
193,7,221977,2,0,P|217:42|232:82,1,85
248,96,222211,1,0,0:0:0:0:
264,110,222290,2,0,P|305:118|346:109,1,85
493,9,222602,2,0,P|452:1|411:10,1,85
418,30,222836,1,0,0:0:0:0:
424,49,222915,6,0,P|442:88|442:130,1,85
434,150,223149,1,0,0:0:0:0:
426,169,223227,2,0,P|426:212|443:250,1,85
463,259,223461,1,0,0:0:0:0:
483,266,223540,2,0,B|472:298|472:298|423:315,1,85
417,335,223774,1,0,0:0:0:0:
410,355,223852,1,0,0:0:0:0:
307,315,224008,1,0,0:0:0:0:
300,335,224086,1,0,0:0:0:0:
292,355,224165,6,0,P|250:353|210:339,1,85
92,219,224477,2,0,P|135:220|175:235,1,85
194,226,224711,1,0,0:0:0:0:
213,217,224790,2,0,L|206:174,1,42.5
296,241,224946,2,0,L|302:283,1,42.5
288,159,225102,1,0,0:0:0:0:
382,246,225258,1,0,0:0:0:0:
401,237,225336,1,0,0:0:0:0:
420,228,225415,5,0,0:0:0:0:
288,159,225571,1,0,0:0:0:0:
269,150,225649,1,0,0:0:0:0:
250,141,225728,1,0,0:0:0:0:
382,246,225883,1,0,0:0:0:0:
363,255,225962,1,0,0:0:0:0:
344,264,226040,2,0,L|320:299,2,42.5
250,141,226352,1,0,0:0:0:0:
372,106,226508,1,0,0:0:0:0:
391,97,226586,1,0,0:0:0:0:
409,87,226665,6,0,P|448:106|490:111,1,85
310,8,226977,2,0,P|268:13|229:31,1,85
223,52,227211,1,0,0:0:0:0:
216,72,227290,2,0,L|174:65,1,42.5
276,137,227446,2,0,L|317:130,1,42.5
216,202,227602,1,0,0:0:0:0:
167,85,227758,1,0,0:0:0:0:
160,105,227836,1,0,0:0:0:0:
153,125,227915,6,0,L|111:118,1,42.5
174,209,228071,2,0,L|216:202,1,42.5
89,214,228227,2,0,L|47:207,1,42.5
110,298,228383,2,0,L|152:291,1,42.5
244,284,228540,1,0,0:0:0:0:
263,275,228618,1,0,0:0:0:0:
279,261,228696,1,0,0:0:0:0:
292,244,228774,1,0,0:0:0:0:
299,224,228852,1,0,0:0:0:0:
217,94,229008,6,0,P|298:71|379:94,1,170
464,166,229477,1,0,0:0:0:0:
360,204,229633,1,0,0:0:0:0:
445,275,229790,1,0,0:0:0:0:
379,94,229946,1,0,0:0:0:0:
464,166,230102,1,0,0:0:0:0:
275,132,230258,6,0,B|212:111|142:128|142:128|115:104,1,170
30,9,230727,1,0,0:0:0:0:
19,189,230883,1,0,0:0:0:0:
311,317,231196,1,0,0:0:0:0:
215,372,231352,1,0,0:0:0:0:
311,206,231508,6,0,P|394:195|478:206,1,170
311,317,231977,1,0,0:0:0:0:
136,238,232133,1,0,0:0:0:0:
479,96,232446,1,0,0:0:0:0:
383,41,232602,1,0,0:0:0:0:
478,206,232758,6,0,P|398:232|315:220,1,170
383,41,233227,1,0,0:0:0:0:
297,110,233383,1,0,0:0:0:0:
479,207,233540,1,0,0:0:0:0:
315,220,233696,1,0,0:0:0:0:
479,96,233852,1,0,0:0:0:0:
297,110,234009,1,0,0:0:0:0:
279,121,234087,1,0,0:0:0:0:
261,131,234165,6,0,P|213:199|231:280,1,170
320,346,234633,1,0,0:0:0:0:
121,281,234790,1,0,0:0:0:0:
315,220,234946,1,0,0:0:0:0:
132,131,235102,1,0,0:0:0:0:
261,132,235258,1,0,0:0:0:0:
121,281,235415,6,0,P|79:272|42:252,1,85
182,160,235727,2,0,P|219:140|261:132,1,85
372,132,236040,1,0,0:0:0:0:
243,22,236196,1,0,0:0:0:0:
352,22,236352,2,0,P|395:18|437:11,1,85
261,132,236665,5,0,0:0:0:0:
12,326,236977,1,0,0:0:0:0:
12,216,237133,1,0,0:0:0:0:
115,367,237290,1,0,0:0:0:0:
115,175,237446,1,0,0:0:0:0:
281,271,237602,1,0,0:0:0:0:
89,271,237758,6,0,P|170:257|213:187,1,170
305,97,238227,2,0,L|347:101,3,42.5
385,123,238540,2,0,L|378:80,1,42.5
473,138,238696,2,0,L|479:95,1,42.5
417,204,238852,2,0,L|410:246,1,42.5
505,219,239009,2,0,L|511:261,1,42.5
472,137,239165,6,0,P|435:119|393:119,1,85
264,79,239477,2,0,P|267:121|289:158,1,85
374,229,239790,1,0,0:0:0:0:
393,120,239946,1,0,0:0:0:0:
269,266,240102,2,0,P|291:303|325:328,1,85
289,158,240415,5,0,0:0:0:0:
185,122,240571,2,0,P|164:85|159:43,1,85
344,34,240883,2,0,P|406:89|424:171,1,170
368,267,241352,2,0,P|331:286|289:293,1,85
171,225,241665,5,0,0:0:0:0:
289,158,241821,2,0,P|262:124|227:101,1,85
117,100,242133,1,0,0:0:0:0:
31,248,242290,1,0,0:0:0:0:
200,248,242446,1,0,0:0:0:0:
117,100,242602,1,0,0:0:0:0:
296,152,242758,6,0,P|334:227|320:310,1,170
200,247,243227,2,0,P|186:287|185:330,1,85
320,310,243540,2,0,P|362:302|400:283,1,85
460,124,243852,1,0,0:0:0:0:
364,178,244008,1,0,0:0:0:0:
345,169,244086,1,0,0:0:0:0:
326,160,244165,6,0,P|284:169|249:192,1,85,0|0,0:3|0:3,0:3:0:0:
176,275,244477,1,0,0:0:0:0:
284,296,244633,1,0,0:0:0:0:
284,296,244711,1,0,0:0:0:0:
284,296,244790,2,0,L|317:322,2,42.5
141,171,245102,1,0,0:0:0:0:
33,192,245258,1,0,0:0:0:0:
33,192,245336,1,0,0:0:0:0:
33,192,245415,6,0,L|0:218,2,42.5
176,67,245727,1,0,0:0:0:0:
284,88,245883,1,0,0:0:0:0:
284,88,245961,1,0,0:0:0:0:
284,88,246040,2,0,L|317:114,2,42.5
176,67,246352,1,0,0:0:0:0:
211,172,246508,1,0,0:0:0:0:
198,189,246586,1,0,0:0:0:0:
185,206,246665,6,0,P|226:215|261:238,1,85,0|0,0:3|0:3,0:3:0:0:
335,321,246977,1,0,0:0:0:0:
227,342,247133,1,0,0:0:0:0:
227,342,247211,1,0,0:0:0:0:
227,342,247290,2,0,L|193:368,2,42.5
370,217,247602,1,0,0:0:0:0:
478,238,247758,1,0,0:0:0:0:
478,238,247836,1,0,0:0:0:0:
478,238,247915,6,0,L|512:264,2,42.5
335,113,248227,1,0,0:0:0:0:
227,134,248383,1,0,0:0:0:0:
227,134,248461,1,0,0:0:0:0:
227,134,248540,2,0,L|193:160,2,42.5
370,9,248852,1,0,0:0:0:0:
335,113,249008,1,0,0:0:0:0:
352,126,249086,1,0,0:0:0:0:
368,138,249165,6,0,P|388:176|392:218,1,85
329,308,249476,1,0,0:0:0:0:
283,207,249633,1,0,0:0:0:0:
264,218,249711,1,0,0:0:0:0:
248,232,249789,1,0,0:0:0:0:
235,248,249867,1,0,0:0:0:0:
225,267,249945,1,0,0:0:0:0:
329,308,250102,2,0,P|363:283|386:248,1,85
392,228,250336,1,0,0:0:0:0:
397,208,250415,5,0,0:0:0:0:
283,207,250571,2,0,P|248:231|225:266,1,85
142,376,250883,2,0,P|138:333|119:296,1,85
66,169,251195,2,0,P|104:187|146:189,1,85
252,116,251508,1,0,0:0:0:0:
271,125,251586,1,0,0:0:0:0:
289,134,251665,6,0,P|332:135|370:153,1,85
306,243,251977,1,0,0:0:0:0:
202,202,252133,2,0,P|183:165|179:122,1,85
306,243,252446,2,0,P|325:280|329:322,1,85
202,202,252758,1,0,0:0:0:0:
187,217,252836,1,0,0:0:0:0:
172,232,252915,6,0,P|153:269|149:311,1,85
306,243,253227,2,0,P|326:281|329:323,1,85
349,333,253461,1,0,0:0:0:0:
368,342,253540,2,0,P|410:338|447:318,1,85
511,209,253852,2,0,P|469:205|432:185,1,85
427,165,254086,1,0,0:0:0:0:
421,144,254165,6,0,P|383:163|341:166,1,85
235,137,254477,1,0,0:0:0:0:
263,243,254633,1,0,0:0:0:0:
242,247,254711,1,0,0:0:0:0:
220,246,254789,1,0,0:0:0:0:
200,241,254867,1,0,0:0:0:0:
180,233,254945,1,0,0:0:0:0:
68,233,255102,2,0,P|76:191|99:156,1,85
118,145,255336,1,0,0:0:0:0:
136,134,255415,6,0,P|159:98|166:57,1,85
56,57,255727,1,0,0:0:0:0:
30,164,255883,1,0,0:0:0:0:
37,184,255961,1,0,0:0:0:0:
43,203,256040,2,0,P|75:232|114:248,1,85
223,238,256352,1,0,0:0:0:0:
281,148,256508,1,0,0:0:0:0:
301,155,256586,1,0,0:0:0:0:
320,161,256665,6,0,P|347:239|317:317,1,170
193,315,257133,1,0,0:0:0:0:
195,294,257211,1,0,0:0:0:0:
201,274,257289,1,0,0:0:0:0:
210,255,257367,1,0,0:0:0:0:
223,238,257445,1,0,0:0:0:0:
317,318,257602,1,0,0:0:0:0:
340,197,257758,1,0,0:0:0:0:
359,188,257836,1,0,0:0:0:0:
377,178,257915,6,0,P|413:201|442:232,1,85
317,318,258227,1,0,0:0:0:0:
273,217,258383,1,0,0:0:0:0:
254,227,258461,1,0,0:0:0:0:
238,240,258539,5,0,0:0:0:0:
224,257,258617,1,0,0:0:0:0:
214,276,258695,1,0,0:0:0:0:
203,294,258774,1,0,0:0:0:0:
186,307,258852,1,0,0:0:0:0:
168,317,258930,1,0,0:0:0:0:
148,324,259008,1,0,0:0:0:0:
127,327,259086,1,0,0:0:0:0:
105,327,259164,5,0,0:0:0:0:
440,352,267758,5,0,0:0:0:0:
368,344,267836,1,0,0:0:0:0:
296,336,267915,2,0,L|256:344,2,28.3333333333333
336,272,268071,5,0,0:0:0:0:
408,264,268149,1,0,0:0:0:0:
480,256,268228,2,0,L|520:264,2,28.3333333333333
432,192,268383,5,0,0:0:0:0:
360,184,268461,1,0,0:0:0:0:
288,176,268540,2,0,L|248:184,2,28.3333333333333
328,112,268696,5,0,0:0:0:0:
400,104,268774,1,0,0:0:0:0:
472,96,268853,2,0,L|512:104,2,28.3333333333333
424,32,269008,5,0,0:0:0:0:
352,24,269086,1,0,0:0:0:0:
280,16,269165,2,0,L|168:32,1,85
88,288,269477,1,0,0:0:0:0:
112,40,269633,2,0,L|104:120,1,42.5
96,192,269790,1,0,0:0:0:0:
176,128,269946,1,0,0:0:0:0:
32,112,270102,1,0,0:0:0:0:
88,288,270258,1,0,0:0:0:0:
16,344,270415,6,0,P|48:376|152:360,2,127.5
200,280,271040,1,0,0:0:0:0:
192,296,271118,1,0,0:0:0:0:
184,312,271196,1,0,0:0:0:0:
280,224,271352,1,0,0:0:0:0:
376,240,271508,1,0,0:0:0:0:
392,248,271586,1,0,0:0:0:0:
408,256,271665,5,0,0:0:0:0:
496,232,271821,2,0,P|520:184|496:128,1,85
352,64,272133,2,0,L|408:56,1,42.5
296,120,272290,2,0,P|272:72|296:16,1,85
368,144,272602,2,0,L|360:264,1,85
432,272,272836,6,0,B|368:256|368:256|280:296,2,127.5
440,296,273383,1,0,0:0:0:0:
448,320,273461,1,0,0:0:0:0:
456,344,273540,2,0,L|400:328,1,42.5
264,344,273696,2,0,L|223:302,1,42.5
97,248,273852,2,0,L|82:191,1,42.5
1,81,274008,2,0,L|16:25,1,42.5
152,0,274165,6,0,B|208:32|208:32|192:152,1,170
80,328,274633,2,0,P|48:312|32:280,1,42.5
152,304,274790,1,0,0:0:0:0:
320,352,274946,1,0,0:0:0:0:
480,280,275102,1,0,0:0:0:0:
511,81,275258,2,0,L|496:25,1,42.5
360,0,275415,6,0,B|304:32|304:32|320:152,1,170
336,120,275805,2,0,P|368:176|352:224,1,85
320,256,276040,1,0,0:0:0:0:
312,272,276118,1,0,0:0:0:0:
304,288,276196,1,0,0:0:0:0:
16,208,276352,1,0,0:0:0:0:
72,16,276508,1,0,0:0:0:0:
112,8,276586,1,0,0:0:0:0:
152,0,276665,6,0,B|208:32|208:32|192:152,1,170
112,224,277133,2,0,L|104:160,2,42.5
128,336,277446,1,0,0:0:0:0:
32,296,277602,1,0,0:0:0:0:
208,264,277758,1,0,0:0:0:0:
317,136,277915,6,0,B|304:32|304:32|360:0,1,170
400,224,278383,2,0,L|408:160,1,42.5
480,32,278540,1,0,0:0:0:0:
440,40,278618,1,0,0:0:0:0:
424,64,278696,1,0,0:0:0:0:
456,56,278774,1,0,0:0:0:0:
512,64,278852,1,0,0:0:0:0:
472,72,278930,1,0,0:0:0:0:
456,96,279008,1,0,0:0:0:0:
488,88,279086,1,0,0:0:0:0:
496,168,279165,6,0,P|440:176|392:136,1,85
304,264,279477,2,0,P|328:304|328:352,1,85
128,384,279790,2,0,P|128:296|160:232,1,127.5
152,240,280102,1,0,0:0:0:0:
264,128,280258,1,0,0:0:0:0:
72,32,280415,6,0,P|128:40|176:0,1,85
264,128,280727,2,0,P|240:168|240:216,1,85
440,248,281040,2,0,P|440:160|408:96,1,127.5
416,104,281352,2,0,P|456:88|448:40,1,85
256,24,281665,6,0,P|272:96|336:104,1,127.5
224,96,281977,2,0,L|128:112,1,85
64,184,282290,2,0,P|48:256|-16:264,1,127.5
96,256,282602,2,0,L|192:272,1,85
32,368,282915,5,0,0:0:0:0:
53,365,282993,1,0,0:0:0:0:
74,362,283071,1,0,0:0:0:0:
179,269,283227,1,0,0:0:0:0:
64,184,283383,1,0,0:0:0:0:
43,187,283461,1,0,0:0:0:0:
21,190,283540,2,0,L|32:264,1,42.5
160,288,283696,2,0,L|166:330,1,42.5
272,152,283852,1,0,0:0:0:0:
251,155,283930,1,0,0:0:0:0:
229,158,284009,2,0,L|240:232,1,42.5
368,256,284165,6,0,B|424:280|424:280|496:256|496:256|480:296,1,170
424,112,284633,2,0,L|430:69,1,42.5
336,80,284790,2,0,B|280:56|280:56|208:80|208:80|224:40,1,170
296,8,285258,1,0,0:0:0:0:
152,152,285415,5,0,0:0:0:0:
136,16,285571,1,0,0:0:0:0:
152,152,285727,2,0,L|136:256,1,85
152,264,285961,1,0,0:0:0:0:
168,296,286040,2,0,P|144:248|88:312,1,170
256,328,286508,1,0,0:0:0:0:
256,328,286586,1,0,0:0:0:0:
256,328,286665,5,0,0:0:0:0:
432,264,286821,2,0,L|416:312,1,42.5
368,208,286977,2,0,B|360:144|360:144|376:120|376:120|368:32,1,170
142,43,287446,2,0,B|136:120|136:120|152:144|152:144|144:208,1,170
112,304,287836,1,0,0:0:0:0:
93,304,287915,6,0,L|80:264,1,42.5
16,200,288071,1,0,0:0:0:0:
222,103,288227,2,0,L|208:143,1,42.5
144,207,288383,1,0,0:0:0:0:
352,320,288540,2,0,L|338:279,1,42.5
360,304,288696,2,0,L|346:263,1,42.5
448,200,288852,1,0,0:0:0:0:
409,182,288930,1,0,0:0:0:0:
387,147,289008,1,0,0:0:0:0:
387,105,289086,1,0,0:0:0:0:
410,70,289164,5,0,0:0:0:0:
464,120,289321,1,0,0:0:0:0:
456,128,289399,2,0,B|440:192|440:192|464:272,1,127.5
488,328,289790,2,0,L|400:344,1,85
336,296,290102,2,0,L|248:312,1,85
160,328,290415,6,0,B|178:255|178:255|150:164,1,170
112,24,290883,1,0,0:0:0:0:
112,24,290961,1,0,0:0:0:0:
112,24,291040,1,0,0:0:0:0:
8,128,291196,1,0,0:0:0:0:
150,164,291352,1,0,0:0:0:0:
88,32,291508,2,0,P|128:64|184:48,1,85
336,16,291821,5,0,0:0:0:0:
240,8,291977,1,0,0:0:0:0:
360,184,292133,1,0,0:0:0:0:
264,176,292289,1,0,0:0:0:0:
440,129,292446,2,0,P|481:131|511:159,1,85
456,288,292758,2,0,P|455:246|427:215,1,85
355,266,293071,5,0,0:0:0:0:
355,266,293227,2,0,P|353:307|325:338,1,85
196,282,293540,2,0,P|237:281|268:253,1,85
47,144,293852,2,0,P|89:144|120:172,1,85
56,232,294165,6,0,L|63:359,1,127.5
160,376,294477,1,0,0:0:0:0:
56,376,294633,1,0,0:0:0:0:
168,360,294790,1,0,0:0:0:0:
272,368,294946,1,0,0:0:0:0:
160,376,295102,1,0,0:0:0:0:
280,352,295258,1,0,0:0:0:0:
168,224,295415,6,0,L|175:351,1,127.5
272,368,295727,1,0,0:0:0:0:
168,368,295883,1,0,0:0:0:0:
280,352,296040,1,0,0:0:0:0:
384,360,296196,1,0,0:0:0:0:
272,368,296352,1,0,0:0:0:0:
392,344,296508,1,0,0:0:0:0:
280,216,296665,6,0,L|287:343,1,127.5
384,360,296977,1,0,0:0:0:0:
280,360,297133,1,0,0:0:0:0:
392,344,297290,1,0,0:0:0:0:
496,352,297446,1,0,0:0:0:0:
384,360,297602,1,0,0:0:0:0:
504,336,297758,1,0,0:0:0:0:
504,336,298071,5,0,0:0:0:0:
384,32,298227,1,0,0:0:0:0:
480,48,298383,1,0,0:0:0:0:
272,248,298540,1,0,0:0:0:0:
168,272,298696,1,0,0:0:0:0:
88,200,298852,1,0,0:0:0:0:
88,200,299008,6,0,P|48:144|96:40,1,170
160,24,299477,2,0,L|248:32,1,85
232,120,299790,2,0,L|147:112,1,85
320,88,300102,1,0,0:0:0:0:
320,88,300258,1,0,0:0:0:0:
312,328,300415,5,0,0:0:0:0:
452,348,300571,1,0,0:0:0:0:
400,216,300727,1,0,0:0:0:0:
320,344,300883,2,0,L|136:360,1,170
48,232,301352,2,0,P|40:288|88:304,1,85
248,336,301665,6,0,P|296:264|272:200,1,127.5
240,160,301977,1,0,0:0:0:0:
240,160,302133,1,0,0:0:0:0:
374,234,302290,2,0,L|262:226,1,85
192,96,302602,2,0,L|107:102,1,85
48,160,302915,5,0,0:0:0:0:
32,280,303071,2,0,P|112:352|184:312,1,170
288,288,303540,2,0,P|328:256|384:264,1,85
456,320,303852,1,0,0:0:0:0:
344,376,304008,2,0,L|349:333,1,42.5
336,184,304165,6,0,B|384:112|384:112|416:224,1,170
360,254,304633,1,0,0:0:0:0:
312,56,304790,1,0,0:0:0:0:
472,80,304946,1,0,0:0:0:0:
384,112,305102,1,0,0:0:0:0:
312,56,305258,1,0,0:0:0:0:
176,200,305415,6,0,B|128:272|128:272|96:160,1,170
152,130,305883,1,0,0:0:0:0:
200,328,306040,1,0,0:0:0:0:
40,304,306196,1,0,0:0:0:0:
128,272,306352,1,0,0:0:0:0:
200,328,306508,1,0,0:0:0:0:
256,192,306665,12,0,307915,0:0:0:0:
344,64,308071,5,0,0:0:0:0:
448,176,308227,1,0,0:0:0:0:
360,72,308383,1,0,0:0:0:0:
352,240,308540,1,0,0:0:0:0:
352,240,308618,1,0,0:0:0:0:
352,240,308696,2,0,L|288:232,1,42.5
232,176,308852,2,0,L|224:240,1,42.5
216,296,309008,2,0,L|152:288,1,42.5
48,368,309165,6,0,P|88:384|120:336,1,85
64,208,309477,1,0,0:0:0:0:
64,208,309633,2,0,L|72:296,1,85
48,200,309946,2,0,L|56:288,1,85
32,192,310258,2,0,L|40:280,1,85
96,128,310571,5,0,0:0:0:0:
248,192,310727,2,0,P|304:184|320:144,1,85
352,80,311040,1,0,0:0:0:0:
472,248,311196,2,0,P|440:312|408:296,1,85
256,264,311508,1,0,0:0:0:0:
264,280,311587,1,0,0:0:0:0:
272,296,311665,5,0,0:0:0:0:
360,288,311821,1,0,0:0:0:0:
200,352,311977,1,0,0:0:0:0:
120,336,312133,1,0,0:0:0:0:
280,312,312290,2,0,L|384:296,1,85
192,368,312602,2,0,L|88:352,1,85
80,256,312915,5,0,0:0:0:0:
120,168,313071,1,0,0:0:0:0:
88,72,313227,1,0,0:0:0:0:
0,32,313383,1,0,0:0:0:0:
80,88,313540,2,0,P|128:96|152:80,1,42.5
240,24,313696,1,0,0:0:0:0:
240,24,313774,1,0,0:0:0:0:
240,24,313852,2,0,P|218:24|199:33,1,42.5
248,120,314008,2,0,P|296:128|320:112,1,42.5
376,56,314165,6,0,P|440:32|472:56,1,85
488,128,314477,2,0,L|496:240,1,85
472,304,314711,1,0,0:0:0:0:
480,312,314790,2,0,P|416:336|384:312,1,85
312,280,315102,1,0,0:0:0:0:
312,280,315258,1,0,0:0:0:0:
208,296,315415,6,0,B|168:288|168:288|96:312,1,85
11,197,315727,2,0,L|96:192,1,85
120,80,315961,1,0,0:0:0:0:
112,88,316040,2,0,B|152:96|152:96|224:72,1,85
264,16,316352,1,0,0:0:0:0:
264,16,316508,1,0,0:0:0:0:
368,120,316665,6,0,P|432:80|400:152,1,170
349,221,317133,2,0,P|429:240|496:192,1,170
464,344,317602,2,0,P|416:312|400:272,1,85
480,264,317915,5,0,0:0:0:0:
368,376,318071,1,0,0:0:0:0:
424,136,318227,1,0,0:0:0:0:
496,272,318383,1,0,0:0:0:0:
512,32,318540,2,0,L|440:24,1,42.5
432,152,318696,2,0,L|360:144,1,42.5
392,16,318852,2,0,L|320:8,1,42.5
312,136,319008,2,0,L|240:128,1,42.5
96,80,319165,6,0,B|160:56|160:56|192:120|120:152,1,170
72,72,319633,1,0,0:0:0:0:
91,64,319711,1,0,0:0:0:0:
111,57,319789,1,0,0:0:0:0:
232,16,319946,1,0,0:0:0:0:
328,216,320102,1,0,0:0:0:0:
472,224,320258,1,0,0:0:0:0:
457,249,320336,2,0,B|400:264|400:264|336:240,1,127.5
208,136,320727,6,0,P|175:178|178:203,1,42.5
107,149,320883,2,0,P|114:202|134:217,1,42.5
32,216,321040,1,0,0:0:0:0:
35,258,321118,1,0,0:0:0:0:
39,300,321196,1,0,0:0:0:0:
168,368,321352,1,0,0:0:0:0:
24,312,321508,1,0,0:0:0:0:
20,269,321586,1,0,0:0:0:0:
16,227,321665,6,0,L|32:64,1,127.5
16,80,321977,2,0,P|48:112|96:96,1,85
320,40,322290,1,0,0:0:0:0:
160,40,322446,2,0,P|208:0|312:24,1,170
408,96,322915,6,0,B|432:136|432:136|424:192,1,85
408,96,323227,2,0,B|453:107|453:107|487:152,1,85
408,96,323540,2,0,B|448:72|448:72|504:80,1,85
232,184,323852,2,0,B|272:208|272:208|328:200,1,85
328,224,324086,1,0,0:0:0:0:
344,240,324165,6,0,B|264:248|264:248|176:200,1,170
304,224,324633,1,0,0:0:0:0:
320,240,324711,1,0,0:0:0:0:
336,256,324789,1,0,0:0:0:0:
288,368,324946,1,0,0:0:0:0:
64,344,325102,1,0,0:0:0:0:
56,200,325258,1,0,0:0:0:0:
26,215,325336,2,0,B|7:271|7:271|31:335,1,127.5
256,384,325727,5,0,0:0:0:0:
256,176,325883,1,0,0:0:0:0:
256,216,325961,2,0,L|256:343,1,127.5
480,335,326352,2,0,B|504:271|504:271|486:215,1,127.5
464,224,326665,6,0,P|480:176|512:160,1,85
344,8,326977,2,0,P|325:45|337:84,1,85
392,152,327290,2,0,L|192:168,2,170
424,80,327993,5,0,0:0:0:0:
472,144,328071,2,0,L|464:200,1,42.5
312,160,328227,1,0,0:0:0:0:
344,88,328305,1,0,0:0:0:0:
392,152,328383,2,0,L|384:208,1,42.5
232,168,328540,1,0,0:0:0:0:
264,96,328618,1,0,0:0:0:0:
312,160,328696,2,0,L|304:216,1,42.5
152,176,328852,1,0,0:0:0:0:
184,104,328930,1,0,0:0:0:0:
232,168,329008,2,0,L|224:224,1,42.5
72,184,329165,6,0,P|48:136|56:88,2,85
128,256,329633,2,0,P|128:328|40:344,1,170
16,272,330102,2,0,L|128:288,1,85
192,296,330415,6,0,P|232:328|248:368,2,85
160,208,330883,2,0,P|136:144|200:64,1,170
264,24,331352,2,0,P|280:72|256:120,1,85
190,67,331665,6,0,L|78:75,2,85
270,103,332133,2,0,L|456:112,1,170
488,40,332602,1,0,0:0:0:0:
400,32,332758,1,0,0:0:0:0:
360,112,332915,6,0,L|353:196,1,85
360,272,333227,2,0,L|366:187,1,85
376,288,333540,2,0,L|369:372,1,85
208,368,333852,1,0,0:0:0:0:
216,280,334008,1,0,0:0:0:0:
56,360,334165,6,0,L|72:176,1,170
128,120,334633,1,0,0:0:0:0:
40,112,334790,2,0,P|24:72|48:24,1,85
120,0,335102,1,0,0:0:0:0:
208,24,335258,6,0,P|296:32|400:8,1,170
456,56,335727,1,0,0:0:0:0:
392,120,335883,2,0,P|304:112|200:136,1,170
160,192,336352,1,0,0:0:0:0:
168,280,336508,1,0,0:0:0:0:
240,336,336665,6,0,L|328:344,1,85
496,320,336977,1,0,0:0:0:0:
496,320,337133,2,0,L|411:312,1,85
240,336,337446,2,0,L|328:344,1,85
496,320,337758,2,0,L|411:312,1,85
344,256,337993,5,0,0:0:0:0:
360,216,338071,2,0,L|352:176,2,28.3333333333333
432,184,338227,2,0,B|456:168|456:168|416:144,1,42.5
416,144,338383,2,0,L|424:104,2,28.3333333333333
344,112,338540,2,0,B|320:96|320:96|360:72,1,42.5
360,72,338696,2,0,L|352:32,2,28.3333333333333
432,40,338852,1,0,0:0:0:0:
432,40,339008,1,0,0:0:0:0:
256,16,339165,6,0,B|200:8|200:8|80:24,1,170
24,80,339633,1,0,0:0:0:0:
104,104,339790,1,0,0:0:0:0:
40,328,339946,2,0,L|48:152,2,170
128,352,340727,5,0,0:0:0:0:
288,312,340883,2,0,B|248:304|248:304|200:320,1,85
200,232,341196,2,0,B|241:218|241:218|281:226,1,85
360,264,341508,1,0,0:0:0:0:
440,296,341665,6,0,B|488:320|488:320|496:184,1,170
504,80,342133,1,0,0:0:0:0:
448,136,342290,2,0,B|400:160|400:160|392:24,1,170
432,128,342758,6,0,B|352:160|352:160|312:136|256:144,1,170
328,328,343227,2,0,P|361:301|385:259,1,85
200,224,343540,2,0,P|206:266|230:308,1,85
296,240,343852,1,0,0:0:0:0:
296,240,344008,1,0,0:0:0:0:
168,128,344165,5,0,0:0:0:0:
240,40,344321,1,0,0:0:0:0:
176,144,344477,1,0,0:0:0:0:
32,128,344633,2,0,P|80:112|184:176,1,170
96,8,345102,2,0,L|104:112,1,85
160,304,345415,5,0,0:0:0:0:
88,216,345571,1,0,0:0:0:0:
152,320,345727,1,0,0:0:0:0:
296,304,345883,2,0,P|248:288|144:352,1,170
0,368,346352,2,0,P|16:384|96:376,1,85
208,272,346665,5,0,0:0:0:0:
56,312,346821,1,0,0:0:0:0:
72,200,346977,1,0,0:0:0:0:
216,248,347133,1,0,0:0:0:0:
216,136,347290,1,0,0:0:0:0:
64,176,347446,1,0,0:0:0:0:
80,64,347602,1,0,0:0:0:0:
224,112,347758,1,0,0:0:0:0:
216,136,347836,1,0,0:0:0:0:
208,160,347915,5,0,0:0:0:0:
384,120,348071,1,0,0:0:0:0:
352,24,348227,1,0,0:0:0:0:
304,192,348383,1,0,0:0:0:0:
312,216,348461,1,0,0:0:0:0:
296,240,348540,1,0,0:0:0:0:
304,264,348618,1,0,0:0:0:0:
288,288,348696,1,0,0:0:0:0:
296,312,348774,1,0,0:0:0:0:
280,336,348852,2,0,L|288:384,1,42.5
456,384,349008,2,0,L|449:342,1,42.5
264,352,349165,6,0,L|144:360,1,85
200,192,349477,2,0,L|80:200,1,85
136,32,349790,2,0,L|16:40,1,85
8,136,350102,1,0,0:0:0:0:
136,32,350258,6,0,L|328:40,1,170
384,152,350727,2,0,L|504:160,1,85
512,256,351039,1,0,0:0:0:0:
432,328,351196,2,0,P|368:312|352:280,1,85
384,152,351508,6,0,L|192:160,1,170
48,280,351977,1,0,0:0:0:0:
96,352,352133,2,0,P|176:376|232:312,1,170
112,160,352602,1,0,0:0:0:0:
160,88,352758,6,0,P|240:64|296:128,1,170
368,256,353227,2,0,P|416:248|448:216,1,85
512,104,353540,2,0,P|464:96|432:64,1,85
384,0,353852,1,0,0:0:0:0:
232,40,354008,1,0,0:0:0:0:
224,56,354086,1,0,0:0:0:0:
216,72,354165,6,0,P|208:128|216:168,1,85
280,240,354477,2,0,P|336:248|376:240,1,85
200,168,354790,1,0,0:0:0:0:
96,160,354946,1,0,0:0:0:0:
16,224,355102,1,0,0:0:0:0:
16,224,355258,1,0,0:0:0:0:
96,360,355415,6,0,L|200:352,1,85
280,384,355727,2,0,P|264:336|280:296,1,85
328,216,356040,2,0,L|432:208,1,85
512,240,356352,2,0,P|496:192|512:152,1,85
352,96,356665,5,0,0:0:0:0:
352,96,356821,1,0,0:0:0:0:
208,40,356977,1,0,0:0:0:0:
208,40,357133,1,0,0:0:0:0:
120,24,357290,2,0,P|128:88|168:120,1,85
328,184,357602,2,0,P|392:176|424:136,1,85
448,88,357915,5,0,0:0:0:0:
296,8,358071,1,0,0:0:0:0:
312,96,358227,1,0,0:0:0:0:
120,112,358383,1,0,0:0:0:0:
192,160,358540,1,0,0:0:0:0:
80,304,358696,1,0,0:0:0:0:
168,288,358852,1,0,0:0:0:0:
288,344,359008,2,0,L|344:336,1,42.5
424,280,359165,6,0,P|424:344|392:360,1,85
267,225,359477,2,0,L|352:232,1,85
432,192,359790,1,0,0:0:0:0:
504,80,359946,1,0,0:0:0:0:
416,168,360102,1,0,0:0:0:0:
368,24,360258,1,0,0:0:0:0:
392,152,360415,6,0,P|312:144|256:200,1,127.5
248,160,360727,1,0,0:0:0:0:
272,304,360883,2,0,L|88:296,1,170
24,352,361352,2,0,P|8:312|16:256,1,85
80,208,361665,5,0,0:0:0:0:
24,136,361821,1,0,0:0:0:0:
56,48,361977,1,0,0:0:0:0:
144,24,362133,1,0,0:0:0:0:
376,104,362290,1,0,0:0:0:0:
288,136,362446,1,0,0:0:0:0:
216,80,362602,1,0,0:0:0:0:
400,16,362758,6,0,P|464:80|432:176,1,170
254,220,363227,2,0,P|199:159|215:79,1,170
160,152,363618,2,0,L|96:168,1,42.5
376,240,363852,1,0,0:0:0:0:
376,240,363930,1,0,0:0:0:0:
376,240,364008,2,0,L|440:256,1,42.5
456,168,364165,6,0,L|448:360,1,170
456,168,364633,1,0,0:0:0:0:
264,128,364790,2,0,L|272:224,1,85
152,176,365102,2,0,L|144:272,1,85
24,304,365415,6,0,L|16:96,1,170
80,16,365883,1,0,0:0:0:0:
32,144,366040,2,0,L|38:313,1,170
232,352,366508,1,0,0:0:0:0:
296,304,366665,6,0,P|288:232|232:288,1,170
232,352,367133,1,0,0:0:0:0:
152,240,367290,2,0,P|176:192|216:160,1,85
256,56,367602,2,0,P|306:39|357:44,1,85
464,8,367915,6,0,L|472:104,1,85
416,336,368227,2,0,L|423:251,1,85
312,120,368540,1,0,0:0:0:0:
336,200,368696,1,0,0:0:0:0:
240,352,368852,1,0,0:0:0:0:
264,272,369008,1,0,0:0:0:0:
248,264,369086,1,0,0:0:0:0:
232,256,369165,6,0,P|208:208|200:128,1,127.5
296,24,369477,2,0,P|280:112|264:136,1,85
64,232,369790,2,0,P|40:184|32:104,1,127.5
128,0,370102,2,0,P|112:88|96:112,1,85
8,304,370415,6,0,B|56:320|56:320|96:312|96:312|160:328,1,127.5
200,376,370727,2,0,P|248:368|272:328,1,85
256,248,371040,2,0,P|184:232|160:248,1,85
336,288,371352,1,0,0:0:0:0:
336,288,371508,1,0,0:0:0:0:
440,208,371665,6,0,L|432:88,1,85
440,208,371977,2,0,L|445:292,1,85
440,208,372290,2,0,L|432:88,1,85
512,80,372602,1,0,0:0:0:0:
384,40,372758,6,0,B|328:32|328:32|272:48|272:48|217:40,1,170
88,72,373227,1,0,0:0:0:0:
32,184,373383,2,0,P|48:224|64:240,1,42.5
104,280,373540,2,0,L|200:288,1,85
200,304,373774,1,0,0:0:0:0:
184,320,373852,2,0,L|99:312,1,85
24,344,374086,6,0,P|8:360|0:392,1,42.5
248,368,374321,1,0,0:0:0:0:
32,264,374477,1,0,0:0:0:0:
256,288,374633,1,0,0:0:0:0:
480,264,374790,2,0,L|472:168,1,85
400,144,375102,1,0,0:0:0:0:
456,11,375258,2,0,L|464:96,1,85
176,192,375571,5,0,0:0:0:0:
192,112,375727,1,0,0:0:0:0:
400,144,375883,1,0,0:0:0:0:
336,192,376040,1,0,0:0:0:0:
112,144,376196,1,0,0:0:0:0:
320,112,376352,1,0,0:0:0:0:
48,96,376508,2,0,L|55:11,1,85
112,144,376821,5,0,0:0:0:0:
32,264,376977,2,0,L|40:168,1,85
168,288,377290,2,0,L|241:225,1,85
320,376,377602,2,0,L|404:383,1,85
504,320,377915,6,0,P|520:224|463:138,1,170
392,128,378383,1,0,0:0:0:0:
312,192,378540,1,0,0:0:0:0:
296,231,378618,1,0,0:0:0:0:
293,273,378696,1,0,0:0:0:0:
304,314,378774,1,0,0:0:0:0:
326,350,378852,1,0,0:0:0:0:
392,128,379008,1,0,0:0:0:0:
384,120,379086,1,0,0:0:0:0:
376,112,379165,6,0,P|336:96|272:96,1,85
224,160,379477,2,0,P|184:176|120:176,1,85
56,128,379790,1,0,0:0:0:0:
56,128,379946,1,0,0:0:0:0:
104,328,380102,1,0,0:0:0:0:
104,328,380258,1,0,0:0:0:0:
16,280,380415,6,0,L|136:288,1,85
200,288,380727,2,0,L|284:282,1,85
384,272,381040,1,0,0:0:0:0:
384,272,381196,1,0,0:0:0:0:
480,264,381352,1,0,0:0:0:0:
392,368,381508,1,0,0:0:0:0:
376,176,381665,6,0,L|384:72,1,85
488,32,381977,2,0,B|496:72|496:72|472:128,1,85
360,192,382290,2,0,L|256:184,1,85
120,232,382602,2,0,B|160:249|160:249|200:241,1,85
264,168,382915,6,0,L|272:64,1,85
200,24,383227,2,0,B|159:6|159:6|119:14,1,85
280,72,383540,2,0,L|352:77,2,42.5
40,56,383852,2,0,L|-24:64,2,42.5
32,80,384086,1,0,0:0:0:0:
24,104,384165,6,0,L|32:224,1,85
112,104,384399,1,0,0:0:0:0:
104,120,384477,2,0,L|112:240,1,85
56,264,384790,1,0,0:0:0:0:
168,376,384946,1,0,0:0:0:0:
16,360,385102,1,0,0:0:0:0:
200,280,385258,1,0,0:0:0:0:
272,320,385415,6,0,B|296:256|248:216|248:216|256:152,1,170
264,80,385883,1,0,0:0:0:0:
424,64,386040,2,0,B|417:118|417:118|465:158|441:222,1,170
392,288,386508,2,0,P|376:304|352:312,1,42.5
272,320,386665,6,0,L|168:312,1,85
272,224,386899,1,0,0:0:0:0:
256,240,386977,2,0,L|152:232,1,85
112,288,387290,1,0,0:0:0:0:
8,208,387446,1,0,0:0:0:0:
168,96,387602,1,0,0:0:0:0:
64,16,387758,1,0,0:0:0:0:
152,112,387915,6,0,P|200:128|272:40,1,170
408,0,388383,1,0,0:0:0:0:
408,144,388540,2,0,P|370:177|410:283,1,170
400,279,389008,1,0,0:0:0:0:
456,344,389165,6,0,P|400:368|368:360,1,85
320,304,389477,1,0,0:0:0:0:
344,152,389633,2,0,L|536:160,1,170
440,168,390102,2,0,L|355:164,1,85
280,216,390415,6,0,P|184:208|168:152,1,127.5
168,224,390727,2,0,P|136:176|152:136,1,85
176,48,391040,2,0,P|272:56|288:112,1,127.5
288,40,391352,2,0,P|320:88|304:128,1,85
240,160,391665,6,0,L|72:168,1,127.5
32,192,391977,2,0,P|0:240|16:280,1,85
80,312,392290,2,0,L|248:320,1,127.5
272,376,392602,2,0,P|320:344|360:360,1,85
424,376,392915,5,0,0:0:0:0:
384,272,393071,1,0,0:0:0:0:
464,304,393227,1,0,0:0:0:0:
424,376,393383,1,0,0:0:0:0:
344,168,393540,1,0,0:0:0:0:
336,144,393618,1,0,0:0:0:0:
328,120,393696,2,0,L|312:64,1,42.5
232,144,393852,2,0,L|216:200,1,42.5
136,104,394008,2,0,L|120:48,1,42.5
40,128,394165,6,0,B|24:184|24:184|40:304,1,170
88,360,394633,1,0,0:0:0:0:
232,336,394790,1,0,0:0:0:0:
140,224,394946,1,0,0:0:0:0:
152,304,395102,1,0,0:0:0:0:
232,336,395258,6,0,B|272:352|272:352|424:336,1,170
480,304,395727,2,0,P|488:344|464:392,1,85
408,256,396040,2,0,L|400:160,1,85
344,8,396352,1,0,0:0:0:0:
328,104,396508,1,0,0:0:0:0:
232,136,396665,6,0,P|120:152|40:152,1,170
72,240,397133,2,0,P|156:236|240:223,1,170
312,272,397602,2,0,L|304:360,1,85
224,384,397915,5,0,0:0:0:0:
64,376,398071,1,0,0:0:0:0:
64,376,398149,1,0,0:0:0:0:
64,376,398227,1,0,0:0:0:0:
144,352,398383,1,0,0:0:0:0:
0,320,398540,2,0,P|-8:272|8:216,2,85
192,232,399008,1,0,0:0:0:0:
192,232,399086,1,0,0:0:0:0:
192,232,399165,6,0,P|200:184|168:56,1,170
104,24,399633,1,0,0:0:0:0:
48,168,399790,1,0,0:0:0:0:
192,144,399946,1,0,0:0:0:0:
104,24,400102,1,0,0:0:0:0:
112,112,400258,1,0,0:0:0:0:
192,144,400415,6,0,P|272:144|368:104,1,170
400,0,400883,1,0,0:0:0:0:
432,160,401040,2,0,P|464:120|456:72,1,85
352,200,401352,2,0,L|344:296,1,85
464,376,401665,5,0,0:0:0:0:
472,280,401821,1,0,0:0:0:0:
336,384,401977,1,0,0:0:0:0:
336,384,402133,2,0,P|232:352|144:360,1,170
112,296,402602,2,0,P|104:240|128:184,1,85
160,144,402915,5,0,0:0:0:0:
320,176,403071,1,0,0:0:0:0:
448,72,403227,1,0,0:0:0:0:
288,40,403383,1,0,0:0:0:0:
160,144,403540,2,0,P|152:136|144:104,2,28.3333333333333
72,128,403696,2,0,P|80:88|96:64,1,42.5
233,244,403852,2,0,P|249:227|257:195,1,42.5
328,217,404008,2,0,P|320:177|304:153,1,42.5
136,336,404165,6,0,B|80:328|32:288|120:232|104:320,1,127.5
16,352,404477,2,0,P|0:312|16:240,1,85
48,72,404790,2,0,P|56:160|32:224,2,127.5
120,16,405415,6,0,L|288:24,1,127.5
320,40,405727,2,0,L|226:35,1,85
384,96,406040,2,0,P|456:96|480:40,2,127.5
304,128,406665,6,0,P|288:168|280:224,1,85
192,248,406899,1,0,0:0:0:0:
192,248,406977,2,0,P|208:288|216:344,1,85
296,368,407290,2,0,L|432:376,2,127.5
128,312,407915,6,0,L|-8:320,2,127.5
304,280,408540,1,0,0:0:0:0:
328,288,408618,1,0,0:0:0:0:
352,304,408696,1,0,0:0:0:0:
368,280,408774,1,0,0:0:0:0:
392,264,408852,1,0,0:0:0:0:
456,144,409008,2,0,L|384:168,1,42.5
336,184,409165,6,0,L|168:176,1,127.5
224,200,409477,2,0,P|168:200|144:152,1,85
184,72,409790,1,0,0:0:0:0:
344,48,409946,1,0,0:0:0:0:
184,72,410102,1,0,0:0:0:0:
344,48,410258,2,0,L|376:96,1,42.5
384,168,410415,6,0,P|455:183|448:112,1,170
296,184,410883,2,0,P|344:256|448:288,1,170
264,304,411352,2,0,L|144:320,1,85
88,296,411586,1,0,0:0:0:0:
88,296,411665,6,0,L|32:296,2,42.5
152,224,411977,2,0,P|168:168|136:120,1,85
96,80,412290,2,0,L|40:80,2,42.5
184,56,412602,2,0,L|280:56,1,85
368,136,412915,5,0,0:0:0:0:
381,133,412993,1,0,0:0:0:0:
393,126,413071,1,0,0:0:0:0:
403,115,413149,1,0,0:0:0:0:
460,68,413227,1,0,0:0:0:0:
450,58,413305,1,0,0:0:0:0:
438,51,413383,1,0,0:0:0:0:
424,48,413461,1,0,0:0:0:0:
352,64,413540,2,0,P|344:40|352:16,2,28.3333333333333
288,104,413696,2,0,P|272:72|272:40,1,42.5
168,200,413852,2,0,P|176:176|198:162,1,42.5
92,190,414008,2,0,P|99:155|119:130,1,42.5
24,96,414165,5,0,0:0:0:0:
96,32,414321,1,0,0:0:0:0:
104,32,414399,1,0,0:0:0:0:
112,32,414477,1,0,0:0:0:0:
176,152,414633,1,0,0:0:0:0:
168,200,414711,1,0,0:0:0:0:
160,248,414790,1,0,0:0:0:0:
152,296,414868,1,0,0:0:0:0:
144,344,414946,2,0,L|40:360,2,85
240,320,415415,5,0,0:0:0:0:
312,384,415571,1,0,0:0:0:0:
320,384,415649,1,0,0:0:0:0:
328,384,415727,1,0,0:0:0:0:
392,264,415883,1,0,0:0:0:0:
384,216,415961,1,0,0:0:0:0:
376,168,416040,1,0,0:0:0:0:
368,120,416118,1,0,0:0:0:0:
360,72,416196,2,0,L|256:56,2,85
464,88,416665,5,0,0:0:0:0:
416,344,416821,2,0,P|360:344|320:304,2,85
432,336,417211,1,0,0:0:0:0:
448,320,417290,2,0,P|464:296|464:264,1,42.5
384,176,417446,2,0,P|389:155|402:138,1,42.5
464,88,417602,2,0,B|472:32|472:32|424:64,1,85
440,56,417836,1,0,0:0:0:0:
432,64,417915,5,0,0:0:0:0:
240,32,418071,2,0,P|248:80|280:96,1,85
40,224,418383,2,0,P|56:192|80:176,1,42.5
128,152,418540,1,0,0:0:0:0:
156,154,418618,1,0,0:0:0:0:
184,156,418696,1,0,0:0:0:0:
212,158,418774,1,0,0:0:0:0:
272,208,418852,2,0,P|288:232|296:272,1,42.5
288,320,419008,2,0,P|282:348|259:382,1,42.5
200,384,419165,6,0,L|115:377,1,85
16,368,419477,1,0,0:0:0:0:
48,256,419633,1,0,0:0:0:0:
80,144,419790,1,0,0:0:0:0:
48,256,419946,1,0,0:0:0:0:
56,264,420024,1,0,0:0:0:0:
64,272,420102,2,0,B|112:280|112:280|148:265,1,85
312,384,420415,6,0,L|396:377,1,85
496,368,420727,1,0,0:0:0:0:
464,256,420883,1,0,0:0:0:0:
432,144,421040,1,0,0:0:0:0:
464,256,421196,1,0,0:0:0:0:
456,264,421274,1,0,0:0:0:0:
448,272,421352,2,0,B|400:280|400:280|364:265,1,85
256,144,421665,6,0,L|256:56,1,85
408,56,421977,1,0,0:0:0:0:
256,59,422133,1,0,0:0:0:0:
104,56,422290,1,0,0:0:0:0:
256,59,422446,1,0,0:0:0:0:
256,59,422524,1,0,0:0:0:0:
256,59,422602,2,0,L|256:144,1,85
328,208,422915,6,0,L|512:224,1,170
14,222,423383,2,0,L|184:208,1,170
168,344,423774,2,0,L|176:280,1,42.5
344,344,423930,2,0,L|336:280,1,42.5
328,208,424086,1,0,0:0:0:0:
328,208,424165,6,0,L|512:224,1,170
344,224,424633,1,0,0:0:0:0:
504,136,424790,2,0,B|520:96|520:96|504:40,1,85
344,40,425102,2,0,B|328:80|328:80|344:136,1,85
344,128,425571,5,0,0:0:0:0:
424,88,425727,2,0,L|224:96,1,170
120,16,426196,1,0,0:0:0:0:
112,168,426352,1,0,0:0:0:0:
104,320,426508,2,0,L|108:240,1,42.5
112,168,426665,6,0,B|104:96|32:80|32:80|48:144,1,170
96,312,427133,1,0,0:0:0:0:
120,176,427290,1,0,0:0:0:0:
248,136,427446,1,0,0:0:0:0:
344,232,427602,1,0,0:0:0:0:
344,232,427758,6,0,B|400:224|400:224|392:272|392:272|432:240|480:256,1,170
448,336,428227,1,0,0:0:0:0:
376,384,428383,2,0,B|360:368|360:336|360:336|320:344|320:344|296:384|240:376,1,170
184,336,428852,1,0,0:0:0:0:
168,256,429008,1,0,0:0:0:0:
96,216,429165,6,0,B|56:232|64:272|104:264|128:200|200:216,1,170
280,232,429633,1,0,0:0:0:0:
344,288,429790,1,0,0:0:0:0:
264,312,429946,1,0,0:0:0:0:
272,272,430024,1,0,0:0:0:0:
280,232,430102,1,0,0:0:0:0:
344,176,430258,6,0,B|416:144|480:208|480:208|464:152,1,170
424,120,430727,2,0,P|408:72|432:16,1,85
488,72,431040,1,0,0:0:0:0:
445,75,431118,1,0,0:0:0:0:
403,79,431196,1,0,0:0:0:0:
360,82,431274,1,0,0:0:0:0:
318,86,431352,1,0,0:0:0:0:
184,56,431508,6,0,P|272:88|256:160,1,170
232,248,431977,1,0,0:0:0:0:
232,248,432133,2,0,P|160:308|105:258,1,170
41,193,432602,1,0,0:0:0:0:
41,193,432758,2,0,P|24:100|95:78,1,170
184,56,433227,1,0,0:0:0:0:
184,56,433383,2,0,B|168:160|216:120|208:240,1,170
328,56,433852,1,0,0:0:0:0:
328,56,434008,6,0,B|344:160|296:120|304:240,1,170
336,344,434477,2,0,P|392:336|408:304,1,85
416,232,434790,1,0,0:0:0:0:
256,304,434946,1,0,0:0:0:0:
96,232,435102,1,0,0:0:0:0:
106,315,435259,2,0,P|134:345|176:344,1,85
256,304,435571,6,0,L|256:256,1,42.5
256,224,435727,1,0,0:0:0:0:
256,224,435883,1,0,0:0:0:0:
256,224,436040,2,0,L|256:176,1,42.5
344,192,436196,2,0,L|344:144,1,42.5
256,224,436352,2,0,L|256:181,1,42.5
168,192,436508,2,0,L|168:149,1,42.5
192,32,436665,6,0,B|256:88|256:88|320:32,1,170
432,56,437133,2,0,P|480:104|456:216,1,170
384,232,437602,1,0,0:0:0:0:
400,152,437758,1,0,0:0:0:0:
456,288,437915,6,0,P|464:328|448:376,1,85
440,384,438227,1,0,0:0:0:0:
336,320,438383,2,0,L|304:136,1,170
408,88,438852,2,0,B|440:112|440:112|392:128,1,85
320,32,439165,6,0,B|256:88|256:88|192:32,1,170
80,56,439633,2,0,P|32:104|56:216,1,170
128,232,440102,1,0,0:0:0:0:
112,152,440258,1,0,0:0:0:0:
60,369,440571,6,0,P|48:329|56:287,1,85
72,376,440883,1,0,0:0:0:0:
176,320,441039,1,0,0:0:0:0:
183,278,441117,1,0,0:0:0:0:
190,236,441195,1,0,0:0:0:0:
197,194,441273,1,0,0:0:0:0:
205,152,441352,2,0,L|224:224,1,42.5
296,248,441508,2,0,L|314:319,1,42.5
408,352,441665,6,0,P|464:352|496:312,1,85
448,208,441977,2,0,P|476:159|457:111,1,85
289,43,442290,2,0,P|326:62|343:101,1,85
120,153,442602,2,0,P|155:131|197:137,1,85
264,224,442915,6,0,B|272:320,1,85
192,264,443149,2,0,B|200:349,1,85
120,304,443383,2,0,B|125:369,1,42.5
48,216,443540,1,0,0:0:0:0:
18,188,443618,1,0,0:0:0:0:
27,149,443696,1,0,0:0:0:0:
66,137,443774,1,0,0:0:0:0:
95,164,443852,1,0,0:0:0:0:
192,264,444008,1,0,0:0:0:0:
320,207,444165,6,0,P|357:135|315:65,2,170
224,168,444946,1,0,0:0:0:0:
192,264,445102,2,0,L|88:272,1,85
288,312,445415,6,0,L|418:301,1,127.5
424,320,445727,2,0,P|448:272|432:224,1,85
344,96,446040,1,0,0:0:0:0:
320,104,446118,1,0,0:0:0:0:
296,112,446196,2,0,L|352:128,1,42.5
416,152,446352,1,0,0:0:0:0:
512,64,446508,1,0,0:0:0:0:
488,72,446586,1,0,0:0:0:0:
464,80,446664,6,0,B|416:72|416:72|432:32|432:32|400:0|320:16,1,170
200,224,447133,1,0,0:0:0:0:
222,188,447211,1,0,0:0:0:0:
219,146,447289,1,0,0:0:0:0:
168,64,447446,1,0,0:0:0:0:
96,128,447602,2,0,P|56:160|-8:152,1,85
32,80,447915,6,0,L|48:240,1,127.5
40,240,448227,2,0,L|136:248,1,85
160,368,448540,1,0,0:0:0:0:
296,280,448696,1,0,0:0:0:0:
296,280,448774,1,0,0:0:0:0:
296,280,448852,2,0,L|211:287,1,85
368,336,449165,6,0,P|408:296|496:336,1,127.5
488,328,449477,1,0,0:0:0:0:
344,200,449633,1,0,0:0:0:0:
211,287,449790,2,0,L|296:280,1,85
367,336,450024,2,0,P|413:294|473:305,1,127.5
488,328,450336,1,0,0:0:0:0:
488,352,450415,5,0,0:0:0:0:
368,336,450571,1,0,0:0:0:0:
248,320,450727,1,0,0:0:0:0:
248,320,450805,1,0,0:0:0:0:
248,320,450883,1,0,0:0:0:0:
160,384,451040,2,0,L|168:328,1,42.5
176,256,451196,2,0,L|184:200,1,42.5
88,288,451352,2,0,L|80:232,1,42.5
72,160,451508,2,0,L|64:104,1,42.5
104,32,451665,6,0,P|160:16|200:48,1,85
368,144,451977,2,0,P|330:126|290:138,1,85
408,224,452290,2,0,L|416:24,1,170
488,176,452758,1,0,0:0:0:0:
224,192,452915,6,0,P|200:272|232:312,1,127.5
248,320,453227,1,0,0:0:0:0:
248,320,453383,1,0,0:0:0:0:
48,368,453540,2,0,P|87:335|91:279,1,85
99,280,453774,2,0,P|90:229|43:197,1,85
40,192,454008,1,0,0:0:0:0:
24,200,454086,1,0,0:0:0:0:
8,208,454165,6,0,L|16:104,1,85
184,168,454477,2,0,L|190:252,1,85
200,352,454790,2,0,L|376:360,1,170
440,264,455258,1,0,0:0:0:0:
472,344,455415,6,0,P|384:328|368:224,1,170
440,264,455883,1,0,0:0:0:0:
472,344,456040,1,0,0:0:0:0:
430,349,456118,1,0,0:0:0:0:
391,333,456196,1,0,0:0:0:0:
364,301,456274,1,0,0:0:0:0:
357,259,456352,1,0,0:0:0:0:
472,64,456508,1,0,0:0:0:0:
464,80,456586,1,0,0:0:0:0:
456,96,456665,6,0,B|416:80|416:80|356:92,1,85
320,32,456899,2,0,L|208:24,1,85
168,64,457133,1,0,0:0:0:0:
32,208,457290,1,0,0:0:0:0:
248,120,457446,1,0,0:0:0:0:
240,104,457524,1,0,0:0:0:0:
48,120,457758,1,0,0:0:0:0:
216,240,457915,6,0,P|176:216|136:280,2,127.5
192,320,458540,1,0,0:0:0:0:
192,320,458696,2,0,L|256:320,1,42.5
336,200,458852,1,0,0:0:0:0:
352,200,458930,1,0,0:0:0:0:
392,224,459008,1,0,0:0:0:0:
408,224,459086,1,0,0:0:0:0:
456,288,459165,6,0,B|416:304|416:304|356:291,1,85
320,352,459399,2,0,L|208:360,1,85
168,320,459633,1,0,0:0:0:0:
32,176,459790,1,0,0:0:0:0:
248,264,459946,1,0,0:0:0:0:
240,280,460024,1,0,0:0:0:0:
48,264,460258,1,0,0:0:0:0:
216,144,460415,6,0,P|176:168|136:104,2,127.5
192,64,461040,2,0,L|256:64,1,42.5
336,184,461196,2,0,L|400:184,1,42.5
456,128,461352,1,0,0:0:0:0:
423,101,461430,1,0,0:0:0:0:
390,74,461508,1,0,0:0:0:0:
357,47,461586,1,0,0:0:0:0:
324,20,461665,6,0,L|352:128,1,85
328,288,461977,2,0,L|312:368,1,42.5
512,344,462133,1,0,0:0:0:0:
432,240,462290,1,0,0:0:0:0:
432,240,462368,1,0,0:0:0:0:
432,240,462446,1,0,0:0:0:0:
408,384,462602,1,0,0:0:0:0:
184,288,462758,2,0,L|200:368,1,42.5
0,344,462914,5,0,0:0:0:0:
80,240,463071,1,0,0:0:0:0:
104,384,463227,1,0,0:0:0:0:
104,384,463305,1,0,0:0:0:0:
104,384,463383,1,0,0:0:0:0:
80,240,463540,1,0,0:0:0:0:
80,240,463618,1,0,0:0:0:0:
80,240,463696,1,0,0:0:0:0:
184,288,463852,2,0,L|200:368,1,42.5
328,288,464008,1,0,0:0:0:0:
440,208,464165,6,0,B|392:248|392:248|480:264,1,127.5
328,288,464477,2,0,L|312:368,1,42.5
184,288,464633,1,0,0:0:0:0:
72,208,464790,1,0,0:0:0:0:
96,248,464868,1,0,0:0:0:0:
96,248,464946,1,0,0:0:0:0:
56,259,465024,1,0,0:0:0:0:
32,224,465102,1,0,0:0:0:0:
0,144,465258,6,0,P|80:112|160:176,1,170
312,80,465727,1,0,0:0:0:0:
200,80,465883,1,0,0:0:0:0:
511,143,466040,1,0,0:0:0:0:
477,119,466118,1,0,0:0:0:0:
436,111,466196,1,0,0:0:0:0:
395,123,466274,1,0,0:0:0:0:
364,151,466352,1,0,0:0:0:0:
256,216,466508,1,0,0:0:0:0:
256,216,466586,1,0,0:0:0:0:
256,216,466665,6,0,P|264:272|304:288,1,85
144,320,466977,1,0,0:0:0:0:
144,320,467133,2,0,L|168:224,1,85
201,31,467446,2,0,L|272:99,1,85
422,224,467758,2,0,L|327:252,1,85
144,320,468071,6,0,L|168:224,1,85
201,31,468383,2,0,P|225:71|209:127,1,85
144,136,468618,1,0,0:0:0:0:
120,144,468696,1,0,0:0:0:0:
32,16,468852,2,0,L|144:24,1,85
201,31,469086,1,0,0:0:0:0:
201,31,469165,5,0,0:0:0:0:
272,128,469321,1,0,0:0:0:0:
376,112,469477,1,0,0:0:0:0:
480,96,469633,2,0,B|464:48|464:48|456:168,1,170
296,256,470102,1,0,0:0:0:0:
480,288,470258,6,0,P|400:344|320:312,1,170
296,256,470727,1,0,0:0:0:0:
192,272,470883,1,0,0:0:0:0:
88,288,471040,1,0,0:0:0:0:
80,296,471118,1,0,0:0:0:0:
72,304,471196,1,0,0:0:0:0:
80,312,471274,1,0,0:0:0:0:
88,320,471352,2,0,P|112:328|144:312,1,42.5
200,352,471508,2,0,P|224:360|256:344,1,42.5
304,320,471665,6,0,B|328:312|344:304|344:304|376:312|408:304,1,85
512,200,471977,2,0,B|488:192|472:184|472:184|440:192|408:184,1,85
360,64,472211,1,0,0:0:0:0:
352,48,472290,2,0,P|408:24|424:120,1,170
296,240,472758,1,0,0:0:0:0:
285,199,472836,1,0,0:0:0:0:
253,172,472914,5,0,0:0:0:0:
144,144,473071,1,0,0:0:0:0:
72,232,473227,2,0,P|72:288|96:336,1,85
128,376,473461,2,0,P|152:336|152:320,1,42.5
144,144,473696,1,0,0:0:0:0:
144,144,473852,1,0,0:0:0:0:
144,144,474008,2,0,L|80:152,1,42.5
16,72,474165,6,0,L|104:72,1,85
192,216,474477,2,0,L|280:216,1,85
344,256,474711,2,0,L|336:312,1,42.5
136,352,474946,1,0,0:0:0:0:
136,352,475102,1,0,0:0:0:0:
136,352,475258,2,0,L|80:320,1,42.5
32,288,475415,6,0,P|88:256|144:272,1,85
272,328,475727,2,0,P|313:333|346:359,1,85
363,333,475962,1,0,0:0:0:0:
339,317,476040,2,0,L|347:365,1,42.5
496,296,476196,2,0,L|424:304,1,42.5
288,160,476352,2,0,L|280:208,1,42.5
448,184,476508,2,0,L|405:179,1,42.5
304,40,476665,6,0,B|280:48|264:56|264:56|232:48|200:56,1,85
40,8,476977,2,0,B|64:16|80:24|80:24|112:16|144:24,1,85
40,224,477290,1,0,0:0:0:0:
110,154,477446,2,0,P|36:171|24:96,1,170
40,224,477915,5,0,0:0:0:0:
256,320,478071,1,0,0:0:0:0:
344,288,478227,1,0,0:0:0:0:
264,232,478383,1,0,0:0:0:0:
176,264,478540,1,0,0:0:0:0:
200,64,478696,1,0,0:0:0:0:
232,72,478774,2,0,B|288:88|288:88|208:104,1,127.5
352,136,479165,6,0,P|368:72|344:24,1,85
280,176,479477,1,0,0:0:0:0:
432,144,479633,1,0,0:0:0:0:
224,312,479790,2,0,P|208:248|232:200,1,85
296,352,480102,1,0,0:0:0:0:
144,320,480258,1,0,0:0:0:0:
0,384,480415,5,0,0:0:0:0:
0,384,480571,1,0,0:0:0:0:
32,256,480727,1,0,0:0:0:0:
32,256,480883,1,0,0:0:0:0:
64,128,481040,1,0,0:0:0:0:
105,134,481118,1,0,0:0:0:0:
147,141,481196,1,0,0:0:0:0:
189,148,481274,1,0,0:0:0:0:
231,154,481352,1,0,0:0:0:0:
448,296,481508,1,0,0:0:0:0:
448,296,481586,1,0,0:0:0:0:
448,296,481665,6,0,P|472:320|464:280,2,85
376,240,482133,1,0,0:0:0:0:
296,280,482290,2,0,P|256:288|288:264,2,85
376,240,482758,1,0,0:0:0:0:
408,0,482915,6,0,L|400:56,1,42.5
392,120,483071,2,0,L|384:176,1,42.5
376,240,483227,1,0,0:0:0:0:
392,120,483383,1,0,0:0:0:0:
408,0,483540,1,0,0:0:0:0:
136,144,483852,1,0,0:0:0:0:
120,264,484008,1,0,0:0:0:0:
104,384,484165,6,0,P|168:352|128:264,1,170
24,336,484633,1,0,0:0:0:0:
0,184,484790,2,0,P|32:208|80:208,1,85
224,80,485102,2,0,L|120:88,1,85
64,40,485415,5,0,0:0:0:0:
48,120,485519,1,0,0:0:0:0:
112,168,485623,1,0,0:0:0:0:
216,159,485727,1,0,0:0:0:0:
233,121,485831,1,0,0:0:0:0:
224,80,485935,1,0,0:0:0:0:
296,32,486040,2,0,B|360:24|360:24|328:48,1,85
424,72,486274,1,0,0:0:0:0:
408,88,486352,2,0,L|450:83,1,42.5
472,176,486508,2,0,L|400:168,1,42.5
376,248,486665,6,0,B|336:232|336:232|297:247,1,85
216,280,486977,2,0,B|176:296|176:296|137:280,1,85
64,240,487290,1,0,0:0:0:0:
64,240,487368,1,0,0:0:0:0:
64,240,487446,1,0,0:0:0:0:
176,208,487602,1,0,0:0:0:0:
88,128,487758,1,0,0:0:0:0:
88,128,487836,1,0,0:0:0:0:
88,128,487915,6,0,B|128:112|128:112|166:127,1,85
248,160,488227,2,0,B|288:176|288:176|326:160,1,85
400,120,488540,1,0,0:0:0:0:
400,120,488618,1,0,0:0:0:0:
400,120,488696,1,0,0:0:0:0:
288,88,488852,1,0,0:0:0:0:
368,8,489008,1,0,0:0:0:0:
488,40,489165,5,0,0:0:0:0:
400,144,489321,1,0,0:0:0:0:
264,96,489477,1,0,0:0:0:0:
128,144,489633,2,0,P|112:72|208:64,1,170
264,288,490102,1,0,0:0:0:0:
128,240,490258,2,0,P|112:312|208:320,1,170
264,288,490727,5,0,0:0:0:0:
64,320,490883,1,0,0:0:0:0:
264,288,491040,2,0,L|256:360,1,42.5
64,320,491196,2,0,L|56:392,1,42.5
32,240,491352,1,0,0:0:0:0:
232,208,491508,1,0,0:0:0:0:
232,208,491586,1,0,0:0:0:0:
232,208,491665,5,0,0:0:0:0:
320,224,491821,1,0,0:0:0:0:
352,304,491977,1,0,0:0:0:0:
496,256,492133,1,0,0:0:0:0:
496,256,492211,1,0,0:0:0:0:
496,256,492290,1,0,0:0:0:0:
408,240,492446,1,0,0:0:0:0:
376,160,492602,1,0,0:0:0:0:
232,208,492758,1,0,0:0:0:0:
232,208,492836,1,0,0:0:0:0:
232,208,492915,6,0,P|248:264|216:304,1,85
96,352,493227,2,0,P|136:363|173:346,1,85
24,304,493540,2,0,B|16:176|16:176|72:224,1,170
120,264,494008,1,0,0:0:0:0:
56,104,494165,6,0,B|88:136|88:136|104:80,1,85
88,24,494477,2,0,B|56:-8|56:-8|40:48,1,85
160,56,494790,2,0,L|312:40,1,127.5
286,42,495102,1,0,0:0:0:0:
224,224,495258,1,0,0:0:0:0:
312,168,495415,5,0,0:0:0:0:
288,160,495493,1,0,0:0:0:0:
440,152,495649,1,0,0:0:0:0:
416,160,495727,1,0,0:0:0:0:
512,208,495883,1,0,0:0:0:0:
368,248,496040,2,0,L|376:304,1,42.5
336,360,496196,1,0,0:0:0:0:
384,368,496274,1,0,0:0:0:0:
432,344,496352,1,0,0:0:0:0:
137,290,496508,2,0,L|144:248,1,42.5
216,208,496665,6,0,P|160:168|88:184,2,127.5
176,128,497290,2,0,P|238:99|260:29,2,127.5
265,133,497915,2,0,P|258:201|308:255,2,127.5
352,352,498540,2,0,B|352:304|352:304|416:344|504:312,1,170
496,176,499008,1,0,0:0:0:0:
496,176,499086,1,0,0:0:0:0:
472,152,499165,6,0,L|328:160,2,127.5
280,304,499790,2,0,L|287:219,1,85
263,51,500102,2,0,L|256:136,1,85
72,192,500415,2,0,L|216:200,2,127.5
40,16,501040,5,0,0:0:0:0:
56,48,501118,1,0,0:0:0:0:
24,40,501196,1,0,0:0:0:0:
72,24,501274,1,0,0:0:0:0:
48,32,501352,2,0,L|56:136,1,85
72,192,501586,1,0,0:0:0:0:
24,256,501665,6,0,P|72:272|144:224,2,127.5
136,237,502290,2,0,L|320:248,1,170
376,304,502758,1,0,0:0:0:0:
288,336,502915,6,0,P|240:352|168:304,2,127.5
175,317,503540,2,0,L|-8:327,1,170
40,240,504008,1,0,0:0:0:0:
82,237,504086,1,0,0:0:0:0:
124,235,504164,5,0,0:0:0:0:
72,128,504399,1,0,0:0:0:0:
72,128,504477,1,0,0:0:0:0:
240,168,504633,1,0,0:0:0:0:
392,80,504790,1,0,0:0:0:0:
304,16,504946,2,0,L|296:128,1,85
288,248,505258,6,0,L|496:272,1,170
456,267,505727,1,0,0:0:0:0:
119,228,505883,2,0,L|327:252,1,170
280,232,506274,1,0,0:0:0:0:
272,216,506352,1,0,0:0:0:0:
119,228,506508,1,0,0:0:0:0:
111,212,506586,1,0,0:0:0:0:
103,196,506664,5,0,0:0:0:0:
440,235,506977,1,0,0:0:0:0:
103,196,507290,1,0,0:0:0:0:
192,272,507446,1,0,0:0:0:0:
281,348,507602,1,0,0:0:0:0:
281,348,507758,6,0,B|328:384|328:384|296:240,1,170
272,128,508227,1,0,0:0:0:0:
392,224,508383,2,0,B|439:260|439:260|407:116,1,170
383,4,508852,1,0,0:0:0:0:
383,4,509008,1,0,0:0:0:0:
272,128,509165,5,0,0:0:0:0:
256,368,509477,1,0,0:0:0:0:
272,128,509790,1,0,0:0:0:0:
264,248,509946,1,0,0:0:0:0:
256,368,510102,1,0,0:0:0:0:
256,368,510258,6,0,P|208:312|136:352,1,170
64,288,510727,1,0,0:0:0:0:
64,288,510883,2,0,P|112:232|184:272,1,170
136,352,511352,1,0,0:0:0:0:
112,200,511508,1,0,0:0:0:0:
112,200,511586,1,0,0:0:0:0:
112,200,511665,6,0,L|120:112,1,85
296,168,511977,1,0,0:0:0:0:
112,88,512133,2,0,P|208:104|272:64,1,170
56,24,512602,1,0,0:0:0:0:
280,48,512758,6,0,L|456:64,1,170
496,272,513227,1,0,0:0:0:0:
472,48,513383,2,0,B|432:128|432:128|464:216,1,170
472,352,513852,1,0,0:0:0:0:
472,352,514008,1,0,0:0:0:0:
440,216,514165,6,0,P|416:264|424:312,1,85
296,368,514477,1,0,0:0:0:0:
296,368,514633,2,0,B|264:328|264:328|248:200,1,170
240,128,515102,1,0,0:0:0:0:
232,48,515258,6,0,B|264:88|264:88|280:216,1,170
296,368,515727,2,0,L|192:384,1,85
392,352,516040,1,0,0:0:0:0:
420,347,516118,1,0,0:0:0:0:
448,343,516196,1,0,0:0:0:0:
476,339,516274,1,0,0:0:0:0:
496,312,516352,2,0,L|504:248,1,42.5
440,200,516508,2,0,L|432:136,1,42.5
360,96,516665,6,0,L|160:80,1,170
64,160,517133,1,0,0:0:0:0:
256,144,517290,2,0,P|280:80|264:32,1,85
104,8,517602,2,0,L|112:128,1,85
168,304,517915,6,0,P|152:248|224:264,1,127.5
344,304,518227,1,0,0:0:0:0:
344,304,518383,2,0,P|360:248|288:264,1,127.5
168,304,518696,2,0,L|176:368,2,42.5
48,280,519008,1,0,0:0:0:0:
104,376,519165,6,0,L|296:360,1,170
448,328,519633,1,0,0:0:0:0:
392,184,519790,2,0,P|384:248|400:288,1,85
271,215,520102,2,0,P|284:256|311:289,1,85
304,104,520415,5,0,0:0:0:0:
192,88,520571,1,0,0:0:0:0:
80,88,520727,2,0,L|96:184,1,85
64,80,521040,1,0,0:0:0:0:
67,100,521118,1,0,0:0:0:0:
70,121,521196,1,0,0:0:0:0:
74,142,521274,1,0,0:0:0:0:
77,163,521352,1,0,0:0:0:0:
48,72,521508,2,0,L|64:144,1,42.5
200,96,521665,5,0,0:0:0:0:
208,48,521743,1,0,0:0:0:0:
160,40,521821,1,0,0:0:0:0:
352,40,521977,1,0,0:0:0:0:
304,48,522055,1,0,0:0:0:0:
312,96,522133,1,0,0:0:0:0:
472,16,522290,1,0,0:0:0:0:
392,112,522446,1,0,0:0:0:0:
448,224,522602,2,0,P|472:168|456:120,1,85
312,296,522915,6,0,B|392:288|392:288|424:312|424:312|512:304,1,170
360,376,523383,2,0,L|264:384,1,85
200,344,523618,2,0,L|192:272,1,42.5
360,376,523852,1,0,0:0:0:0:
248,232,524008,2,0,L|240:160,1,42.5
192,120,524165,6,0,P|152:112|112:168,1,85
48,320,524477,1,0,0:0:0:0:
64,192,524633,1,0,0:0:0:0:
48,320,524946,1,0,0:0:0:0:
48,120,525102,1,0,0:0:0:0:
240,296,525258,1,0,0:0:0:0:
280,280,525336,1,0,0:0:0:0:
320,264,525415,6,0,P|360:272|400:216,1,85
464,64,525727,1,0,0:0:0:0:
448,192,525883,1,0,0:0:0:0:
464,64,526196,1,0,0:0:0:0:
464,264,526352,1,0,0:0:0:0:
384,80,526508,1,0,0:0:0:0:
368,72,526586,1,0,0:0:0:0:
352,64,526665,6,0,P|312:88|328:144,1,85
97,172,526977,2,0,P|137:195|178:153,1,85
318,339,527290,2,0,P|318:292|261:278,1,85
256,192,527602,1,0,0:0:0:0:
256,192,527758,1,0,0:0:0:0:
56,336,527915,5,0,0:0:0:0:
208,312,528071,1,0,0:0:0:0:
168,288,528149,1,0,0:0:0:0:
128,264,528227,1,0,0:0:0:0:
56,336,528383,2,0,L|80:392,1,42.5
304,312,528540,1,0,0:0:0:0:
344,288,528618,1,0,0:0:0:0:
384,264,528696,1,0,0:0:0:0:
424,296,528774,1,0,0:0:0:0:
456,336,528852,2,0,L|432:392,1,42.5
304,312,529008,2,0,P|296:280|296:256,1,42.5
400,184,529165,6,0,L|520:192,1,85
320,160,529477,1,0,0:0:0:0:
384,104,529633,2,0,L|504:112,1,85
408,32,529946,2,0,L|528:40,1,85
384,104,530258,2,0,L|504:112,1,85
400,184,530571,6,0,L|520:192,1,85
328,48,530883,1,0,0:0:0:0:
136,72,531040,1,0,0:0:0:0:
160,264,531196,1,0,0:0:0:0:
152,96,531352,1,0,0:0:0:0:
144,240,531508,1,0,0:0:0:0:
80,120,531665,5,0,0:0:0:0:
216,216,531821,1,0,0:0:0:0:
64,285,531977,1,0,0:0:0:0:
80,120,532133,1,0,0:0:0:0:
216,216,532290,1,0,0:0:0:0:
392,200,532446,1,0,0:0:0:0:
304,208,532602,1,0,0:0:0:0:
480,192,532758,1,0,0:0:0:0:
384,32,532915,5,0,0:0:0:0:
312,72,533071,2,0,B|264:96|264:96|408:120,1,170
184,48,533540,2,0,L|168:112,3,42.5
168,56,533852,1,0,0:0:0:0:
159,75,533930,1,0,0:0:0:0:
157,96,534008,1,0,0:0:0:0:
161,117,534086,1,0,0:0:0:0:
171,136,534164,1,0,0:0:0:0:
256,192,534243,12,0,535258,0:0:0:0:
341,248,535415,5,0,0:0:0:0:
352,264,535727,2,0,P|424:256|448:216,1,85
464,168,536040,1,0,0:0:0:0:
384,24,536196,2,0,L|400:120,1,85
464,168,536508,1,0,0:0:0:0:
288,96,536665,6,0,L|280:248,1,127.5
280,304,536977,1,0,0:0:0:0:
288,96,537133,2,0,L|136:88,1,127.5
80,88,537445,1,0,0:0:0:0:
288,96,537602,1,0,0:0:0:0:
320,16,537758,1,0,0:0:0:0:
232,32,537915,6,0,P|240:120|272:208,1,170
128,168,538383,2,0,P|120:256|88:344,1,170
168,360,538852,2,0,L|56:344,1,85
0,192,539165,6,0,B|72:200|128:168|128:168|104:152|80:160,1,170
64,288,539633,2,0,P|88:328|144:344,1,85
232,200,539946,1,0,0:0:0:0:
360,240,540102,2,0,P|416:224|432:176,1,85
432,184,540336,1,0,0:0:0:0:
424,168,540415,6,0,L|280:152,1,127.5
232,200,540727,1,0,0:0:0:0:
296,336,540883,1,0,0:0:0:0:
360,240,541040,1,0,0:0:0:0:
216,80,541196,1,0,0:0:0:0:
218,101,541274,1,0,0:0:0:0:
221,122,541352,1,0,0:0:0:0:
160,176,541508,6,0,P|96:168|80:120,1,85
296,152,541821,2,0,P|344:136|360:80,1,85
160,176,542133,2,0,B|120:200|120:200|96:248,1,85
296,152,542446,2,0,B|344:160|344:160|384:192,1,85
424,8,542758,1,0,0:0:0:0:
496,40,542915,6,0,B|472:152|472:152|456:96,1,170
424,8,543383,1,0,0:0:0:0:
448,120,543540,1,0,0:0:0:0:
472,232,543696,1,0,0:0:0:0:
360,184,543852,1,0,0:0:0:0:
384,296,544008,1,0,0:0:0:0:
384,296,544086,1,0,0:0:0:0:
384,296,544165,6,0,B|344:288|344:288|288:320,1,85
128,88,544477,2,0,B|168:96|168:96|224:64,1,85
128,88,544946,1,0,0:0:0:0:
120,104,545024,1,0,0:0:0:0:
112,120,545102,1,0,0:0:0:0:
384,296,545258,1,0,0:0:0:0:
392,280,545336,1,0,0:0:0:0:
400,264,545415,6,0,L|304:272,1,85
230,278,545727,2,0,L|315:271,1,85
352,184,546040,1,0,0:0:0:0:
352,184,546196,1,0,0:0:0:0:
280,360,546352,1,0,0:0:0:0:
280,360,546508,1,0,0:0:0:0:
112,120,546821,5,0,0:0:0:0:
112,120,546977,2,0,L|208:112,1,85
281,105,547289,2,0,L|197:113,1,85
160,200,547602,1,0,0:0:0:0:
232,24,547758,1,0,0:0:0:0:
232,24,548071,5,0,0:0:0:0:
232,24,548227,2,0,L|240:128,1,85
312,136,548540,2,0,P|336:176|320:216,1,85
200,248,548852,2,0,P|176:208|192:168,1,85
273,275,549165,6,0,L|280:360,1,85
280,360,549477,1,0,0:0:0:0:
184,328,549633,2,0,L|24:344,1,127.5
0,288,549946,2,0,L|-8:224,1,42.5
32,176,550102,2,0,P|40:120|16:88,1,85
88,40,550336,1,0,0:0:0:0:
112,120,550415,6,0,L|208:112,1,85
281,105,550727,2,0,L|197:113,1,85
160,200,551040,1,0,0:0:0:0:
160,200,551196,1,0,0:0:0:0:
232,24,551352,1,0,0:0:0:0:
232,24,551508,1,0,0:0:0:0:
400,264,551821,5,0,0:0:0:0:
400,264,551977,2,0,L|304:272,1,85
230,278,552289,2,0,L|315:271,1,85
352,184,552602,1,0,0:0:0:0:
280,360,552758,1,0,0:0:0:0:
280,360,553071,5,0,0:0:0:0:
280,360,553227,2,0,L|272:256,1,85
200,248,553540,2,0,P|176:208|192:168,1,85
312,136,553852,2,0,P|336:176|320:216,1,85
238,108,554165,6,0,L|232:24,1,85
232,24,554477,1,0,0:0:0:0:
328,56,554633,2,0,L|432:48,1,85
424,32,554868,1,0,0:0:0:0:
488,80,554946,1,0,0:0:0:0:
480,96,555024,1,0,0:0:0:0:
464,112,555102,2,0,P|456:168|480:208,1,85
480,208,555336,1,0,0:0:0:0:
488,232,555415,6,0,P|472:296|384:256,1,170
328,336,555883,2,0,P|280:344|256:384,1,85
416,360,556196,1,0,0:0:0:0:
472,296,556352,1,0,0:0:0:0:
304,248,556508,6,0,P|288:200|312:152,1,85
352,24,556821,2,0,P|368:72|344:120,1,85
288,240,557133,2,0,L|112:248,1,170
33,251,557602,1,0,0:0:0:0:
33,251,557915,6,0,L|155:245,1,85
256,280,558227,1,0,0:0:0:0:
176,312,558383,2,0,P|128:232|184:152,1,170
240,136,558852,1,0,0:0:0:0:
72,40,559008,6,0,B|64:88|64:88|88:128,1,85
240,136,559321,2,0,B|248:88|248:88|224:48,1,85
72,144,559633,2,0,L|278:169,1,170
320,216,560102,1,0,0:0:0:0:
328,352,560258,1,0,0:0:0:0:
320,360,560336,1,0,0:0:0:0:
312,368,560415,6,0,L|208:376,1,85
152,352,560727,1,0,0:0:0:0:
40,360,560883,1,0,0:0:0:0:
208,296,561040,1,0,0:0:0:0:
360,384,561196,1,0,0:0:0:0:
152,352,561352,1,0,0:0:0:0:
224,168,561508,6,0,P|168:176|200:88,1,170
448,200,561977,1,0,0:0:0:0:
328,256,562133,2,0,B|248:232|248:296|136:264,1,170
296,336,562602,2,0,B|280:376|280:376|240:352,1,85
384,320,562915,5,0,0:0:0:0:
472,336,563071,1,0,0:0:0:0:
128,64,563227,1,0,0:0:0:0:
40,48,563383,1,0,0:0:0:0:
384,64,563540,1,0,0:0:0:0:
472,48,563696,1,0,0:0:0:0:
128,320,563852,1,0,0:0:0:0:
40,336,564008,1,0,0:0:0:0:
256,296,564165,6,0,L|256:368,5,56.6666666666667
256,272,564790,1,0,0:0:0:0:
270,256,564868,1,0,0:0:0:0:
275,236,564946,1,0,0:0:0:0:
270,215,565024,1,0,0:0:0:0:
256,200,565102,1,0,0:0:0:0:
240,183,565180,1,0,0:0:0:0:
235,163,565258,1,0,0:0:0:0:
240,142,565336,1,0,0:0:0:0:
256,128,565415,6,0,L|264:16,1,85
368,88,565727,2,0,L|376:-24,1,85
144,88,566040,2,0,L|152:-24,1,85
488,112,566352,2,0,L|496:0,1,85
496,128,566665,5,0,0:0:0:0:
376,104,566821,1,0,0:0:0:0:
264,144,566977,1,0,0:0:0:0:
144,120,567133,2,0,B|96:88|120:8|176:24|176:24|128:48,1,170
32,96,567602,2,0,B|-8:120|-8:120|32:152,1,85
240,304,567915,6,0,L|232:192,1,85
128,264,568227,2,0,L|120:152,1,85
352,264,568540,2,0,L|344:152,1,85
8,288,568852,2,0,L|0:176,1,85
0,304,569165,5,0,0:0:0:0:
120,280,569321,1,0,0:0:0:0:
232,320,569477,1,0,0:0:0:0:
352,296,569633,2,0,P|432:264|496:320,1,170
432,176,570102,1,0,0:0:0:0:
416,352,570258,1,0,0:0:0:0:
416,352,570336,1,0,0:0:0:0:
416,352,570415,6,0,L|256:360,1,127.5
256,360,570727,1,0,0:0:0:0:
256,360,570883,1,0,0:0:0:0:
56,248,571040,2,0,L|216:256,1,127.5
200,240,571352,2,0,P|208:288|184:320,1,85
320,280,571665,6,0,P|304:208|344:136,1,127.5
344,136,571977,2,0,L|448:144,1,85
440,48,572290,2,0,L|355:41,2,85
512,104,572758,1,0,0:0:0:0:
272,80,572915,6,0,B|232:96|192:72|192:72|192:136|144:168|144:168|184:216|160:272|160:272|216:248,1,340
272,232,573696,1,0,0:0:0:0:
56,160,573852,1,0,0:0:0:0:
240,0,574008,1,0,0:0:0:0:
256,312,574165,5,0,0:0:0:0:
336,288,574321,2,0,P|384:296|400:336,1,85
256,312,574633,1,0,0:0:0:0:
464,368,574790,1,0,0:0:0:0:
471,326,574868,1,0,0:0:0:0:
479,284,574946,1,0,0:0:0:0:
486,242,575024,1,0,0:0:0:0:
448,224,575102,1,0,0:0:0:0:
428,187,575180,1,0,0:0:0:0:
432,146,575258,1,0,0:0:0:0:
458,113,575336,1,0,0:0:0:0:
499,102,575415,6,0,P|408:128|328:104,1,170
176,64,575883,1,0,0:0:0:0:
272,32,576040,2,0,P|298:123|274:203,1,170
234,355,576508,1,0,0:0:0:0:
202,259,576665,6,0,L|112:248,1,85
24,272,576977,1,0,0:0:0:0:
48,176,577133,2,0,B|64:120|64:120|40:48|40:48|80:72,1,170
152,112,577602,1,0,0:0:0:0:
152,112,577758,1,0,0:0:0:0:
336,248,577915,6,0,P|416:248|496:208,1,170
400,176,578383,1,0,0:0:0:0:
240,288,578540,2,0,P|320:288|400:328,1,170
304,360,579008,1,0,0:0:0:0:
144,248,579165,6,0,L|152:152,1,85
160,72,579477,1,0,0:0:0:0:
232,128,579633,2,0,P|160:152|72:104,1,170
264,208,580102,1,0,0:0:0:0:
32,184,580258,1,0,0:0:0:0:
24,208,580336,1,0,0:0:0:0:
16,232,580415,6,0,B|32:336|32:336|88:384,1,170
216,328,580883,1,0,0:0:0:0:
104,296,581040,1,0,0:0:0:0:
232,344,581196,1,0,0:0:0:0:
81,378,581352,1,0,0:0:0:0:
256,352,581508,6,0,L|256:168,1,170
256,0,581977,2,0,L|256:96,1,85
256,104,582211,1,0,0:0:0:0:
336,104,582290,2,0,L|392:96,1,42.5
408,24,582446,2,0,L|352:16,1,42.5
176,104,582602,2,0,L|120:96,1,42.5
104,24,582758,2,0,L|160:16,1,42.5
256,0,582915,5,0,0:0:0:0:
104,40,583227,2,0,L|160:32,1,42.5
256,16,583384,5,0,0:0:0:0:
104,56,583696,2,0,L|160:48,1,42.5
256,32,583853,5,0,0:0:0:0:
104,72,584165,2,0,L|160:64,1,42.5
256,48,584322,5,0,0:0:0:0:
104,88,584633,2,0,L|160:80,1,42.5
256,64,584790,5,0,0:0:0:0:
256,48,584868,1,0,0:0:0:0:
256,32,584946,1,0,0:0:0:0:
256,16,585024,1,0,0:0:0:0:
256,0,585102,5,0,0:0:0:0:
256,64,585180,1,0,0:0:0:0:
256,128,585258,1,0,0:0:0:0:
256,192,585336,1,0,0:0:0:0:
256,256,585415,6,0,P|192:320|104:288,1,170
66,247,585883,2,0,P|42:287|58:351,1,85
96,376,586196,1,0,0:0:0:0:
96,168,586352,1,0,0:0:0:0:
216,328,586508,2,0,L|328:320,1,85
464,352,586821,6,0,L|379:358,1,85
376,192,587133,2,0,B|384:232|384:232|368:280,1,85
456,152,587446,1,0,0:0:0:0:
456,152,587602,1,0,0:0:0:0:
288,168,587758,1,0,0:0:0:0:
280,160,587836,1,0,0:0:0:0:
272,152,587915,5,0,0:0:0:0:
208,96,588071,2,0,L|216:0,1,85
256,168,588383,2,0,L|248:252,1,85
168,272,588696,2,0,B|128:280|128:280|80:264,1,85
40,192,589008,1,0,0:0:0:0:
48,344,589165,5,0,0:0:0:0:
48,344,589321,1,0,0:0:0:0:
40,192,589477,1,0,0:0:0:0:
48,344,589633,1,0,0:0:0:0:
128,384,589790,1,0,0:0:0:0:
304,336,589946,1,0,0:0:0:0:
208,336,590102,1,0,0:0:0:0:
384,384,590258,2,0,L|392:336,1,42.5
464,312,590415,6,0,P|488:263|432:208,1,127.5
352,272,590727,1,0,0:0:0:0:
464,312,590883,6,0,B|523:251|523:251|447:210,1,170
352,272,591352,1,0,0:0:0:0:
464,312,591508,6,0,B|544:320|544:320|531:159|531:159|440:216,1,340
309,80,592290,2,0,P|297:41|328:16,1,85
183,15,592602,2,0,P|214:41|202:80,1,85
88,136,592915,5,0,0:0:0:0:
96,48,593071,1,0,0:0:0:0:
96,48,593383,1,0,0:0:0:0:
88,136,593540,2,0,P|120:200|208:176,1,170
176,272,594008,6,0,P|88:240|0:256,1,170
8,264,594477,2,0,L|104:248,1,85
0,280,594790,1,0,0:0:0:0:
160,192,594946,1,0,0:0:0:0:
144,176,595024,1,0,0:0:0:0:
120,168,595102,1,0,0:0:0:0:
168,352,595258,1,0,0:0:0:0:
344,352,595415,5,0,0:0:0:0:
392,168,595571,1,0,0:0:0:0:
512,280,595727,1,0,0:0:0:0:
304,264,595883,1,0,0:0:0:0:
344,56,596040,1,0,0:0:0:0:
384,280,596196,1,0,0:0:0:0:
128,280,596352,1,0,0:0:0:0:
168,56,596508,1,0,0:0:0:0:
104,136,596665,6,0,P|64:136|32:104,1,85
48,16,596977,1,0,0:0:0:0:
72,216,597133,5,0,0:0:0:0:
440,168,597446,1,0,0:0:0:0:
256,192,597758,1,0,0:0:0:0:
256,192,597836,12,0,599165,0:0:0:0:
