osu file format v14

[General]
AudioFilename: audio.mp3
AudioLeadIn: 0
PreviewTime: 58974
Countdown: 0
SampleSet: Soft
StackLeniency: 0.7
Mode: 0
LetterboxInBreaks: 0
WidescreenStoryboard: 1

[Editor]
Bookmarks: 1717,12688,23660,34631,45603,56574,59317,70288
DistanceSpacing: 1
BeatDivisor: 4
GridSize: 32
TimelineZoom: 2.799999

[Metadata]
Title:SAI*KOU Start Dash
TitleUnicode:SAI*KOUスタートダッシュ
Artist:M.A.O, Itou Miku, Tachibana Rika, Yuuki Aoi
ArtistUnicode:M・A・O、伊藤美来、立花理香、悠木碧
Creator:bonrai
Version:NOR*MAL
Source:プリンセスコネクト!Re:Dive
Tags:-NanoRIPE- Anime Japanese Video Game Pop Jpop J-pop Princess Connect! Connect saikou insert redive cygames purikone プリコネR short version ver. MAO priconne character song 15 ペコリーヌ Pecorine コッコロ Kokkoro キャル Kyaru Karyl スズメ Suzume ending ed 激走!ランドソルギルドレース gekisou! Ready, Set, Go! The Landosol Guild Race
BeatmapID:4205059
BeatmapSetID:2019270

[Difficulty]
HPDrainRate:4
CircleSize:3
OverallDifficulty:4
ApproachRate:5
SliderMultiplier:1
SliderTickRate:1

[Events]
//Background and Video events
0,0,"priconnnnnnnnnnnnne.jpg",0,0
//Break Periods
//Storyboard Layer 0 (Background)
//Storyboard Layer 1 (Fail)
//Storyboard Layer 2 (Pass)
//Storyboard Layer 3 (Foreground)
//Storyboard Layer 4 (Overlay)
//Storyboard Sound Samples

[TimingPoints]
346,342.857142857143,4,2,1,60,1,0
1717,-100,4,2,1,70,0,0
12688,-100,4,2,1,60,0,0
34631,-100,4,2,1,65,0,0
56574,-100,4,2,1,60,0,0
59317,-100,4,2,1,75,0,0
68746,-100,4,2,1,75,0,0
70288,-100,4,2,1,75,0,0
80574,-100,4,2,1,75,0,0

[Colours]
Combo1 : 196,211,253
Combo2 : 231,205,254

[HitObjects]
215,384,346,5,2,0:0:0:0:
297,327,688,1,2,0:0:0:0:
247,239,1031,2,1,L|261:171,1,50,10|8,0:0|1:3,0:0:0:0:
303,169,1374,2,1,L|292:120,1,50,4|4,1:3|1:3,0:0:0:0:
320,78,1717,38,1,P|277:59|211:69,1,100,14|8,0:2|0:0,0:0:0:0:
134,35,2403,1,8,0:0:0:0:
134,35,2574,2,1,L|67:56,1,50,2|10,1:2|0:2,0:0:0:0:
42,26,2917,2,1,P|27:79|56:138,1,100,6|2,1:2|1:2,0:0:0:0:
18,167,3431,1,10,0:0:0:0:
18,167,3603,1,2,1:2:0:0:
81,244,3946,2,0,L|129:223,1,50,0|8,1:2|0:0,0:0:0:0:
154,182,4288,6,0,L|269:224,1,100,6|2,1:2|1:2,0:0:0:0:
264,269,4803,1,10,0:2:0:0:
264,269,4974,1,2,3:2:0:0:
357,304,5317,1,2,1:2:0:0:
435,241,5660,2,1,P|431:180|396:133,1,100,6|2,1:2|1:2,0:0:0:0:
441,107,6174,2,1,L|394:67,1,50,10|2,0:0|3:2,0:0:0:0:
361,46,6517,1,10,3:2:0:0:
261,56,6860,1,10,3:2:0:0:
213,143,7203,6,0,P|220:195|251:238,1,100,14|8,0:0|0:0,0:0:0:0:
318,310,7888,1,8,0:0:0:0:
318,310,8060,2,1,L|301:364,1,50,2|10,1:2|0:2,0:0:0:0:
258,381,8403,2,1,L|157:343,1,100,6|2,1:2|1:2,0:0:0:0:
151,302,8917,1,10,0:0:0:0:
151,302,9088,1,6,1:2:0:0:
82,229,9431,2,1,L|104:182,1,50,0|8,1:2|0:0,0:0:0:0:
71,144,9774,6,1,L|173:99,1,100,6|2,1:2|1:2,0:0:0:0:
194,64,10288,1,10,0:2:0:0:
261,137,10631,1,10,0:2:0:0:
350,91,10974,1,10,0:2:0:0:
350,91,11146,1,6,1:2:0:0:
422,159,11488,2,0,L|405:211,2,50,14|10|10,0:0|0:0|0:0,0:0:0:0:
469,143,12003,6,0,P|477:100|460:35,2,100,14|8|6,0:2|0:0|1:2,0:0:0:0:
497,238,13031,2,1,L|464:343,1,100,10|2,0:2|1:2,0:0:0:0:
419,349,13546,2,1,P|369:345|328:301,1,100,2|2,0:2|1:2,0:0:0:0:
283,232,14231,1,2,1:2:0:0:
283,232,14403,2,0,L|220:257,1,50,10|2,0:2|1:2,0:0:0:0:
203,288,14746,2,1,P|151:279|93:224,1,100,2|10,1:2|0:2,0:0:0:0:
46,177,15431,6,1,B|76:81|38:131|72:8,1,150,6|2,1:2|3:2,0:0:0:0:
162,2,16288,1,2,1:2:0:0:
226,78,16631,2,1,L|332:44,1,100,2|2,1:2|1:2,0:0:0:0:
361,16,17146,2,1,P|407:44|431:91,1,100,10|2,0:2|1:2,0:0:0:0:
424,183,17831,2,1,L|405:249,1,49.9999999999997,10|4,3:2|1:3,0:0:0:0:
371,263,18174,6,1,L|382:318,2,50.0000000000002,6|2|10,1:2|1:2|0:2,0:0:0:0:
296,204,18860,2,1,L|270:99,1,100,2|10,1:2|0:2,0:0:0:0:
226,86,19374,1,2,1:2:0:0:
127,71,19717,2,1,L|150:183,1,100,2|2,1:2|1:2,0:0:0:0:
116,209,20231,2,1,L|50:190,2,50.0000000000002,2|2|10,1:2|3:2|0:2,0:0:0:0:
125,313,20917,37,6,1:2:0:0:
125,313,21088,1,2,1:2:0:0:
219,345,21431,1,2,1:2:0:0:
297,283,21774,1,2,1:2:0:0:
393,310,22117,6,1,P|418:253|409:198,1,100,2|2,1:2|1:2,0:0:0:0:
451,181,22631,2,1,L|427:119,1,49.9999999999997,10|2,0:2|1:2,0:0:0:0:
463,94,22974,1,2,3:2:0:0:
388,26,23317,2,0,L|316:60,1,50,10|10,0:2|0:2,0:0:0:0:
292,45,23660,5,6,1:2:0:0:
239,129,24003,2,1,L|277:226,1,100,10|2,0:2|1:2,0:0:0:0:
203,292,24688,1,10,0:2:0:0:
203,292,24860,2,1,P|153:290|111:246,1,100,2|2,1:2|1:2,0:0:0:0:
93,213,25374,1,10,0:2:0:0:
124,118,25717,2,1,L|108:59,2,50,2|2|10,1:2|3:2|0:2,0:0:0:0:
218,152,26403,6,1,B|295:162|295:162|359:112,1,150,2|2,1:2|3:2,0:0:0:0:
404,31,27260,1,2,1:2:0:0:
491,79,27603,2,1,L|455:200,1,100,2|2,1:2|1:2,0:0:0:0:
474,223,28117,2,1,L|389:290,1,100,10|2,0:2|1:2,0:0:0:0:
298,257,28803,1,10,0:0:0:0:
260,351,29146,5,6,1:2:0:0:
260,351,29317,2,1,P|231:365|151:351,1,99.9999999999994,2|2,1:2|1:2,0:0:0:0:
138,316,29831,1,2,1:2:0:0:
194,239,30174,1,10,0:2:0:0:
194,239,30346,1,2,1:2:0:0:
215,141,30688,1,2,1:2:0:0:
147,75,31031,1,10,0:2:0:0:
147,75,31203,2,1,L|167:14,2,50,2|2|10,1:2|1:2|3:2,0:0:0:0:
59,120,31888,37,6,1:2:0:0:
59,120,32060,1,2,1:2:0:0:
105,208,32403,1,2,1:2:0:0:
49,291,32746,1,2,1:2:0:0:
102,374,33088,6,1,L|227:332,1,99.9999999999994,2|2,1:2|1:2,0:0:0:0:
238,314,33603,2,1,L|305:328,1,50,10|2,0:2|1:2,0:0:0:0:
328,353,33946,1,2,3:2:0:0:
426,370,34288,2,1,L|434:304,1,50,10|10,0:2|0:2,0:0:0:0:
470,287,34631,38,1,P|470:229|436:181,1,100,6|10,1:2|0:2,0:0:0:0:
352,168,35317,1,2,1:2:0:0:
297,92,35660,1,10,0:2:0:0:
297,92,35831,2,1,L|191:55,1,100,2|0,1:2|1:2,0:0:0:0:
179,14,36346,1,10,0:2:0:0:
82,39,36688,2,0,L|55:110,1,50,2|0,1:2|1:2,0:0:0:0:
81,132,37031,1,10,0:2:0:0:
161,190,37374,6,0,L|97:295,1,100,6|8,1:2|0:2,0:0:0:0:
153,365,38060,2,0,L|272:330,1,100,2|10,1:2|0:2,0:0:0:0:
251,286,38574,2,1,P|301:263|378:278,1,100,2|2,1:2|1:2,0:0:0:0:
388,299,39088,1,10,0:2:0:0:
388,299,39260,1,2,3:2:0:0:
449,220,39603,2,1,L|424:154,2,50,2|10|2,1:2|0:2|0:2,0:0:0:0:
485,254,40117,6,1,P|485:298|457:349,1,100,6|10,1:2|0:2,0:0:0:0:
365,381,40803,2,1,L|232:346,1,99.9999999999994,2|10,1:2|0:2,0:0:0:0:
249,308,41317,2,1,L|90:366,1,150,2|10,1:2|0:2,0:0:0:0:
44,282,42174,1,2,1:2:0:0:
121,218,42517,2,1,L|136:159,1,50,10|10,0:2|0:2,0:0:0:0:
97,136,42860,38,1,P|92:71|124:16,1,100,6|14,1:2|0:2,0:0:0:0:
201,12,43546,1,0,1:2:0:0:
201,12,43717,2,1,L|263:31,1,50,2|10,1:2|0:2,0:0:0:0:
261,75,44060,1,6,1:2:0:0:
357,103,44403,2,1,L|378:30,1,50,6|8,1:2|0:2,0:0:0:0:
412,27,44746,2,1,P|466:60|479:137,1,99.9999999999994,6|0,1:2|1:2,0:0:0:0:
466,139,45260,1,8,0:0:0:0:
390,202,45603,38,1,L|320:327,1,100,4|10,1:2|0:2,0:0:0:0:
249,329,46288,1,2,1:2:0:0:
188,257,46631,1,10,0:2:0:0:
188,257,46803,2,1,L|89:224,1,99.9999999999994,2|0,1:2|1:2,0:0:0:0:
51,253,47317,2,1,P|7:193|6:143,1,99.9999999999994,10|2,0:2|1:2,0:0:0:0:
12,69,48003,1,10,0:2:0:0:
111,76,48346,6,1,L|227:112,1,100,6|8,1:2|0:2,0:0:0:0:
309,98,49031,1,0,1:0:0:0:
309,98,49203,2,1,L|367:74,1,50,2|10,1:2|0:2,0:0:0:0:
403,92,49546,2,1,P|458:104|476:139,1,100,2|2,1:2|1:2,0:0:0:0:
444,179,50060,1,10,0:2:0:0:
444,179,50231,2,0,L|405:308,1,100,2|0,3:2|1:2,0:0:0:0:
369,297,50746,1,8,0:2:0:0:
269,293,51088,5,6,1:2:0:0:
213,211,51431,1,10,0:0:0:0:
113,196,51774,1,2,1:2:0:0:
56,113,52117,2,1,L|84:46,1,50,10|4,0:0|0:3,0:0:0:0:
116,37,52460,2,1,P|164:22|217:45,1,99.9999999999994,6|10,1:2|0:0,0:0:0:0:
271,118,53146,2,1,L|342:91,2,49.9999999999997,2|0|10,1:2|1:0|0:0,0:0:0:0:
224,206,53831,38,1,L|115:245,1,100,6|8,1:2|0:0,0:0:0:0:
33,268,54517,2,1,L|55:335,1,50,4|2,1:2|1:2,0:0:0:0:
88,346,54860,1,10,0:0:0:0:
180,349,55203,6,1,B|231:359|231:359|270:319,1,100,12|2,0:0|1:2,0:0:0:0:
313,305,55717,1,14,0:2:0:0:
313,305,55888,2,1,L|382:327,1,49.9999999999976,10|2,0:0|1:2,0:0:0:0:
401,291,56231,1,14,0:2:0:0:
383,192,56574,38,1,B|255:234|309:154|115:207,1,249.999999999999,6|2,1:2|3:2,0:0:0:0:
84,116,57774,6,1,L|103:15,1,99.9999999999973,14|10,0:0|0:0,0:0:0:0:
151,8,58288,2,1,L|244:31,1,49.9999999999987,10|10,0:0|0:0,0:0:0:0:
220,65,58631,1,14,0:0:0:0:
310,108,58974,2,0,L|287:189,1,50,8|2,0:1|0:0,0:0:0:0:
252,179,59317,6,1,L|123:200,1,99.9999999999973,4|10,1:2|0:0,0:0:0:0:
70,138,60003,2,1,L|59:62,2,49.9999999999987,2|2|8,1:2|1:2|0:0,0:0:0:0:
36,175,60517,2,1,P|18:238|48:291,1,99.9999999999952,6|2,1:2|1:2,0:0:0:0:
2,311,61031,1,10,0:0:0:0:
2,311,61203,1,2,3:2:0:0:
83,368,61546,2,0,L|154:343,1,50,0|8,1:0|0:0,0:0:0:0:
175,371,61888,38,1,L|203:248,1,100.000000000002,6|2,1:2|1:2,0:0:0:0:
246,254,62403,1,10,0:0:0:0:
246,254,62574,2,1,P|252:193|225:145,2,100,2|2|6,3:2|1:2|1:2,0:0:0:0:
318,331,63603,1,2,1:2:0:0:
318,331,63774,2,1,L|397:302,1,49.9999999999997,14|10,0:2|0:2,0:0:0:0:
406,341,64117,2,1,P|441:292|444:239,1,100.000000000002,6|10,1:2|0:0,0:0:0:0:
406,161,64803,38,1,B|291:207,1,100,6|10,1:2|0:0,0:0:0:0:
232,257,65488,2,1,L|115:207,1,99.9999999999994,2|10,1:2|0:2,0:0:0:0:
95,240,66003,2,1,P|62:195|69:129,1,99.9999999999994,6|2,1:2|1:2,0:0:0:0:
22,121,66517,1,10,0:2:0:0:
22,121,66688,2,1,L|73:10,1,99.9999999999994,6|0,1:2|1:0,0:0:0:0:
112,18,67203,1,8,0:0:0:0:
112,18,67374,5,6,1:2:0:0:
178,100,67717,1,2,1:2:0:0:
178,100,67888,2,0,L|236:77,1,50,10|2,0:0|1:2,0:0:0:0:
272,65,68231,1,10,0:2:0:0:
338,139,68574,1,10,0:2:0:0:
338,139,68746,2,1,L|287:271,2,99.9999999999994,6|14|14,1:2|0:2|0:2,0:0:0:0:
382,114,69603,2,1,L|367:62,1,50.0000000000018,6|8,1:2|0:2,0:0:0:0:
394,24,69946,2,1,L|467:0,1,50.0000000000018,8|4,1:3|1:3,0:0:0:0:
483,35,70288,5,4,1:2:0:0:
509,131,70631,2,1,L|469:243,1,99.9999999999994,10|2,0:0|1:2,0:0:0:0:
431,250,71146,2,1,L|447:324,1,50.0000000000018,2|8,1:2|0:0,0:0:0:0:
459,339,71488,2,1,P|446:360|362:354,1,99.9999999999994,6|2,1:2|1:2,0:0:0:0:
338,335,72003,1,10,0:0:0:0:
338,335,72174,1,2,3:2:0:0:
242,306,72517,1,0,1:0:0:0:
193,218,72860,38,1,L|61:268,1,99.9999999999994,6|2,1:2|1:2,0:0:0:0:
59,234,73374,1,10,0:0:0:0:
59,234,73546,1,2,3:2:0:0:
23,140,73888,1,2,1:2:0:0:
82,59,74231,2,1,P|142:62|182:107,1,100,6|2,1:2|1:2,0:0:0:0:
200,127,74746,2,1,L|279:158,1,50.0000000000018,14|10,0:2|0:2,0:0:0:0:
291,124,75088,1,6,1:2:0:0:
361,195,75431,2,1,L|329:271,1,50.0000000000018,10|10,0:0|0:0,0:0:0:0:
355,289,75774,38,1,P|401:319|480:296,1,99.9999999999994,6|10,1:2|0:0,0:0:0:0:
485,226,76460,1,2,1:2:0:0:
455,135,76803,1,10,0:2:0:0:
455,135,76974,2,1,L|325:65,1,99.9999999999994,6|2,1:2|1:2,0:0:0:0:
353,44,77488,1,10,0:2:0:0:
353,44,77660,2,1,P|267:53|237:90,1,99.9999999999994,6|0,1:2|1:0,0:0:0:0:
228,98,78174,1,8,0:0:0:0:
228,98,78346,5,6,1:2:0:0:
137,139,78688,1,2,1:2:0:0:
137,139,78860,2,0,L|122:202,1,50,8|2,0:0|1:2,0:0:0:0:
113,236,79203,1,10,0:2:0:0:
197,299,79546,1,10,0:2:0:0:
197,299,79717,1,6,1:2:0:0:
290,259,80060,1,14,0:0:0:0:
290,259,80231,2,0,L|304:184,1,50,10|10,0:0|0:0,0:0:0:0:
311,161,80574,5,14,0:0:0:0:
