osu file format v14

[General]
AudioFilename: audio.mp3
AudioLeadIn: 0
PreviewTime: 58885
Countdown: 0
SampleSet: Normal
StackLeniency: 0.7
Mode: 1
LetterboxInBreaks: 0
WidescreenStoryboard: 1

[Editor]
DistanceSpacing: 0.9
BeatDivisor: 4
GridSize: 32
TimelineZoom: 0.6999999

[Metadata]
Title:SAI*KOU Start Dash
TitleUnicode:SAI*KOUスタートダッシュ
Artist:M.A.O, Itou Miku, Tachibana Rika, Yuuki Aoi
ArtistUnicode:M・A・O、伊藤美来、立花理香、悠木碧
Creator:Cynplytholowazy
Version:Kantan
Source:プリンセスコネクト!Re:Dive
Tags:Anime Japanese Video Game Pop Jpop J-pop Princess Connect! Connect saikou insert redive cygames princon purikone プリコネR short version ver. MAO priconne character song 15 ペコリーヌ Pecorine コッコロ Kokkoro キャル Kyaru Karyl スズメ Suzume Idealism Nardoxyribonucleic kanpakyin
BeatmapID:2468578
BeatmapSetID:1184151

[Difficulty]
HPDrainRate:9
CircleSize:7
OverallDifficulty:3
ApproachRate:10
SliderMultiplier:1.4
SliderTickRate:1

[Events]
//Background and Video events
0,0,"__karyl_princess_connect_and_1_more_drawn_by_murata_ryou__sample-da701f7ebeb276d822b0d36dc807f63b.png",0,-90
//Break Periods
//Storyboard Layer 0 (Background)
//Storyboard Layer 1 (Fail)
//Storyboard Layer 2 (Pass)
//Storyboard Layer 3 (Foreground)
//Storyboard Layer 4 (Overlay)
//Storyboard Sound Samples

[TimingPoints]
346,342.857142857143,4,1,0,35,1,0
346,-100,4,1,0,35,0,0
860,-100,4,1,0,50,0,0
1374,-100,4,1,0,65,0,0
12346,-100,4,1,0,55,0,0
59146,-100,4,1,0,75,0,0
59317,-100,4,1,0,75,0,1
80574,-100,4,1,0,75,0,0

[HitObjects]
256,192,1717,5,4,0:0:0:0:
256,192,2403,1,2,0:0:0:0:
256,192,2917,1,4,0:0:0:0:
256,192,3603,1,2,0:0:0:0:
256,192,4288,1,4,0:0:0:0:
256,192,4803,1,2,0:0:0:0:
256,192,5146,1,2,0:0:0:0:
256,192,5660,1,4,0:0:0:0:
256,192,6174,1,6,0:0:0:0:
256,192,7203,1,4,0:0:0:0:
256,192,7888,1,2,0:0:0:0:
256,192,8403,1,4,0:0:0:0:
256,192,9088,1,6,0:0:0:0:
256,192,9774,1,6,0:0:0:0:
256,192,10288,1,2,0:0:0:0:
256,192,10631,1,0,0:0:0:0:
256,192,11146,1,4,0:0:0:0:
256,192,12003,1,6,0:0:0:0:
256,192,12688,1,4,0:0:0:0:
256,192,13374,1,2,0:0:0:0:
256,192,13888,1,0,0:0:0:0:
256,192,14403,1,0,0:0:0:0:
256,192,14746,1,2,0:0:0:0:
256,192,15431,1,4,0:0:0:0:
256,192,16631,1,2,0:0:0:0:
256,192,17488,1,2,0:0:0:0:
256,192,17831,1,2,0:0:0:0:
256,192,18174,1,4,0:0:0:0:
256,192,18860,1,2,0:0:0:0:
256,192,19374,1,0,0:0:0:0:
256,192,19888,1,0,0:0:0:0:
256,192,20231,1,2,0:0:0:0:
256,192,20917,1,6,0:0:0:0:
256,192,21431,1,0,0:0:0:0:
256,192,21774,1,2,0:0:0:0:
256,192,22117,1,2,0:0:0:0:
256,192,22974,1,2,0:0:0:0:
256,192,23660,1,4,0:0:0:0:
256,192,24346,1,2,0:0:0:0:
256,192,24860,1,0,0:0:0:0:
256,192,25374,1,0,0:0:0:0:
256,192,25717,1,2,0:0:0:0:
256,192,26403,1,4,0:0:0:0:
256,192,27603,1,2,0:0:0:0:
256,192,28460,1,2,0:0:0:0:
256,192,28803,1,2,0:0:0:0:
256,192,29146,1,4,0:0:0:0:
256,192,29831,1,2,0:0:0:0:
256,192,30346,1,0,0:0:0:0:
256,192,30688,1,0,0:0:0:0:
256,192,31203,1,2,0:0:0:0:
256,192,31888,1,6,0:0:0:0:
256,192,32403,1,0,0:0:0:0:
256,192,32746,1,2,0:0:0:0:
256,192,33088,1,2,0:0:0:0:
256,192,33946,1,2,0:0:0:0:
256,192,34631,1,4,0:0:0:0:
256,192,35317,1,0,0:0:0:0:
256,192,35831,1,2,0:0:0:0:
256,192,36688,1,2,0:0:0:0:
256,192,37374,1,4,0:0:0:0:
256,192,38060,1,2,0:0:0:0:
256,192,38574,1,6,0:0:0:0:
256,192,40117,1,4,0:0:0:0:
256,192,40803,1,2,0:0:0:0:
256,192,41317,1,0,0:0:0:0:
256,192,42174,1,2,0:0:0:0:
256,192,42860,1,4,0:0:0:0:
256,192,43203,1,6,0:0:0:0:
256,192,43717,1,6,0:0:0:0:
256,192,44060,1,6,0:0:0:0:
256,192,44746,1,6,0:0:0:0:
256,192,45603,1,4,0:0:0:0:
256,192,46288,1,2,0:0:0:0:
256,192,46803,1,0,0:0:0:0:
256,192,47660,1,2,0:0:0:0:
256,192,48346,1,4,0:0:0:0:
256,192,49203,1,0,0:0:0:0:
256,192,49546,1,2,0:0:0:0:
256,192,50231,1,2,0:0:0:0:
256,192,51088,1,4,0:0:0:0:
256,192,51774,1,2,0:0:0:0:
256,192,52460,1,4,0:0:0:0:
256,192,53146,1,2,0:0:0:0:
256,192,53831,1,4,0:0:0:0:
256,192,54517,1,4,0:0:0:0:
256,192,55203,1,6,0:0:0:0:
256,192,55717,1,6,0:0:0:0:
256,192,56231,1,4,0:0:0:0:
256,192,56574,1,6,0:0:0:0:
256,192,57774,1,6,0:0:0:0:
256,192,58974,1,6,0:0:0:0:
256,192,59317,1,4,0:0:0:0:
256,192,60517,1,4,0:0:0:0:
256,192,60860,1,2,0:0:0:0:
256,192,61203,1,2,0:0:0:0:
256,192,61888,1,4,0:0:0:0:
256,192,62574,1,2,0:0:0:0:
256,192,63260,1,4,0:0:0:0:
256,192,63774,1,4,0:0:0:0:
256,192,64117,1,6,0:0:0:0:
256,192,64803,1,4,0:0:0:0:
256,192,66003,1,4,0:0:0:0:
256,192,66346,1,2,0:0:0:0:
256,192,66688,1,6,0:0:0:0:
256,192,67374,1,6,0:0:0:0:
256,192,67888,1,2,0:0:0:0:
256,192,68231,1,0,0:0:0:0:
256,192,68746,1,4,0:0:0:0:
256,192,69088,1,4,0:0:0:0:
256,192,69603,1,4,0:0:0:0:
256,192,70288,1,4,0:0:0:0:
256,192,71488,1,4,0:0:0:0:
256,192,71831,1,2,0:0:0:0:
256,192,72174,1,2,0:0:0:0:
256,192,72860,1,4,0:0:0:0:
256,192,73546,1,2,0:0:0:0:
256,192,74231,1,4,0:0:0:0:
256,192,74746,1,4,0:0:0:0:
256,192,75088,1,6,0:0:0:0:
256,192,75774,1,4,0:0:0:0:
256,192,76974,1,4,0:0:0:0:
256,192,77317,1,2,0:0:0:0:
256,192,77660,1,6,0:0:0:0:
256,192,78346,1,4,0:0:0:0:
256,192,78860,1,2,0:0:0:0:
256,192,79203,1,0,0:0:0:0:
256,192,79717,1,4,0:0:0:0:
256,192,80231,1,4,0:0:0:0:
256,192,80574,1,6,0:0:0:0:
