osu file format v14

[General]
AudioFilename: audio.mp3
AudioLeadIn: 0
PreviewTime: 51885
Countdown: 0
SampleSet: None
StackLeniency: 0.7
Mode: 0
LetterboxInBreaks: 0
WidescreenStoryboard: 0

[Editor]
DistanceSpacing: 1.4
BeatDivisor: 4
GridSize: 8
TimelineZoom: 1.4

[Metadata]
Title:Final Song (Jauz % Diplo Remix)
TitleUnicode:Final Song (Jauz % Diplo Remix)
Artist:M
ArtistUnicode:MØ
Creator:Soggypancake
Version:Insane
Source:
Tags:
BeatmapID:1187577
BeatmapSetID:561732

[Difficulty]
HPDrainRate:6
CircleSize:4.5
OverallDifficulty:5
ApproachRate:10
SliderMultiplier:2
SliderTickRate:1

[Events]
//Background and Video events
0,0,"light_in_the_dark_by_sylar113-d6t1p5m.jpg",0,0
//Break Periods
//Storyboard Layer 0 (Background)
//Storyboard Layer 1 (Fail)
//Storyboard Layer 2 (Pass)
//Storyboard Layer 3 (Foreground)
//Storyboard Sound Samples

[TimingPoints]
100,476.190476190476,4,1,0,100,1,0
57242,-50,4,1,0,65,0,1
85814,-50,4,1,0,65,0,0

[HitObjects]
56,288,26766,5,8,0:0:0:0:
168,200,27004,1,0,0:0:0:0:
328,304,27242,1,8,0:0:0:0:
400,184,27480,1,8,0:0:0:0:
288,96,27719,2,0,P|224:96|187:99,2,100
176,256,28909,1,0,0:0:0:0:
352,296,29147,2,0,P|320:232|288:208,1,100
96,104,29623,2,0,P|192:120|216:112,1,100
304,144,30099,2,0,L|288:288,1,100
160,80,30576,1,8,0:0:0:0:
400,240,30814,1,8,0:0:0:0:
64,240,31052,1,8,0:0:0:0:
392,72,31290,1,8,0:0:0:0:
48,160,31528,1,8,0:0:0:0:
376,336,31766,1,8,0:0:0:0:
272,48,32004,1,8,0:0:0:0:
232,304,32480,1,0,0:0:0:0:
232,64,32719,1,8,0:0:0:0:
208,144,32957,2,0,P|152:192|104:208,1,100
136,80,33314,2,0,L|296:64,1,150
368,56,33909,1,0,0:0:0:0:
336,160,34147,1,8,0:0:0:0:
200,88,34385,1,0,0:0:0:0:
104,56,34623,1,8,0:0:0:0:
144,136,34742,2,0,P|144:264|120:288,1,150
64,200,35338,1,8,0:0:0:0:
240,48,35576,1,8,0:0:0:0:
248,208,35695,1,8,0:0:0:0:
160,64,35814,1,8,0:0:0:0:
328,168,36052,1,0,0:0:0:0:
296,256,36290,2,0,L|112:296,2,150
424,224,37242,1,0,0:0:0:0:
280,128,37599,2,0,L|104:104,1,150
32,104,38195,1,0,0:0:0:0:
344,288,38433,1,8,0:0:0:0:
176,208,38671,1,0,0:0:0:0:
240,176,38790,1,0,0:0:0:0:
120,240,38909,1,8,0:0:0:0:
296,152,39028,1,0,0:0:0:0:
56,264,39147,1,8,0:0:0:0:
400,96,39385,1,0,0:0:0:0:
336,56,39504,1,8,0:0:0:0:
264,48,40099,1,8,0:0:0:0:
264,48,40338,1,0,0:0:0:0:
264,48,40576,1,8,0:0:0:0:
264,48,40814,1,0,0:0:0:0:
264,48,41052,1,8,0:0:0:0:
264,48,41290,1,0,0:0:0:0:
264,48,41528,1,8,0:0:0:0:
264,48,41766,1,0,0:0:0:0:
96,200,42004,5,8,0:0:0:0:
408,312,42361,1,0,0:0:0:0:
408,312,42480,1,8,0:0:0:0:
320,104,42719,1,0,0:0:0:0:
336,352,42957,1,8,0:0:0:0:
192,88,43314,1,0,0:0:0:0:
192,88,43433,1,8,0:0:0:0:
432,120,43671,1,0,0:0:0:0:
160,312,43909,1,8,0:0:0:0:
320,80,44266,1,0,0:0:0:0:
320,80,44385,1,8,0:0:0:0:
280,352,44623,1,0,0:0:0:0:
160,96,44861,1,8,0:0:0:0:
384,208,45219,1,8,0:0:0:0:
384,208,45338,1,0,0:0:0:0:
144,320,45576,1,8,0:0:0:0:
88,160,45814,1,0,0:0:0:0:
368,336,46171,1,8,0:0:0:0:
368,336,46290,1,0,0:0:0:0:
272,120,46528,1,8,0:0:0:0:
64,320,46766,1,0,0:0:0:0:
392,208,47123,1,8,0:0:0:0:
392,208,47242,1,0,0:0:0:0:
360,48,47480,1,8,0:0:0:0:
240,352,47719,1,0,0:0:0:0:
128,128,48076,1,8,0:0:0:0:
128,128,48195,1,0,0:0:0:0:
464,128,48433,1,8,0:0:0:0:
192,32,48671,1,0,0:0:0:0:
192,320,49028,1,8,0:0:0:0:
192,320,49147,1,0,0:0:0:0:
408,248,49385,1,8,0:0:0:0:
144,128,49623,1,0,0:0:0:0:
424,328,49980,1,8,0:0:0:0:
424,328,50099,1,0,0:0:0:0:
112,224,50338,1,8,0:0:0:0:
376,72,50576,1,0,0:0:0:0:
200,312,50933,1,8,0:0:0:0:
200,312,51052,1,0,0:0:0:0:
376,72,51290,1,8,0:0:0:0:
104,128,51528,1,0,0:0:0:0:
400,248,51885,1,8,0:0:0:0:
400,248,52004,1,0,0:0:0:0:
104,128,52242,1,8,0:0:0:0:
280,40,52480,1,0,0:0:0:0:
296,360,52838,1,0,0:0:0:0:
296,360,52957,1,8,0:0:0:0:
392,80,53195,1,8,0:0:0:0:
96,304,53433,1,0,0:0:0:0:
360,256,53671,1,0,0:0:0:0:
248,160,53790,1,0,0:0:0:0:
304,208,53909,1,0,0:0:0:0:
192,112,54028,1,0,0:0:0:0:
408,304,54147,1,8,0:0:0:0:
144,72,54266,1,0,0:0:0:0:
456,352,54385,1,0,0:0:0:0:
384,88,54623,1,0,0:0:0:0:
384,88,54742,1,8,0:0:0:0:
304,120,55099,1,8,0:0:0:0:
160,272,55338,1,0,0:0:0:0:
80,352,55576,1,8,0:0:0:0:
80,352,55814,1,8,0:0:0:0:
80,352,56052,1,8,0:0:0:0:
80,352,56290,1,8,0:0:0:0:
80,352,56528,1,8,0:0:0:0:
80,352,56766,1,8,0:0:0:0:
80,352,57004,1,8,0:0:0:0:
272,344,57242,2,0,L|304:144,1,200
320,32,57599,1,8,0:0:0:0:
416,160,57719,1,0,0:0:0:0:
320,120,57838,1,0,0:0:0:0:
240,72,57957,2,0,L|136:104,1,100
112,80,58195,2,0,P|152:184|96:288,1,200
40,280,58552,1,0,0:0:0:0:
56,184,58671,1,0,0:0:0:0:
128,344,58790,1,0,0:0:0:0:
176,256,58909,2,0,L|304:216,1,100
400,264,59147,2,0,P|384:152|288:112,1,200
216,176,59504,1,8,0:0:0:0:
136,208,59623,1,0,0:0:0:0:
64,168,59742,1,0,0:0:0:0:
104,104,59861,2,0,L|240:80,1,100
360,80,60099,2,0,L|248:296,1,200
224,344,60457,1,0,0:0:0:0:
208,224,60576,1,0,0:0:0:0:
456,304,60695,1,0,0:0:0:0:
384,280,60814,2,0,L|288:248,1,100
80,176,61052,1,8,0:0:0:0:
184,256,61290,1,8,0:0:0:0:
184,168,61409,1,0,0:0:0:0:
272,248,61528,1,0,0:0:0:0:
120,216,61647,1,8,0:0:0:0:
288,144,61766,1,0,0:0:0:0:
232,360,62004,1,0,0:0:0:0:
184,96,62242,1,0,0:0:0:0:
200,192,62361,1,8,0:0:0:0:
48,112,62480,1,8,0:0:0:0:
344,56,62599,1,8,0:0:0:0:
72,208,62719,1,8,0:0:0:0:
432,56,62957,1,0,0:0:0:0:
368,264,63195,1,8,0:0:0:0:
240,136,63314,1,0,0:0:0:0:
384,224,63433,1,8,0:0:0:0:
120,152,63552,1,8,0:0:0:0:
368,344,63671,1,8,0:0:0:0:
352,104,63909,1,0,0:0:0:0:
352,104,64028,1,0,0:0:0:0:
464,192,64147,1,0,0:0:0:0:
464,192,64266,1,8,0:0:0:0:
464,192,64385,1,8,0:0:0:0:
256,128,64623,1,0,0:0:0:0:
144,80,64861,1,8,0:0:0:0:
80,296,65099,1,0,0:0:0:0:
168,232,65219,1,8,0:0:0:0:
248,176,65338,2,0,L|328:104,1,100
392,48,65576,1,8,0:0:0:0:
312,256,65814,1,0,0:0:0:0:
320,64,66052,1,8,0:0:0:0:
408,256,66171,1,0,0:0:0:0:
256,152,66290,2,0,L|136:208,1,100
64,248,66528,1,0,0:0:0:0:
136,80,66766,1,8,0:0:0:0:
352,328,67004,1,0,0:0:0:0:
224,320,67123,1,8,0:0:0:0:
288,248,67242,2,0,L|408:160,1,100
160,272,67480,1,8,0:0:0:0:
448,128,67719,1,0,0:0:0:0:
168,96,67957,1,8,0:0:0:0:
272,224,68076,1,0,0:0:0:0:
144,168,68195,2,0,L|296:208,1,100
360,72,68433,1,0,0:0:0:0:
56,280,68671,1,8,0:0:0:0:
408,256,68909,1,0,0:0:0:0:
296,184,69028,1,8,0:0:0:0:
160,120,69147,1,0,0:0:0:0:
144,248,69266,1,8,0:0:0:0:
408,136,69385,1,8,0:0:0:0:
176,96,69623,1,0,0:0:0:0:
224,240,69861,1,8,0:0:0:0:
240,80,69980,1,0,0:0:0:0:
240,184,70099,1,8,0:0:0:0:
40,296,70219,1,8,0:0:0:0:
336,192,70338,1,0,0:0:0:0:
216,144,70576,1,8,0:0:0:0:
216,264,70814,1,0,0:0:0:0:
392,272,70933,1,8,0:0:0:0:
208,144,71052,1,0,0:0:0:0:
336,176,71290,1,8,0:0:0:0:
80,216,71528,1,8,0:0:0:0:
104,176,71647,1,0,0:0:0:0:
264,112,71766,1,8,0:0:0:0:
136,184,71885,1,0,0:0:0:0:
96,136,72004,1,0,0:0:0:0:
392,264,72242,1,8,0:0:0:0:
336,72,72480,1,0,0:0:0:0:
208,64,72719,1,8,0:0:0:0:
152,16,72838,1,8,0:0:0:0:
352,264,72957,1,8,0:0:0:0:
368,56,73195,1,0,0:0:0:0:
88,168,73433,1,8,0:0:0:0:
440,208,73671,1,0,0:0:0:0:
160,144,73790,1,8,0:0:0:0:
168,144,73909,1,0,0:0:0:0:
480,104,74147,1,8,0:0:0:0:
192,232,74385,1,0,0:0:0:0:
296,240,74623,1,8,0:0:0:0:
352,184,74742,1,0,0:0:0:0:
360,184,74861,1,8,0:0:0:0:
440,96,75099,1,0,0:0:0:0:
160,80,75338,1,8,0:0:0:0:
88,112,75576,1,8,0:0:0:0:
88,112,75695,1,0,0:0:0:0:
88,112,75814,1,8,0:0:0:0:
216,32,76052,1,8,0:0:0:0:
216,32,76290,1,0,0:0:0:0:
160,64,76528,1,8,0:0:0:0:
160,64,76647,1,0,0:0:0:0:
160,64,76766,1,8,0:0:0:0:
88,288,76885,1,8,0:0:0:0:
88,288,77004,1,0,0:0:0:0:
160,64,77242,1,8,0:0:0:0:
248,96,77480,1,8,0:0:0:0:
160,64,77599,1,8,0:0:0:0:
248,96,77719,1,0,0:0:0:0:
224,152,77838,1,0,0:0:0:0:
160,64,77957,1,8,0:0:0:0:
160,64,78195,1,0,0:0:0:0:
160,64,78433,1,8,0:0:0:0:
160,64,78552,1,0,0:0:0:0:
176,144,78671,1,8,0:0:0:0:
216,176,78909,1,0,0:0:0:0:
328,184,79147,1,8,0:0:0:0:
64,256,79385,1,0,0:0:0:0:
296,152,79504,1,8,0:0:0:0:
280,192,79623,1,0,0:0:0:0:
288,32,79861,1,8,0:0:0:0:
272,280,80099,1,0,0:0:0:0:
392,192,80338,1,8,0:0:0:0:
392,192,80457,1,0,0:0:0:0:
360,192,80576,1,8,0:0:0:0:
152,120,80814,1,0,0:0:0:0:
400,120,81052,1,8,0:0:0:0:
160,224,81290,1,0,0:0:0:0:
176,232,81409,1,8,0:0:0:0:
208,256,81528,1,0,0:0:0:0:
352,64,81766,1,8,0:0:0:0:
224,104,82004,1,0,0:0:0:0:
320,272,82242,1,8,0:0:0:0:
400,232,82361,1,0,0:0:0:0:
416,224,82480,1,8,0:0:0:0:
160,144,82719,1,0,0:0:0:0:
496,192,82957,1,8,0:0:0:0:
352,216,83195,1,0,0:0:0:0:
192,256,83314,1,0,0:0:0:0:
112,72,83433,1,8,0:0:0:0:
248,56,83671,1,8,0:0:0:0:
248,296,83909,1,0,0:0:0:0:
328,144,84147,1,8,0:0:0:0:
328,144,84266,1,0,0:0:0:0:
328,144,84385,1,8,0:0:0:0:
112,72,84504,1,0,0:0:0:0:
208,104,84623,1,0,0:0:0:0:
296,192,84861,1,8,0:0:0:0:
336,240,85099,1,0,0:0:0:0:
240,208,85219,1,8,0:0:0:0:
240,208,85338,1,0,0:0:0:0:
240,208,85457,1,8,0:0:0:0:
112,72,85576,1,0,0:0:0:0:
248,184,85814,1,0,0:0:0:0:
296,88,86052,1,8,0:0:0:0:
368,240,86290,1,0,0:0:0:0:
