osu file format v14

[General]
AudioFilename: audio.mp3
AudioLeadIn: 0
PreviewTime: 137764
Countdown: 0
SampleSet: Soft
StackLeniency: 0.3
Mode: 0
LetterboxInBreaks: 0
WidescreenStoryboard: 0

[Editor]
Bookmarks: 91851,158633,227506
DistanceSpacing: 0.7
BeatDivisor: 4
GridSize: 4
TimelineZoom: 2.3

[Metadata]
Title:Sayonara Tsundere
TitleUnicode:さよならツンデレ
Artist:Lzie
ArtistUnicode:Lzie
Creator:Kobold84
Version:Insane
Source:
Tags:supercell breakcore lolicore
BeatmapID:1944828
BeatmapSetID:931415

[Difficulty]
HPDrainRate:5
CircleSize:4
OverallDifficulty:8
ApproachRate:9.5
SliderMultiplier:1.8
SliderTickRate:1

[Events]
//Background and Video events
0,0,"65529270_p0.jpg",0,0
//Break Periods
2,158836,165416
//Storyboard Layer 0 (Background)
//Storyboard Layer 1 (Fail)
//Storyboard Layer 2 (Pass)
//Storyboard Layer 3 (Foreground)
//Storyboard Sound Samples

[TimingPoints]
28,260.869565217391,4,2,0,60,1,0
28,-200,4,2,0,60,0,0
8375,-142.857142857143,4,2,0,60,0,0
16723,-125,4,2,0,60,0,0
20897,-111.111111111111,4,2,0,60,0,0
60549,-83.3333333333333,4,2,0,60,0,0
62114,-90.9090909090909,4,2,0,60,0,0
64723,-111.111111111111,4,2,0,60,0,0
73071,-142.857142857143,4,2,0,60,0,0
81419,-111.111111111111,4,2,0,60,0,0
91854,-100,4,2,0,60,0,0
100723,-125,4,2,0,60,0,0
108549,-100,4,2,0,60,0,0
121071,-125,4,2,0,60,0,0
129419,-100,4,2,0,60,0,0
131506,-125,4,2,0,60,0,0
134506,-111.111111111111,4,2,0,60,0,0
137767,-100,4,2,0,60,0,0
166984,-166.666666666667,4,2,0,60,0,0
175332,-111.111111111111,4,2,0,60,0,0
187854,-166.666666666666,4,2,0,60,0,0
196201,-142.857142857142,4,2,0,60,0,0
198288,-125,4,2,0,60,0,0
200375,-111.111111111111,4,2,0,60,0,0
208723,-100,4,2,0,60,0,0
221245,-111.111111111111,4,2,0,60,0,0

[HitObjects]
36,48,28,5,0,0:0:0:0:
36,48,288,1,0,0:0:0:0:
36,48,549,2,0,L|136:40,1,90
65,130,1071,5,0,0:0:0:0:
65,130,1332,1,0,0:0:0:0:
65,130,1593,2,0,L|166:123,1,90
94,212,2114,5,0,0:0:0:0:
94,212,2375,1,0,0:0:0:0:
94,212,2636,2,0,L|194:204,1,90
123,294,3158,5,0,0:0:0:0:
123,294,3419,1,0,0:0:0:0:
123,294,3680,2,0,L|223:286,1,90
154,122,4201,5,0,0:0:0:0:
154,122,4462,1,0,0:0:0:0:
154,122,4723,2,0,L|65:130,1,90
125,40,5245,5,0,0:0:0:0:
125,40,5506,1,0,0:0:0:0:
125,40,5767,2,0,L|36:48,1,90
183,204,6288,5,0,0:0:0:0:
183,204,6549,1,0,0:0:0:0:
183,204,6810,2,0,L|94:212,1,90
212,286,7332,5,0,0:0:0:0:
212,286,7593,1,0,0:0:0:0:
212,286,7854,2,0,L|123:294,1,90
403,178,8375,5,0,0:0:0:0:
403,178,8506,1,0,0:0:0:0:
403,178,8636,2,0,P|386:151|381:120,1,62.9999980773926
445,38,8897,2,0,P|412:70|311:75,1,125.999996154785
266,24,9288,1,0,0:0:0:0:
266,24,9419,2,0,P|204:29|156:69,1,125.999996154785
116,189,9810,1,0,0:0:0:0:
116,189,9941,2,0,B|107:215|107:215|222:201,1,125.999996154785
322,186,10332,5,0,0:0:0:0:
296,313,10462,1,0,0:0:0:0:
296,313,10593,1,0,0:0:0:0:
327,212,10723,2,0,L|332:117,1,94.499997116089
407,52,10984,2,0,L|416:184,1,125.999996154785
313,328,11375,1,0,0:0:0:0:
227,358,11506,6,0,P|196:349|175:327,2,62.9999980773926
233,194,11897,1,0,0:0:0:0:
241,283,12027,1,0,0:0:0:0:
233,194,12288,2,0,L|225:47,1,125.999996154785
103,118,12680,5,0,0:0:0:0:
177,141,12810,1,0,0:0:0:0:
233,194,12941,1,0,0:0:0:0:
247,275,13071,2,0,P|290:287|416:230,1,188.999994232178
314,80,13593,6,0,P|342:92|374:92,1,62.9999980773926
477,82,13854,2,0,P|448:48|443:9,1,62.9999980773926
312,52,14114,2,0,P|284:40|253:40,1,62.9999980773926
149,50,14375,2,0,P|172:73|183:102,1,62.9999980773926
100,312,14767,5,0,0:0:0:0:
100,312,14897,2,0,B|175:302|175:302|251:327,1,125.999996154785
302,346,15288,1,0,0:0:0:0:
415,296,15419,2,0,P|425:255|424:200,1,94.499997116089
381,136,15680,1,0,0:0:0:0:
381,136,15941,6,0,P|368:101|412:17,1,125.999996154785
424,202,16332,1,0,0:0:0:0:
424,202,16397,1,0,0:0:0:0:
424,202,16462,2,0,L|420:252,2,31.4999990386963
334,264,16723,6,0,L|351:352,1,72
218,250,16984,1,0,0:0:0:0:
218,250,17114,1,0,0:0:0:0:
110,303,17245,2,0,P|70:293|43:254,1,72
157,218,17506,2,0,P|191:224|217:249,1,72
142,127,17767,6,0,P|211:122|266:41,1,144
356,25,18158,1,0,0:0:0:0:
356,25,18288,2,0,P|460:56|499:31,1,144
114,199,18810,5,0,0:0:0:0:
241,251,18941,1,0,0:0:0:0:
241,251,19071,2,0,P|276:257|310:248,1,72
398,185,19332,5,0,0:0:0:0:
271,133,19462,1,0,0:0:0:0:
270,132,19593,2,0,P|235:126|201:135,1,72
354,40,19854,5,0,0:0:0:0:
354,40,20114,1,0,0:0:0:0:
311,178,20375,2,0,L|332:298,1,108
412,350,20636,2,0,L|415:250,1,72
298,219,20897,6,0,P|241:223|192:274,1,121.499996292114
162,345,21158,2,0,L|141:252,1,80.9999975280763
62,169,21419,1,0,0:0:0:0:
62,169,21549,1,0,0:0:0:0:
125,94,21680,1,0,0:0:0:0:
29,77,21810,1,0,0:0:0:0:
158,186,21941,6,0,P|206:180|275:73,1,161.999995056153
246,29,22332,1,0,0:0:0:0:
351,156,22462,2,0,P|417:156|450:133,1,80.9999975280763
176,70,22723,2,0,P|222:23|229:-16,1,80.9999975280763
44,87,22984,5,0,0:0:0:0:
44,87,23114,1,0,0:0:0:0:
75,166,23245,2,0,L|54:270,1,80.9999975280763
30,335,23506,2,0,P|84:318|208:365,1,161.999995056153
248,132,24027,6,0,P|245:91|254:52,1,80.9999975280763
365,9,24288,2,0,P|367:49|358:88,1,80.9999975280763
375,324,24549,6,0,P|372:283|381:244,1,80.9999975280763
492,201,24810,2,0,P|494:241|485:280,1,80.9999975280763
230,320,25071,6,0,P|158:330|62:260,1,161.999995056153
51,167,25462,1,0,0:0:0:0:
234,302,25593,2,0,L|238:216,1,80.9999975280763
72,101,25854,2,0,L|76:182,1,80.9999975280763
124,40,26114,1,0,0:0:0:0:
186,160,26245,1,0,0:0:0:0:
279,111,26375,5,0,0:0:0:0:
319,115,26441,1,0,0:0:0:0:
359,119,26506,1,0,0:0:0:0:
451,77,26636,2,0,L|442:31,2,40.4999987640381
359,119,26897,1,0,0:0:0:0:
420,285,27027,1,0,0:0:0:0:
324,188,27158,6,0,P|280:193|222:248,1,121.499996292114
128,265,27419,2,0,P|171:330|250:340,1,161.999995056153
210,131,27810,1,0,0:0:0:0:
210,131,27941,2,0,L|109:123,1,80.9999975280763
28,55,28201,1,0,0:0:0:0:
116,97,28332,1,0,0:0:0:0:
268,37,28462,5,0,0:0:0:0:
307,28,28527,1,0,0:0:0:0:
347,19,28593,1,0,0:0:0:0:
435,99,28723,2,0,L|476:104,2,40.4999987640381
235,192,28984,1,0,0:0:0:0:
235,192,29114,1,0,0:0:0:0:
284,258,29245,6,0,P|287:318|269:355,1,80.9999975280763
154,178,29506,2,0,P|198:218|211:257,1,80.9999975280763
75,208,29767,1,0,0:0:0:0:
154,178,29897,1,0,0:0:0:0:
45,129,30027,1,0,0:0:0:0:
124,99,30158,1,0,0:0:0:0:
291,176,30288,6,0,P|370:178|430:126,1,161.999995056153
199,77,30680,1,0,0:0:0:0:
199,77,30810,2,0,B|166:97|166:97|123:98,1,80.9999975280763
29,220,31071,2,0,B|71:221|71:221|104:241,1,80.9999975280763
41,314,31332,5,0,0:0:0:0:
175,344,31462,1,0,0:0:0:0:
175,344,31527,1,0,0:0:0:0:
175,344,31593,2,0,P|222:346|263:329,1,80.9999975280763
373,167,31854,1,0,0:0:0:0:
401,265,31984,1,0,0:0:0:0:
401,265,32114,2,0,L|390:184,1,80.9999975280763
358,74,32375,5,0,0:0:0:0:
358,74,32441,1,0,0:0:0:0:
358,74,32506,1,0,0:0:0:0:
358,74,32571,1,0,0:0:0:0:
357,74,32636,2,0,P|317:78|279:66,1,80.9999975280763
171,7,32832,1,0,0:0:0:0:
149,24,32962,1,0,0:0:0:0:
133,48,33027,1,0,0:0:0:0:
124,75,33093,1,0,0:0:0:0:
124,103,33158,1,0,0:0:0:0:
171,203,33288,5,0,0:0:0:0:
171,203,33419,2,0,P|115:224|69:206,1,80.9999975280763
264,220,33680,2,0,P|320:199|366:217,1,80.9999975280763
401,265,33941,5,0,0:0:0:0:
371,124,34071,1,0,0:0:0:0:
371,124,34201,1,0,0:0:0:0:
320,308,34332,5,0,0:0:0:0:
338,109,34462,1,0,0:0:0:0:
338,109,34593,1,0,0:0:0:0:
239,265,34723,5,0,0:0:0:0:
298,105,34854,1,0,0:0:0:0:
298,105,34984,1,0,0:0:0:0:
158,308,35114,5,0,0:0:0:0:
258,116,35245,1,0,0:0:0:0:
258,116,35375,1,0,0:0:0:0:
143,82,35506,5,0,0:0:0:0:
138,81,36549,5,0,0:0:0:0:
138,81,37593,5,0,0:0:0:0:
138,81,38636,5,0,0:0:0:0:
132,122,38767,1,0,0:0:0:0:
473,308,39158,5,0,0:0:0:0:
467,267,39288,1,0,0:0:0:0:
66,218,39680,6,0,P|142:239|213:206,1,161.999995056153
138,81,40071,1,0,0:0:0:0:
138,81,40201,2,0,P|83:64|43:72,1,80.9999975280763
214,40,40462,1,0,0:0:0:0:
296,122,40593,1,0,0:0:0:0:
377,191,40723,2,0,P|456:188|501:124,1,161.999995056153
365,41,41114,1,0,0:0:0:0:
324,269,41245,6,0,L|331:368,1,80.9999975280763
270,125,41506,2,0,L|263:224,1,80.9999975280763
74,73,41767,2,0,P|158:85|222:6,1,161.999995056153
388,109,42158,1,0,0:0:0:0:
388,109,42288,2,0,P|426:145|487:152,1,80.9999975280763
512,99,42549,5,0,0:0:0:0:
441,298,42680,1,0,0:0:0:0:
344,215,42810,2,0,P|301:253|184:237,1,161.999995056153
64,157,43201,1,0,0:0:0:0:
158,123,43332,1,0,0:0:0:0:
30,63,43462,1,0,0:0:0:0:
158,123,43593,5,0,0:0:0:0:
181,117,43658,1,0,0:0:0:0:
204,111,43723,1,0,0:0:0:0:
312,138,43854,2,0,P|391:133|446:76,1,161.999995056153
367,34,44245,1,0,0:0:0:0:
335,163,44375,2,0,L|341:243,1,80.9999975280763
191,310,44636,2,0,L|198:230,1,80.9999975280763
55,111,44897,6,0,P|87:134|127:139,1,80.9999975280763
215,16,45158,2,0,P|178:32|154:64,1,80.9999975280763
153,254,45419,1,0,0:0:0:0:
217,202,45549,1,0,0:0:0:0:
217,202,45680,2,0,P|221:162|205:125,1,80.9999975280763
18,313,45941,6,0,B|62:323|62:323|128:290|128:290|181:302,2,161.999995056153
6,223,46593,1,0,0:0:0:0:
170,299,46723,1,0,0:0:0:0:
170,299,46854,1,0,0:0:0:0:
262,234,46984,2,0,P|338:255|380:322,1,161.999995056153
272,346,47375,1,0,0:0:0:0:
160,187,47506,5,0,0:0:0:0:
157,145,47636,1,0,0:0:0:0:
238,55,47767,1,0,0:0:0:0:
236,75,47832,1,0,0:0:0:0:
235,95,47897,1,0,0:0:0:0:
123,169,48027,6,0,P|76:153|56:41,1,161.999995056153
132,6,48419,1,0,0:0:0:0:
248,178,48549,2,0,B|285:189|285:189|334:187,1,80.9999975280763
485,24,48810,1,0,0:0:0:0:
374,81,48941,1,0,0:0:0:0:
374,81,49071,2,0,L|364:260,1,161.999995056153
232,131,49462,1,0,0:0:0:0:
308,313,49593,1,0,0:0:0:0:
308,313,49723,1,0,0:0:0:0:
232,131,49854,5,0,0:0:0:0:
218,267,49984,1,0,0:0:0:0:
141,106,50114,2,0,P|193:48|271:47,1,161.999995056153
308,313,50506,1,0,0:0:0:0:
308,313,50636,2,0,P|346:322|386:316,1,80.9999975280763
500,138,50897,2,0,P|460:128|420:135,1,80.9999975280763
455,259,51158,1,0,0:0:0:0:
455,259,51288,1,0,0:0:0:0:
70,22,51680,5,0,0:0:0:0:
66,54,51810,1,0,0:0:0:0:
87,164,51941,1,0,0:0:0:0:
89,193,52006,1,0,0:0:0:0:
91,222,52071,1,0,0:0:0:0:
10,303,52201,2,0,P|61:321|110:307,1,80.9999975280763
91,222,52462,5,0,0:0:0:0:
171,274,52593,1,0,0:0:0:0:
170,273,52723,2,0,P|191:307|196:347,1,80.9999975280763
89,221,52984,2,0,P|108:185|141:162,1,80.9999975280763
381,345,53245,2,0,P|350:319|311:311,1,80.9999975280763
249,115,53506,2,0,P|280:140|319:149,1,80.9999975280763
501,54,53767,6,0,P|424:38|357:79,1,161.999995056153
497,218,54158,1,0,0:0:0:0:
446,142,54288,2,0,B|466:189|466:189|447:251|447:251|466:292,1,161.999995056153
385,347,54680,1,0,0:0:0:0:
238,252,54810,6,0,L|157:244,1,80.9999975280763
25,193,55071,2,0,L|105:185,1,80.9999975280763
237,134,55332,2,0,L|156:126,1,80.9999975280763
24,309,55593,2,0,L|104:301,1,80.9999975280763
307,281,55854,1,0,0:0:0:0:
238,252,55984,1,0,0:0:0:0:
306,163,56114,1,0,0:0:0:0:
306,163,56180,1,0,0:0:0:0:
306,163,56245,1,0,0:0:0:0:
243,360,56375,6,0,L|226:199,1,161.999995056153
324,20,56767,1,0,0:0:0:0:
306,163,56897,2,0,L|299:229,2,40.4999987640381
384,118,57158,5,0,0:0:0:0:
246,65,57288,1,0,0:0:0:0:
121,139,57419,2,0,P|68:121|34:12,1,161.999995056153
246,65,57810,5,0,0:0:0:0:
220,210,57941,1,0,0:0:0:0:
304,261,58071,1,0,0:0:0:0:
304,261,58201,2,0,P|355:271|426:239,1,121.499996292114
443,167,58462,2,0,P|437:238|513:331,1,161.999995056153
337,45,58854,5,0,0:0:0:0:
417,46,58984,2,0,P|456:54|491:76,1,80.9999975280763
337,45,59245,1,0,0:0:0:0:
337,45,59375,1,0,0:0:0:0:
265,82,59506,2,0,P|203:73|165:39,1,80.9999975280763
81,2,59767,5,0,0:0:0:0:
98,158,59897,1,0,0:0:0:0:
81,2,60027,5,0,0:0:0:0:
19,226,60158,1,0,0:0:0:0:
19,226,60288,2,0,P|50:251|89:261,1,80.9999975280763
357,167,60549,6,0,B|204:189|204:189|237:137,1,215.999993408203
403,290,60941,2,0,B|437:239|437:239|284:261,1,215.999993408203
235,136,61332,2,0,P|313:82|357:167,1,215.999993408203
405,291,61723,2,0,P|326:345|283:260,1,215.999993408203
229,106,62114,6,0,P|180:98|132:109,1,99.0000030212403
405,291,62375,2,0,P|453:298|501:287,1,99.0000030212403
356,216,62636,1,0,0:0:0:0:
283,259,62767,1,0,0:0:0:0:
260,336,62897,1,0,0:0:0:0:
260,336,63027,1,0,0:0:0:0:
89,299,63158,6,0,B|70:258|70:258|81:205,1,99.0000030212403
185,37,63419,2,0,B|204:78|204:78|195:135,1,99.0000030212403
99,269,63680,2,0,P|54:247|29:108,1,198.000006042481
98,70,64071,1,0,0:0:0:0:
196,132,64201,6,0,L|305:138,1,99.0000030212403
477,103,64462,1,0,0:0:0:0:
477,103,64593,1,0,0:0:0:0:
448,196,64723,2,0,B|466:312|466:312|516:288,1,161.999995056153
375,262,65114,1,0,0:0:0:0:
375,262,65245,2,0,P|323:236|212:267,1,161.999995056153
139,313,65636,1,0,0:0:0:0:
139,313,65767,2,0,P|92:307|49:259,1,80.9999975280763
15,169,66027,6,0,L|68:187,3,40.4999987640381
85,107,66288,2,0,L|176:135,1,80.9999975280763
241,159,66549,1,0,0:0:0:0:
227,77,66680,1,0,0:0:0:0:
382,128,66810,6,0,L|305:105,1,80.9999975280763
444,196,67071,2,0,P|428:144|453:65,1,121.499996292114
510,36,67332,1,0,0:0:0:0:
510,36,67462,1,0,0:0:0:0:
444,196,67593,2,0,P|461:249|493:289,1,80.9999975280763
388,345,67854,1,0,0:0:0:0:
394,316,67984,1,0,0:0:0:0:
310,178,68114,6,0,L|301:222,3,40.4999987640381
240,297,68375,1,0,0:0:0:0:
234,268,68506,1,0,0:0:0:0:
220,102,68636,1,0,0:0:0:0:
144,192,68767,1,0,0:0:0:0:
157,61,68897,6,0,L|344:52,1,161.999995056153
414,99,69288,1,0,0:0:0:0:
414,99,69419,2,0,P|439:130|474:148,1,80.9999975280763
334,25,69680,1,0,0:0:0:0:
365,185,69810,1,0,0:0:0:0:
302,270,69941,6,0,P|253:262|175:293,1,121.499996292114
142,347,70201,2,0,L|38:326,1,80.9999975280763
0,130,70462,2,0,L|104:109,1,80.9999975280763
210,35,70723,2,0,B|198:73|198:73|218:113,1,80.9999975280763
309,65,70984,1,0,0:0:0:0:
309,65,71049,1,0,0:0:0:0:
309,65,71114,1,0,0:0:0:0:
358,157,71245,6,0,B|393:138|393:138|407:96,1,80.9999975280763
309,65,71506,1,0,0:0:0:0:
273,174,71636,1,0,0:0:0:0:
330,239,71767,2,0,L|323:328,1,80.9999975280763
168,262,72027,6,0,L|114:256,3,40.4999987640381
42,224,72288,2,0,P|81:224|114:201,1,80.9999975280763
81,46,72549,2,0,L|135:52,3,40.4999987640381
206,83,72810,2,0,P|166:82|133:105,1,80.9999975280763
292,69,73071,6,0,L|288:201,1,125.999996154785
318,287,73462,1,0,0:0:0:0:
318,287,73593,2,0,L|401:283,1,62.9999980773926
504,169,73854,2,0,L|421:173,1,62.9999980773926
478,277,74114,1,0,0:0:0:0:
478,277,74245,1,0,0:0:0:0:
343,178,74375,1,0,0:0:0:0:
343,178,74636,1,0,0:0:0:0:
15,98,75158,6,0,P|71:100|143:60,1,125.999996154785
173,1,75549,1,0,0:0:0:0:
221,102,75680,2,0,P|256:121|303:115,1,62.9999980773926
363,93,75941,2,0,P|406:103|463:182,1,125.999996154785
221,322,76462,5,0,0:0:0:0:
315,304,76593,1,0,0:0:0:0:
211,339,76723,2,0,L|121:327,2,62.9999980773926
70,164,77245,5,0,0:0:0:0:
70,164,77506,1,0,0:0:0:0:
70,164,77767,1,0,0:0:0:0:
276,129,78027,1,0,0:0:0:0:
70,164,78288,5,0,0:0:0:0:
276,129,78549,1,0,0:0:0:0:
409,289,78810,1,0,0:0:0:0:
409,289,79071,1,0,0:0:0:0:
276,129,79332,5,0,0:0:0:0:
409,289,79593,1,0,0:0:0:0:
276,129,79854,1,0,0:0:0:0:
409,289,80114,1,0,0:0:0:0:
332,335,80245,5,0,0:0:0:0:
332,335,80310,1,0,0:0:0:0:
332,335,80375,2,0,P|271:324|232:197,1,188.999994232178
298,65,80897,2,0,B|286:110|286:110|327:194|327:194|314:241,1,188.999994232178
401,116,81419,6,0,P|445:122|498:106,1,80.9999975280763
298,65,81680,1,0,0:0:0:0:
298,65,81810,1,0,0:0:0:0:
210,190,81941,2,0,P|145:162|111:46,1,161.999995056153
171,22,82332,1,0,0:0:0:0:
89,109,82462,6,0,L|5:101,1,80.9999975280763
97,265,82723,2,0,L|43:199,1,80.9999975280763
100,358,82984,2,0,P|170:321|186:245,1,161.999995056153
181,161,83375,1,0,0:0:0:0:
255,198,83506,2,0,B|307:222|307:222|406:159,1,161.999995056153
378,31,83897,5,0,0:0:0:0:
473,117,84027,2,0,P|485:163|479:204,1,80.9999975280763
434,339,84288,2,0,P|422:293|428:252,1,80.9999975280763
371,59,84549,6,0,L|281:43,1,80.9999975280763
128,29,84810,2,0,L|159:114,1,80.9999975280763
223,252,85071,2,0,L|281:182,1,80.9999975280763
371,59,85332,1,0,0:0:0:0:
371,59,85462,1,0,0:0:0:0:
351,155,85593,6,0,P|394:184|506:173,1,161.999995056153
277,89,85984,1,0,0:0:0:0:
276,88,86114,2,0,P|238:76|198:77,1,80.9999975280763
18,264,86375,2,0,P|56:276|96:275,1,80.9999975280763
97,38,86636,2,0,P|84:76|85:116,1,80.9999975280763
197,314,86897,2,0,P|209:275|208:235,1,80.9999975280763
354,290,87158,6,0,P|353:330|366:369,1,80.9999975280763
459,219,87419,1,0,0:0:0:0:
381,195,87549,1,0,0:0:0:0:
275,136,87680,2,0,P|326:156|422:86,2,161.999995056153
127,180,88332,1,0,0:0:0:0:
127,180,88462,2,0,L|101:81,1,80.9999975280763
196,305,88723,2,0,L|242:136,1,161.999995056153
169,31,89114,5,0,0:0:0:0:
200,273,89245,1,0,0:0:0:0:
260,75,89375,1,0,0:0:0:0:
291,317,89506,1,0,0:0:0:0:
291,317,89571,1,0,0:0:0:0:
291,317,89636,1,0,0:0:0:0:
256,192,89767,12,0,90680,0:0:0:0:
256,192,91332,5,0,0:0:0:0:
256,192,91462,1,0,0:0:0:0:
273,312,91854,6,0,P|314:328|358:322,1,90
166,232,92114,1,0,0:0:0:0:
183,352,92245,1,0,0:0:0:0:
163,256,92375,2,0,P|170:202|133:76,1,180
65,49,92767,1,0,0:0:0:0:
241,139,92897,6,0,P|287:143|344:123,1,90
473,50,93158,2,0,P|437:79|411:134,1,90
423,282,93419,1,0,0:0:0:0:
384,201,93549,1,0,0:0:0:0:
279,302,93680,1,0,0:0:0:0:
295,214,93810,1,0,0:0:0:0:
359,345,93941,2,0,P|308:324|189:362,1,180
38,242,94332,5,0,0:0:0:0:
38,242,94462,2,0,P|99:224|124:96,1,180
96,30,94854,1,0,0:0:0:0:
226,81,94984,2,0,L|334:71,1,90
399,188,95245,2,0,L|291:178,1,90
223,99,95506,5,0,0:0:0:0:
205,276,95636,1,0,0:0:0:0:
205,276,95701,1,0,0:0:0:0:
205,276,95767,1,0,0:0:0:0:
291,356,95897,1,0,0:0:0:0:
141,332,96027,6,0,P|172:276|137:154,1,180
31,129,96419,1,0,0:0:0:0:
31,129,96549,2,0,P|87:160|209:125,1,180
234,19,96941,1,0,0:0:0:0:
233,18,97071,2,0,P|298:77|309:165,1,180
271,283,97462,1,0,0:0:0:0:
271,283,97593,2,0,P|205:223|195:136,1,180
319,39,97984,5,0,0:0:0:0:
350,37,98049,1,0,0:0:0:0:
381,35,98114,1,0,0:0:0:0:
505,90,98245,5,0,0:0:0:0:
491,224,98375,1,0,0:0:0:0:
491,224,98506,1,0,0:0:0:0:
291,136,98636,5,0,0:0:0:0:
381,35,98767,1,0,0:0:0:0:
359,253,98897,1,0,0:0:0:0:
381,35,99027,1,0,0:0:0:0:
291,136,99158,5,0,0:0:0:0:
261,146,99223,1,0,0:0:0:0:
229,147,99288,1,0,0:0:0:0:
199,140,99354,1,0,0:0:0:0:
171,125,99419,1,0,0:0:0:0:
149,103,99484,1,0,0:0:0:0:
133,76,99549,2,0,L|62:68,3,45
17,153,99810,6,0,L|88:144,1,45
87,166,99941,1,0,0:0:0:0:
102,193,100006,1,0,0:0:0:0:
111,223,100071,1,0,0:0:0:0:
111,254,100136,1,0,0:0:0:0:
109,285,100201,1,0,0:0:0:0:
461,226,100723,6,0,P|414:242|365:247,1,72
335,139,100984,2,0,P|295:122|249:82,1,72
177,17,101245,2,0,L|166:180,1,144
173,304,101636,1,0,0:0:0:0:
162,253,101767,1,0,0:0:0:0:
88,346,101897,1,0,0:0:0:0:
88,346,101962,1,0,0:0:0:0:
88,346,102027,2,0,L|6:338,1,72
173,303,102288,6,0,P|244:302|307:334,2,144
95,251,102941,1,0,0:0:0:0:
95,251,103071,1,0,0:0:0:0:
180,209,103201,1,0,0:0:0:0:
180,209,103267,1,0,0:0:0:0:
180,209,103332,2,0,L|170:124,1,72
259,61,103593,6,0,P|310:78|362:65,1,108
411,74,103854,2,0,P|371:109|356:160,1,108
325,198,104114,2,0,P|314:145|277:107,1,108
202,78,104375,5,0,0:0:0:0:
202,78,104506,1,0,0:0:0:0:
132,114,104636,1,0,0:0:0:0:
132,114,104767,1,0,0:0:0:0:
135,35,104897,1,0,0:0:0:0:
135,35,104962,1,0,0:0:0:0:
135,35,105027,1,0,0:0:0:0:
129,193,105158,5,0,0:0:0:0:
127,218,105223,1,0,0:0:0:0:
126,243,105288,1,0,0:0:0:0:
125,268,105354,1,0,0:0:0:0:
123,293,105419,2,0,B|175:321|175:321|263:294,2,144
40,238,106071,1,0,0:0:0:0:
129,193,106201,2,0,L|140:157,3,24
55,66,106462,6,0,L|45:138,1,72
145,24,106723,2,0,L|155:95,1,72
332,73,106984,2,0,L|266:82,2,36
419,120,107245,2,0,P|464:126|517:111,1,72
296,77,107506,5,0,0:0:0:0:
70,251,107767,1,0,0:0:0:0:
270,277,108027,1,0,0:0:0:0:
270,277,108158,1,0,0:0:0:0:
96,51,108288,1,0,0:0:0:0:
221,299,108549,6,0,L|321:290,1,90
431,344,108810,2,0,L|422:244,1,90
138,139,109071,6,0,L|147:239,1,90
348,184,109332,2,0,L|248:193,1,90
422,253,109593,2,0,P|447:170|400:96,1,180
298,95,109984,1,0,0:0:0:0:
298,95,110114,2,0,P|242:99|186:73,1,90
65,25,110375,2,0,B|89:59|137:72|137:72|109:112,1,135
13,153,110636,6,0,P|80:211|166:197,1,180
214,118,111027,1,0,0:0:0:0:
258,241,111158,2,0,P|227:277|160:302,1,90
406,337,111419,2,0,P|358:340|293:310,1,90
77,275,111680,2,0,P|121:271|164:284,1,90
266,196,111941,6,0,L|256:96,1,90
164,284,112201,2,0,L|174:184,1,90
108,39,112462,1,0,0:0:0:0:
113,69,112527,1,0,0:0:0:0:
110,100,112593,1,0,0:0:0:0:
96,128,112658,1,0,0:0:0:0:
73,150,112723,2,0,B|31:165|31:165|-29:158,1,90
20,48,112984,2,0,B|62:33|62:33|122:40,1,90
309,222,113245,6,0,B|267:237|267:237|207:230,1,90
256,120,113506,2,0,B|298:105|298:105|358:112,1,90
368,289,113767,1,0,0:0:0:0:
368,289,113832,1,0,0:0:0:0:
368,289,113897,1,0,0:0:0:0:
253,318,114027,6,0,P|168:308|129:230,1,180
221,231,114419,1,0,0:0:0:0:
247,32,114549,1,0,0:0:0:0:
226,199,114680,1,0,0:0:0:0:
315,80,114810,6,0,P|272:66|246:31,1,90
406,69,115071,2,0,P|412:112|391:152,1,90
276,266,115332,2,0,P|269:222|290:182,1,90
498,293,115593,6,0,L|399:283,1,90
291,294,115854,2,0,P|240:325|96:283,1,180
71,242,116245,1,0,0:0:0:0:
71,242,116375,1,0,0:0:0:0:
201,199,116506,1,0,0:0:0:0:
71,242,116636,5,0,0:0:0:0:
90,266,116701,1,0,0:0:0:0:
117,282,116767,1,0,0:0:0:0:
148,287,116832,1,0,0:0:0:0:
179,280,116897,2,0,B|221:282|221:282|257:312,2,90
139,92,117288,1,0,0:0:0:0:
139,92,117419,2,0,B|97:90|97:90|60:59,2,90
285,23,117810,5,0,0:0:0:0:
285,23,117941,2,0,L|266:239,1,180
211,292,118332,1,0,0:0:0:0:
211,292,118462,2,0,P|156:292|115:249,1,90
269,202,118723,2,0,P|324:202|365:245,1,90
172,317,118984,6,0,B|127:331|127:331|84:325,2,90
28,209,119375,1,0,0:0:0:0:
28,209,119506,2,0,B|73:223|73:223|115:217,2,90
193,138,119897,1,0,0:0:0:0:
193,138,120027,2,0,L|301:133,1,90
426,77,120288,6,0,P|364:102|300:85,1,135
239,14,120549,1,0,0:0:0:0:
193,138,120680,1,0,0:0:0:0:
193,138,120810,2,0,B|212:202|212:202|286:241,1,135
352,276,121071,5,0,0:0:0:0:
352,276,121593,1,0,0:0:0:0:
375,238,121984,1,0,0:0:0:0:
351,276,122114,2,0,P|280:282|214:257,1,144
461,43,122636,6,0,L|479:136,1,72
386,166,122897,2,0,L|374:237,1,72
214,257,123158,2,0,P|280:282|351:276,1,144
78,66,123680,5,0,0:0:0:0:
117,61,123810,1,0,0:0:0:0:
117,61,123941,2,0,P|115:105|99:142,1,72
50,207,124201,2,0,P|32:247|78:362,1,144
134,271,124593,1,0,0:0:0:0:
134,271,124723,2,0,P|174:253|285:303,1,144
354,134,125245,5,0,0:0:0:0:
364,154,125375,1,0,0:0:0:0:
364,154,125506,2,0,B|405:158|405:158|432:145,1,72
264,123,125767,1,0,0:0:0:0:
364,154,126027,1,0,0:0:0:0:
264,123,126288,6,0,L|192:127,1,72
65,51,126549,2,0,L|136:55,1,72
239,254,126810,2,0,L|167:258,1,72
40,182,127071,2,0,L|111:186,1,72
215,335,127332,6,0,P|183:349|147:349,3,72
239,254,127854,1,0,0:0:0:0:
239,254,127984,2,0,P|281:236|303:128,1,144
239,34,128375,1,0,0:0:0:0:
239,34,128441,1,0,0:0:0:0:
239,34,128506,1,0,0:0:0:0:
167,139,128636,6,0,L|132:148,2,36
239,34,128897,2,0,P|197:52|175:160,1,144
312,102,129288,5,0,0:0:0:0:
312,102,129354,1,0,0:0:0:0:
312,102,129419,2,0,L|504:85,1,180
334,4,129810,1,0,0:0:0:0:
225,67,129941,2,0,P|172:65|130:38,1,90
54,21,130201,2,0,P|56:74|83:116,1,90
157,208,130462,6,0,P|83:211|16:305,1,180
121,309,130854,1,0,0:0:0:0:
121,309,130984,2,0,L|228:291,1,90
297,279,131245,1,0,0:0:0:0:
297,279,131310,1,0,0:0:0:0:
297,279,131375,1,0,0:0:0:0:
406,254,131506,6,0,P|343:264|258:202,2,144
435,162,132158,1,0,0:0:0:0:
435,162,132223,1,0,0:0:0:0:
435,162,132288,2,0,L|428:122,2,36
297,99,132549,2,0,P|360:89|445:151,2,144
274,227,133201,1,0,0:0:0:0:
187,183,133332,1,0,0:0:0:0:
187,183,133397,1,0,0:0:0:0:
187,183,133462,1,0,0:0:0:0:
164,310,133593,6,0,L|65:304,1,72
187,183,133854,1,0,0:0:0:0:
187,183,133984,1,0,0:0:0:0:
187,183,134114,2,0,P|159:144|53:141,1,144
26,55,134506,5,0,0:0:0:0:
133,93,134636,1,0,0:0:0:0:
240,55,134767,1,0,0:0:0:0:
240,55,134897,1,0,0:0:0:0:
360,311,135158,5,0,0:0:0:0:
349,226,135288,1,0,0:0:0:0:
482,162,135419,1,0,0:0:0:0:
471,247,135549,1,0,0:0:0:0:
359,311,135680,2,0,P|286:286|264:211,1,161.999995056153
366,38,136071,1,0,0:0:0:0:
366,38,136201,2,0,B|308:74|308:74|199:58,1,161.999995056153
65,38,136593,5,0,0:0:0:0:
65,38,136723,2,0,L|83:227,1,161.999995056153
92,279,137114,1,0,0:0:0:0:
156,362,137245,1,0,0:0:0:0:
173,344,137310,1,0,0:0:0:0:
186,324,137375,1,0,0:0:0:0:
193,301,137441,1,0,0:0:0:0:
196,277,137506,1,0,0:0:0:0:
193,253,137571,1,0,0:0:0:0:
184,230,137636,1,0,0:0:0:0:
33,131,137767,5,0,0:0:0:0:
33,131,137897,1,0,0:0:0:0:
184,230,138027,1,0,0:0:0:0:
283,175,138158,1,0,0:0:0:0:
186,117,138288,5,0,0:0:0:0:
186,117,138419,1,0,0:0:0:0:
287,202,138549,2,0,P|332:203|411:145,1,135
357,65,138810,2,0,P|428:55|504:156,1,180
413,262,139201,5,0,0:0:0:0:
412,261,139332,2,0,P|451:280|496:280,1,90
404,155,139593,1,0,0:0:0:0:
296,309,139723,1,0,0:0:0:0:
184,324,139854,2,0,L|91:310,1,90
26,186,140114,2,0,L|119:172,1,90
209,50,140375,5,0,0:0:0:0:
187,133,140506,1,0,0:0:0:0:
114,172,140636,1,0,0:0:0:0:
114,172,140767,1,0,0:0:0:0:
56,93,140897,6,0,P|100:149|83:278,1,180
13,305,141288,1,0,0:0:0:0:
13,305,141419,1,0,0:0:0:0:
157,362,141549,1,0,0:0:0:0:
192,355,141614,1,0,0:0:0:0:
228,349,141680,1,0,0:0:0:0:
271,63,141941,5,0,0:0:0:0:
378,106,142071,1,0,0:0:0:0:
271,63,142201,1,0,0:0:0:0:
271,63,142267,1,0,0:0:0:0:
271,63,142332,1,0,0:0:0:0:
271,63,142397,1,0,0:0:0:0:
271,63,142462,2,0,P|223:67|187:97,1,90
346,193,142723,5,0,0:0:0:0:
372,198,142788,1,0,0:0:0:0:
399,195,142854,1,0,0:0:0:0:
424,185,142919,1,0,0:0:0:0:
444,168,142984,1,0,0:0:0:0:
460,146,143049,1,0,0:0:0:0:
468,120,143114,1,0,0:0:0:0:
468,93,143180,1,0,0:0:0:0:
461,67,143245,2,0,L|472:28,4,22.5
378,106,143506,6,0,P|326:92|200:147,1,180
97,96,143897,1,0,0:0:0:0:
97,96,143962,1,0,0:0:0:0:
97,96,144027,2,0,P|46:89|-5:46,2,90
187,17,144419,1,0,0:0:0:0:
187,17,144549,1,0,0:0:0:0:
144,292,144810,5,0,0:0:0:0:
144,292,144941,1,0,0:0:0:0:
74,219,145071,1,0,0:0:0:0:
47,316,145201,1,0,0:0:0:0:
251,289,145332,6,0,P|306:303|379:279,1,135
405,182,145593,1,0,0:0:0:0:
475,341,145723,1,0,0:0:0:0:
475,341,145788,1,0,0:0:0:0:
475,341,145854,2,0,P|485:298|475:255,1,90
308,206,146114,5,0,0:0:0:0:
331,65,146245,1,0,0:0:0:0:
308,206,146375,2,0,P|240:207|196:178,1,90
119,14,146636,5,0,0:0:0:0:
180,62,146767,1,0,0:0:0:0:
163,137,146897,1,0,0:0:0:0:
163,137,147027,1,0,0:0:0:0:
84,257,147158,6,0,P|67:194|110:83,1,180
180,62,147549,1,0,0:0:0:0:
303,130,147680,2,0,B|378:142|378:142|475:65,1,180
353,59,148071,1,0,0:0:0:0:
325,212,148201,2,0,L|147:183,1,180
298,45,148593,5,0,0:0:0:0:
298,45,148723,2,0,P|313:100|300:134,1,90
216,302,148984,2,0,P|201:247|214:213,1,90
156,54,149245,6,0,P|148:105|8:157,1,180
45,167,149636,1,0,0:0:0:0:
53,62,149767,1,0,0:0:0:0:
45,167,149897,1,0,0:0:0:0:
45,167,149962,1,0,0:0:0:0:
45,167,150027,2,0,L|53:269,1,90
127,346,150288,6,0,L|134:293,2,45
163,157,150549,2,0,L|205:189,2,45
308,282,150810,2,0,L|258:302,2,45
422,234,151071,1,0,0:0:0:0:
422,234,151136,1,0,0:0:0:0:
422,234,151201,1,0,0:0:0:0:
422,234,151267,1,0,0:0:0:0:
422,234,151332,2,0,L|429:144,1,90
336,45,151593,5,0,0:0:0:0:
340,80,151658,1,0,0:0:0:0:
345,115,151723,1,0,0:0:0:0:
251,73,151854,2,0,P|199:64|162:22,1,90
66,208,152114,2,0,P|96:164|92:109,1,90
236,189,152375,6,0,L|218:-7,2,180
252,358,153158,1,0,0:0:0:0:
252,358,153288,1,0,0:0:0:0:
284,273,153419,1,0,0:0:0:0:
414,293,153549,1,0,0:0:0:0:
252,358,153680,2,0,P|181:353|108:255,1,180
183,122,154071,1,0,0:0:0:0:
183,122,154136,1,0,0:0:0:0:
183,122,154201,2,0,L|176:215,1,90
331,122,154462,6,0,L|325:33,2,90
405,202,154854,1,0,0:0:0:0:
405,202,154984,2,0,P|452:228|507:217,1,90
331,122,155245,2,0,P|244:132|172:188,2,180
405,202,155897,1,0,0:0:0:0:
405,202,156027,1,0,0:0:0:0:
331,282,156158,1,0,0:0:0:0:
331,282,156288,2,0,P|286:282|248:258,1,90
256,192,156549,12,0,158636,0:0:0:0:
256,192,165941,12,0,166854,0:0:0:0:
215,248,166984,6,0,P|111:234|58:145,1,215.999993408203
177,134,167636,1,0,0:0:0:0:
176,133,167897,2,0,P|280:147|334:237,1,215.999993408203
239,343,168549,1,0,0:0:0:0:
239,343,168810,6,0,L|230:271,1,53.9999983520508
303,256,169071,2,0,P|201:245|160:150,1,215.999993408203
18,70,169854,1,0,0:0:0:0:
18,70,170114,2,0,L|189:94,1,161.999995056153
263,159,170636,1,0,0:0:0:0:
263,159,170767,1,0,0:0:0:0:
58,339,171158,6,0,P|41:287|49:234,1,107.999996704102
131,167,171680,1,0,0:0:0:0:
131,167,171941,2,0,P|144:115|133:62,2,107.999996704102
61,15,172723,1,0,0:0:0:0:
256,192,173245,12,0,174680,0:0:0:0:
259,193,174810,5,0,0:0:0:0:
264,154,174941,1,0,0:0:0:0:
173,318,175332,6,0,P|131:314|79:265,1,80.9999975280763
259,193,175593,2,0,P|226:219|155:221,1,80.9999975280763
157,41,175854,2,0,P|199:45|251:94,1,80.9999975280763
71,166,176114,2,0,P|103:139|174:137,1,80.9999975280763
334,226,176375,2,0,P|380:234|456:136,1,161.999995056153
371,48,176767,1,0,0:0:0:0:
322,130,176897,2,0,B|315:172|315:172|334:243|334:243|322:287,1,161.999995056153
156,228,177288,5,0,0:0:0:0:
156,228,177419,2,0,L|243:237,1,80.9999975280763
94,105,177680,2,0,L|181:114,1,80.9999975280763
77,323,177941,2,0,P|79:265|12:182,1,161.999995056153
16,64,178332,1,0,0:0:0:0:
83,120,178462,2,0,P|119:82|132:28,1,80.9999975280763
220,215,178723,2,0,P|218:162|189:115,1,80.9999975280763
129,55,178984,5,0,0:0:0:0:
306,118,179114,1,0,0:0:0:0:
306,118,179180,1,0,0:0:0:0:
306,118,179245,2,0,L|366:122,3,40.4999987640381
402,75,179506,2,0,L|381:183,1,80.9999975280763
485,279,179767,2,0,L|470:200,1,80.9999975280763
325,195,180027,2,0,P|266:187|241:78,1,161.999995056153
273,31,180419,1,0,0:0:0:0:
118,65,180549,5,0,0:0:0:0:
114,97,180614,1,0,0:0:0:0:
111,129,180680,1,0,0:0:0:0:
100,225,180810,1,0,0:0:0:0:
100,225,180941,1,0,0:0:0:0:
111,129,181071,1,0,0:0:0:0:
111,129,181201,1,0,0:0:0:0:
102,255,181332,6,0,B|59:264|59:264|-3:236,1,80.9999975280763
188,186,181593,1,0,0:0:0:0:
188,186,181723,1,0,0:0:0:0:
179,312,181854,1,0,0:0:0:0:
179,312,181919,1,0,0:0:0:0:
179,312,181984,1,0,0:0:0:0:
265,243,182114,6,0,L|350:237,1,80.9999975280763
193,122,182375,1,0,0:0:0:0:
190,154,182441,1,0,0:0:0:0:
188,186,182506,1,0,0:0:0:0:
341,277,182636,2,0,L|345:237,3,40.4999987640381
268,202,182897,2,0,L|264:242,3,40.4999987640381
188,186,183158,6,0,L|194:101,1,80.9999975280763
73,25,183419,1,0,0:0:0:0:
74,53,183484,1,0,0:0:0:0:
76,81,183549,1,0,0:0:0:0:
78,109,183614,1,0,0:0:0:0:
80,138,183680,2,0,L|76:178,2,40.4999987640381
422,110,184201,5,0,0:0:0:0:
422,110,184332,1,0,0:0:0:0:
422,110,184723,5,0,0:0:0:0:
422,110,184854,1,0,0:0:0:0:
348,285,185245,1,0,0:0:0:0:
348,285,185375,1,0,0:0:0:0:
321,67,185767,1,0,0:0:0:0:
321,67,185897,1,0,0:0:0:0:
247,242,186288,5,0,0:0:0:0:
247,242,186419,1,0,0:0:0:0:
435,219,186810,1,0,0:0:0:0:
435,219,186941,1,0,0:0:0:0:
234,133,187332,1,0,0:0:0:0:
234,133,187462,1,0,0:0:0:0:
106,337,187854,6,0,L|101:283,3,53.9999983520508
29,211,188375,2,0,L|24:264,3,53.9999983520508
154,175,188897,2,0,L|149:121,3,53.9999983520508
77,49,189419,2,0,L|72:102,3,53.9999983520508
149,121,189941,6,0,P|171:177|272:206,1,161.999995056153
344,158,190462,2,0,L|349:211,2,53.9999983520508
259,289,190854,1,0,0:0:0:0:
259,289,190984,2,0,L|254:236,2,53.9999983520508
170,347,191375,1,0,0:0:0:0:
170,347,191506,2,0,L|60:327,1,107.999996704102
6,244,191897,1,0,0:0:0:0:
65,179,192027,6,0,L|53:126,3,53.9999983520508
138,236,192549,2,0,L|150:183,3,53.9999983520508
196,316,193071,2,0,P|240:314|308:265,1,107.999996704102
316,191,193462,1,0,0:0:0:0:
315,191,193593,2,0,L|327:138,1,53.9999983520508
412,248,193854,2,0,L|400:195,1,53.9999983520508
393,64,194114,6,0,L|340:52,3,53.9999983520508
249,74,194636,2,0,L|196:86,2,53.9999983520508
126,37,195027,1,0,0:0:0:0:
119,121,195158,1,0,0:0:0:0:
119,121,195223,1,0,0:0:0:0:
119,121,195288,1,0,0:0:0:0:
130,210,195419,6,0,P|77:203|38:167,1,107.999996704102
49,73,195810,1,0,0:0:0:0:
119,121,195941,1,0,0:0:0:0:
119,121,196006,1,0,0:0:0:0:
119,121,196071,1,0,0:0:0:0:
252,161,196201,6,0,L|313:152,2,31.4999990386963
393,70,196462,2,0,L|362:75,2,31.4999990386963
280,47,196723,2,0,L|289:108,2,31.4999990386963
370,188,196984,2,0,L|365:156,2,31.4999990386963
389,279,197245,2,0,P|442:247|461:188,1,125.999996154785
365,156,197636,1,0,0:0:0:0:
301,250,197767,2,0,L|177:234,1,125.999996154785
68,136,198158,5,0,0:0:0:0:
68,136,198288,2,0,L|14:158,2,36
204,137,198549,1,0,0:0:0:0:
204,137,198680,1,0,0:0:0:0:
284,49,198810,2,0,P|319:49|362:79,1,72
270,154,199071,2,0,P|234:153|203:136,1,72
153,30,199332,6,0,P|170:76|143:177,1,144
64,198,199723,1,0,0:0:0:0:
153,30,199854,1,0,0:0:0:0:
153,30,199984,1,0,0:0:0:0:
61,227,200114,1,0,0:0:0:0:
58,255,200180,1,0,0:0:0:0:
55,284,200245,1,0,0:0:0:0:
187,314,200375,6,0,P|241:314|312:354,1,121.499996292114
389,351,200636,2,0,P|429:338|452:308,1,80.9999975280763
476,101,200897,1,0,0:0:0:0:
443,210,201027,1,0,0:0:0:0:
443,210,201158,2,0,P|404:221|380:252,1,80.9999975280763
317,175,201419,6,0,P|243:151|213:77,1,161.999995056153
317,74,201810,1,0,0:0:0:0:
317,74,201941,1,0,0:0:0:0:
317,175,202071,1,0,0:0:0:0:
242,212,202201,2,0,L|234:293,1,80.9999975280763
136,331,202462,6,0,P|96:333|61:312,1,80.9999975280763
168,193,202723,2,0,P|207:191|242:212,1,80.9999975280763
83,222,202984,2,0,P|53:194|43:155,1,80.9999975280763
144,32,203245,2,0,P|173:59|183:98,1,80.9999975280763
264,56,203506,2,0,P|328:52|412:116,1,161.999995056153
408,192,203897,1,0,0:0:0:0:
336,271,204027,1,0,0:0:0:0:
304,168,204158,1,0,0:0:0:0:
189,269,204288,5,0,0:0:0:0:
189,269,204354,1,0,0:0:0:0:
189,269,204419,1,0,0:0:0:0:
110,345,204549,2,0,L|29:339,1,80.9999975280763
32,168,204810,2,0,L|112:173,1,80.9999975280763
189,269,205071,2,0,L|108:263,1,80.9999975280763
111,92,205332,2,0,L|191:97,1,80.9999975280763
311,31,205593,5,0,0:0:0:0:
311,31,205658,1,0,0:0:0:0:
311,31,205723,1,0,0:0:0:0:
284,124,205854,1,0,0:0:0:0:
218,4,205984,1,0,0:0:0:0:
233,201,206114,2,0,P|310:212|368:159,1,161.999995056153
311,31,206506,1,0,0:0:0:0:
256,192,206636,12,0,208593,0:0:0:0:
69,204,208723,6,0,L|77:114,1,90
326,245,208984,2,0,L|317:334,1,90
408,275,209245,1,0,0:0:0:0:
408,275,209375,1,0,0:0:0:0:
485,224,209506,2,0,P|466:183|469:139,1,90
501,54,209767,2,0,P|453:31|318:48,1,180
177,111,210158,5,0,0:0:0:0:
177,111,210288,2,0,P|114:111|83:84,1,90
88,5,210549,1,0,0:0:0:0:
106,228,210680,1,0,0:0:0:0:
139,296,210810,6,0,L|145:203,1,90
231,259,211071,2,0,L|225:348,1,90
238,181,211332,2,0,L|244:88,1,90
330,144,211593,2,0,L|324:233,1,90
369,42,211854,6,0,P|404:91|520:89,1,180
369,42,212245,1,0,0:0:0:0:
298,90,212375,1,0,0:0:0:0:
220,54,212506,1,0,0:0:0:0:
128,162,212636,5,0,0:0:0:0:
155,168,212701,1,0,0:0:0:0:
181,165,212766,1,0,0:0:0:0:
206,156,212831,1,0,0:0:0:0:
228,140,212896,1,0,0:0:0:0:
220,54,213027,1,0,0:0:0:0:
103,152,213158,2,0,P|102:202|144:263,1,90
232,322,213419,5,0,0:0:0:0:
271,309,213549,1,0,0:0:0:0:
271,309,213680,2,0,P|273:264|255:223,1,90
103,152,213941,1,0,0:0:0:0:
199,174,214071,1,0,0:0:0:0:
270,113,214201,2,0,L|363:103,1,90
460,11,214462,5,0,0:0:0:0:
445,38,214527,1,0,0:0:0:0:
438,69,214592,1,0,0:0:0:0:
440,100,214657,1,0,0:0:0:0:
451,130,214723,2,0,L|422:221,1,90
309,314,214984,5,0,0:0:0:0:
270,113,215114,1,0,0:0:0:0:
228,269,215245,1,0,0:0:0:0:
309,314,215375,1,0,0:0:0:0:
153,327,215506,2,0,P|137:285|139:240,1,90
70,136,215767,2,0,P|36:165|17:229,1,90
200,180,216027,5,0,0:0:0:0:
57,281,216158,1,0,0:0:0:0:
200,180,216288,2,0,L|190:86,1,90
235,266,216549,1,0,0:0:0:0:
261,249,216614,1,0,0:0:0:0:
280,224,216679,1,0,0:0:0:0:
291,194,216744,1,0,0:0:0:0:
291,163,216809,1,0,0:0:0:0:
246,35,216941,1,0,0:0:0:0:
256,192,217071,12,0,220201,0:0:0:0:
201,40,221245,5,0,0:0:0:0:
201,40,221506,2,0,L|191:120,1,80.9999975280763
141,300,221767,2,0,P|220:302|276:247,1,161.999995056153
184,203,222158,1,0,0:0:0:0:
65,74,222288,2,0,L|79:265,1,161.999995056153
270,117,222680,1,0,0:0:0:0:
270,117,222810,2,0,P|230:109|191:119,1,80.9999975280763
361,68,223071,5,0,0:0:0:0:
361,68,223201,1,0,0:0:0:0:
422,192,223332,1,0,0:0:0:0:
422,192,223593,2,0,L|412:287,1,80.9999975280763
331,241,223854,1,0,0:0:0:0:
227,308,223984,1,0,0:0:0:0:
226,308,224114,2,0,P|186:306|149:291,1,80.9999975280763
43,182,224375,6,0,L|231:176,1,161.999995056153
268,98,224767,1,0,0:0:0:0:
84,40,224897,1,0,0:0:0:0:
84,40,225027,1,0,0:0:0:0:
268,98,225158,5,0,0:0:0:0:
295,103,225223,1,0,0:0:0:0:
323,100,225288,1,0,0:0:0:0:
349,88,225353,1,0,0:0:0:0:
370,70,225419,2,0,P|363:197|382:238,1,161.999995056153
459,283,225810,1,0,0:0:0:0:
310,272,225941,6,0,L|213:266,1,80.9999975280763
105,341,226201,2,0,L|202:335,1,80.9999975280763
35,275,226462,2,0,P|77:231|52:117,1,161.999995056153
6,79,226854,1,0,0:0:0:0:
6,79,226984,2,0,P|53:48|107:55,1,80.9999975280763
239,88,227245,1,0,0:0:0:0:
239,88,227375,1,0,0:0:0:0:
223,278,227506,5,0,0:0:0:0:
223,278,227636,1,0,0:0:0:0:
413,294,227767,1,0,0:0:0:0:
413,294,227897,1,0,0:0:0:0:
429,104,228027,1,0,0:0:0:0:
429,104,228158,1,0,0:0:0:0:
239,88,228288,1,0,0:0:0:0:
239,88,228418,1,0,0:0:0:0:
246,184,228549,5,0,0:0:0:0:
246,184,228679,1,0,0:0:0:0:
319,270,228810,1,0,0:0:0:0:
319,270,228941,1,0,0:0:0:0:
406,197,229071,1,0,0:0:0:0:
406,197,229201,1,0,0:0:0:0:
332,109,229332,1,0,0:0:0:0:
332,109,229463,1,0,0:0:0:0:
326,190,230114,5,0,0:0:0:0:
256,192,230245,12,0,235071,0:0:0:0:
256,192,235201,12,0,235854,0:0:0:0:
