osu file format v14

[General]
AudioFilename: audio.mp3
AudioLeadIn: 0
PreviewTime: 52909
Countdown: 0
SampleSet: Normal
StackLeniency: 0.7
Mode: 1
LetterboxInBreaks: 0
WidescreenStoryboard: 1

[Editor]
Bookmarks: 19684,43684,73684,113284,151684,170884,209284,228484,276484,314884,338884
DistanceSpacing: 1.7
BeatDivisor: 4
GridSize: 8
TimelineZoom: 2.599999

[Metadata]
Title:[Utattemita] Nanairo no Tsundere [Gendai-ban]
TitleUnicode:【歌ってみた】七色のツンデレ【現代版】
Artist:Lzie
ArtistUnicode:Lzie
Creator:Rinze
Version:Love-Hate Syndrome (feat. Roxy-)
Source:
Tags:roxy- kurokurokuro ler1211 japanese mashcore lolicore hardcore breakcore jcore j-core electronic gendaiban
BeatmapID:3930183
BeatmapSetID:1905994

[Difficulty]
HPDrainRate:5
CircleSize:5
OverallDifficulty:7
ApproachRate:5
SliderMultiplier:1.4
SliderTickRate:1

[Events]
//Background and Video events
0,0,"texas.jpg",0,0
//Break Periods
//Storyboard Layer 0 (Background)
//Storyboard Layer 1 (Fail)
//Storyboard Layer 2 (Pass)
//Storyboard Layer 3 (Foreground)
//Storyboard Layer 4 (Overlay)
//Storyboard Sound Samples

[TimingPoints]
484,300,4,1,0,75,1,0
5246,-100,4,1,0,85,0,0
14882,-100,4,1,0,85,0,0
15182,-97.6975545875707,4,1,0,85,0,0
15482,-95.4481217239136,4,1,0,85,0,0
15782,-93.2504808240314,4,1,0,85,0,0
16082,-91.1034394062302,4,1,0,85,0,0
16382,-89.0058324450561,4,1,0,85,0,0
16682,-86.9565217391304,4,1,0,85,0,0
17132,-86.9565217391304,4,1,0,85,0,0
17207,-87.3147048395718,4,1,0,85,0,0
17282,-87.6743633340478,4,1,0,85,0,0
17357,-88.0355032998623,4,1,0,85,0,0
17432,-88.3981308393522,4,1,0,85,0,0
17507,-88.7622520799908,4,1,0,85,0,0
17582,-89.1278731744907,4,1,0,85,0,0
17657,-89.4950003009087,4,1,0,85,0,0
17732,-89.8636396627492,4,1,0,85,0,0
17807,-90.2337974890697,4,1,0,85,0,0
17882,-90.605480034586,4,1,0,85,0,0
17957,-90.9786935797773,4,1,0,85,0,0
18032,-91.3534444309932,4,1,0,85,0,0
18107,-91.7297389205596,4,1,0,85,0,0
18182,-92.1075834068859,4,1,0,85,0,0
18257,-92.4869842745726,4,1,0,85,0,0
18332,-92.867947934519,4,1,0,85,0,0
18407,-93.2504808240313,4,1,0,85,0,0
18482,-93.6345894069322,4,1,0,85,0,0
18557,-94.020280173669,4,1,0,85,0,0
18632,-94.4075596414242,4,1,0,85,0,0
18707,-94.7964343542251,4,1,0,85,0,0
18782,-95.1869108830547,4,1,0,85,0,0
18857,-95.5789958259623,4,1,0,85,0,0
18932,-95.9726958081755,4,1,0,85,0,0
19007,-96.3680174822118,4,1,0,85,0,0
19082,-96.7649675279913,4,1,0,85,0,0
19157,-97.1635526529491,4,1,0,85,0,0
19232,-97.5637795921491,4,1,0,85,0,0
19307,-97.9656551083978,4,1,0,85,0,0
19382,-98.369185992358,4,1,0,85,0,0
19457,-98.7743790626643,4,1,0,85,0,0
19532,-99.181241166038,4,1,0,85,0,0
19607,-99.5897791774025,4,1,0,85,0,0
19682,-99.9999999999999,4,1,0,85,0,0
29284,-100,4,1,0,100,0,1
34084,-100,4,1,0,85,0,0
42482,-83.3333333333333,4,1,0,85,0,0
42782,-89.5474943186285,4,1,0,85,0,0
43082,-96.2250448649377,4,1,0,85,0,0
43382,-103.400539900233,4,1,0,85,0,0
43457,-105.276509550439,4,1,0,85,0,0
43532,-107.186514440034,4,1,0,85,0,0
43682,-111.111111111111,4,1,0,85,0,0
43834,-111.111111111111,4,1,0,75,0,0
50809,-100,4,1,0,85,0,0
53284,-100,4,1,0,100,0,1
64084,-100,4,1,0,85,0,0
86882,-83.3333333333333,4,1,0,85,0,0
87182,-87.2195949493422,4,1,0,85,0,0
87482,-91.2870929175277,4,1,0,85,0,0
87632,-93.3914315927014,4,1,0,85,0,0
87782,-95.5442792204367,4,1,0,85,0,0
87857,-96.639242335969,4,1,0,85,0,0
87932,-97.7467540230553,4,1,0,85,0,0
88082,-100,4,1,0,85,0,0
92884,-100,4,1,0,100,0,1
110882,-100,4,1,0,100,0,1
110957,-100.660676122253,4,1,0,100,0,1
111032,-101.325717173891,4,1,0,100,0,1
111107,-101.995151992961,4,1,0,100,0,1
111182,-102.669009608034,4,1,0,100,0,1
111257,-103.347319239468,4,1,0,100,0,1
111332,-104.030110300672,4,1,0,100,0,1
111407,-104.717412399382,4,1,0,100,0,1
111482,-105.409255338946,4,1,0,100,0,1
111557,-106.105669119615,4,1,0,100,0,1
111632,-106.806683939845,4,1,0,100,0,1
111707,-107.512330197606,4,1,0,100,0,1
111782,-108.2226384917,4,1,0,100,0,1
111857,-108.937639623087,4,1,0,100,0,1
111932,-109.657364596222,4,1,0,100,0,1
112007,-110.381844620402,4,1,0,100,0,1
112084,-111.111111111111,4,1,0,65,0,0
113209,-100,4,1,0,85,0,0
140809,-83.3333333333333,4,1,0,85,0,0
142009,-100,4,1,0,85,0,0
151834,-111.111111111111,4,1,0,75,0,0
161209,-100,4,1,0,85,0,0
168409,-83.3333333333333,4,1,0,85,0,0
170509,-100,4,1,0,60,0,0
170809,-100,4,1,0,100,0,0
170884,-100,4,1,0,100,0,1
209284,-100,4,1,0,85,0,0
227209,-83.3333333333333,4,1,0,85,0,0
228109,-100,4,1,0,85,0,0
247684,-100,4,1,0,100,0,1
266884,-100,4,1,0,85,0,0
275209,-83.3333333333333,4,1,0,85,0,0
276109,-100,4,1,0,85,0,0
286234,-111.111111111111,4,1,0,75,0,0
295534,-100,4,1,0,100,0,0
295684,-100,4,1,0,100,0,1
313682,-83.3333333333333,4,1,0,100,0,1
313757,-84.8452287676769,4,1,0,100,0,1
313832,-86.3845541356731,4,1,0,100,0,1
313907,-87.9518070916195,4,1,0,100,0,1
313982,-89.5474943186285,4,1,0,100,0,1
314057,-91.1721316924354,4,1,0,100,0,1
314132,-92.8262444481774,4,1,0,100,0,1
314207,-94.5103673501989,4,1,0,100,0,1
314282,-96.2250448649377,4,1,0,100,0,1
314357,-97.9708313369473,4,1,0,100,0,1
314432,-99.7482911681134,4,1,0,100,0,1
314507,-101.557999000121,4,1,0,100,0,1
314582,-103.400539900233,4,1,0,100,0,1
314657,-105.276509550439,4,1,0,100,0,1
314732,-107.186514440034,4,1,0,100,0,1
314807,-109.131172061696,4,1,0,100,0,1
314884,-111.111111111111,4,1,0,80,0,0
319684,-100,4,1,0,100,0,1
338884,-100,4,1,0,85,0,0
348784,-111.111111111111,4,1,0,75,0,0
358384,-111.111111111111,4,1,0,65,0,0
362809,-111.111111111111,4,1,0,55,0,0

[HitObjects]
250,190,484,5,0,0:0:0:0:
250,190,634,1,8,0:0:0:0:
250,190,784,1,0,0:0:0:0:
250,190,859,1,8,0:0:0:0:
250,190,1009,1,8,0:0:0:0:
250,190,1084,1,0,0:0:0:0:
250,190,1234,1,0,0:0:0:0:
250,190,1309,1,8,0:0:0:0:
250,190,1459,1,8,0:0:0:0:
250,190,1534,1,0,0:0:0:0:
250,190,1834,1,8,0:0:0:0:
250,190,1984,1,0,0:0:0:0:
250,190,2059,1,8,0:0:0:0:
250,190,2209,1,0,0:0:0:0:
250,190,2284,1,0,0:0:0:0:
250,190,2359,1,8,0:0:0:0:
250,190,2434,1,0,0:0:0:0:
250,190,2509,1,8,0:0:0:0:
250,190,2659,1,0,0:0:0:0:
250,190,2734,1,8,0:0:0:0:
250,190,2809,1,8,0:0:0:0:
250,190,2884,1,0,0:0:0:0:
250,190,3034,1,8,0:0:0:0:
250,190,3184,1,0,0:0:0:0:
250,190,3259,1,8,0:0:0:0:
250,190,3409,1,8,0:0:0:0:
250,190,3484,1,0,0:0:0:0:
250,190,3634,1,0,0:0:0:0:
250,190,3709,1,8,0:0:0:0:
250,190,3859,1,8,0:0:0:0:
250,190,3934,1,0,0:0:0:0:
250,190,4234,1,8,0:0:0:0:
250,190,4384,1,0,0:0:0:0:
250,190,4459,1,8,0:0:0:0:
250,190,4609,1,0,0:0:0:0:
250,190,4684,1,8,0:0:0:0:
250,190,4759,1,0,0:0:0:0:
250,190,4834,1,0,0:0:0:0:
250,190,4909,1,8,0:0:0:0:
250,190,5059,1,0,0:0:0:0:
250,190,5134,1,8,0:0:0:0:
250,190,5209,1,8,0:0:0:0:
250,190,5284,1,0,0:0:0:0:
250,190,5434,1,0,0:0:0:0:
250,190,5584,1,8,0:0:0:0:
250,190,5734,1,0,0:0:0:0:
250,190,5809,1,8,0:0:0:0:
250,190,5884,1,0,0:0:0:0:
250,190,5959,1,8,0:0:0:0:
250,190,6034,1,0,0:0:0:0:
250,190,6184,1,8,0:0:0:0:
250,190,6259,1,8,0:0:0:0:
250,190,6334,1,8,0:0:0:0:
250,190,6484,1,0,0:0:0:0:
250,190,6784,1,8,0:0:0:0:
250,190,6934,1,0,0:0:0:0:
250,190,7009,1,8,0:0:0:0:
250,190,7159,1,8,0:0:0:0:
250,190,7234,1,0,0:0:0:0:
250,190,7384,1,8,0:0:0:0:
250,190,7459,1,8,0:0:0:0:
250,190,7534,1,8,0:0:0:0:
250,190,7684,1,0,0:0:0:0:
250,190,7834,1,0,0:0:0:0:
250,190,7984,1,8,0:0:0:0:
250,190,8134,1,0,0:0:0:0:
250,190,8209,1,8,0:0:0:0:
250,190,8284,1,0,0:0:0:0:
250,190,8359,1,8,0:0:0:0:
250,190,8434,1,0,0:0:0:0:
250,190,8584,1,8,0:0:0:0:
250,190,8734,1,8,0:0:0:0:
250,190,8884,1,0,0:0:0:0:
250,190,8959,1,0,0:0:0:0:
250,190,9034,1,0,0:0:0:0:
250,190,9109,1,0,0:0:0:0:
250,190,9184,1,8,0:0:0:0:
250,190,9259,1,8,0:0:0:0:
250,190,9334,1,8,0:0:0:0:
250,190,9409,1,8,0:0:0:0:
250,190,9484,1,0,0:0:0:0:
250,190,9559,1,8,0:0:0:0:
250,190,9634,1,0,0:0:0:0:
250,190,9784,1,8,0:0:0:0:
250,190,10084,1,4,0:0:0:0:
250,190,10234,1,0,0:0:0:0:
250,190,10384,1,8,0:0:0:0:
250,190,10534,1,0,0:0:0:0:
250,190,10609,1,8,0:0:0:0:
250,190,10684,1,0,0:0:0:0:
250,190,10759,1,8,0:0:0:0:
250,190,10834,1,0,0:0:0:0:
250,190,10984,1,8,0:0:0:0:
250,190,11059,1,8,0:0:0:0:
250,190,11134,1,8,0:0:0:0:
250,190,11284,1,0,0:0:0:0:
250,190,11434,1,0,0:0:0:0:
250,190,11509,1,0,0:0:0:0:
250,190,11584,1,8,0:0:0:0:
250,190,11734,1,0,0:0:0:0:
250,190,11809,1,8,0:0:0:0:
250,190,11959,1,0,0:0:0:0:
250,190,12034,1,8,0:0:0:0:
250,190,12184,1,4,0:0:0:0:
250,190,12484,1,4,0:0:0:0:
250,190,12634,1,0,0:0:0:0:
250,190,12784,1,8,0:0:0:0:
250,190,12934,1,0,0:0:0:0:
250,190,13009,1,8,0:0:0:0:
250,190,13084,1,0,0:0:0:0:
250,190,13159,1,8,0:0:0:0:
250,190,13234,1,0,0:0:0:0:
250,190,13384,1,8,0:0:0:0:
250,190,13459,1,8,0:0:0:0:
250,190,13534,1,8,0:0:0:0:
250,190,13684,1,0,0:0:0:0:
250,190,13834,1,0,0:0:0:0:
250,190,13909,1,0,0:0:0:0:
250,190,13984,1,8,0:0:0:0:
250,190,14134,1,0,0:0:0:0:
250,190,14209,1,0,0:0:0:0:
250,190,14359,1,8,0:0:0:0:
250,190,14434,1,0,0:0:0:0:
250,190,14584,1,8,0:0:0:0:
250,190,14659,1,8,0:0:0:0:
250,190,14734,1,8,0:0:0:0:
250,190,14884,1,4,0:0:0:0:
250,190,15184,1,4,0:0:0:0:
250,190,15484,1,4,0:0:0:0:
250,190,15784,1,4,0:0:0:0:
250,190,16084,1,4,0:0:0:0:
250,190,16384,1,4,0:0:0:0:
250,190,16684,1,4,0:0:0:0:
250,190,16834,1,8,0:0:0:0:
250,190,16909,1,8,0:0:0:0:
250,190,16984,1,0,0:0:0:0:
250,190,17134,1,8,0:0:0:0:
250,190,17209,1,8,0:0:0:0:
250,190,17284,1,0,0:0:0:0:
250,190,17359,1,0,0:0:0:0:
250,190,17434,1,0,0:0:0:0:
250,190,17509,1,0,0:0:0:0:
250,190,17584,1,8,0:0:0:0:
250,190,17659,1,0,0:0:0:0:
250,190,17734,1,8,0:0:0:0:
250,190,17809,1,8,0:0:0:0:
250,190,17884,1,0,0:0:0:0:
250,190,17959,1,0,0:0:0:0:
250,190,18034,1,8,0:0:0:0:
250,190,18109,1,8,0:0:0:0:
250,190,18184,1,0,0:0:0:0:
250,190,18259,1,0,0:0:0:0:
250,190,18334,1,8,0:0:0:0:
250,190,18409,1,8,0:0:0:0:
250,190,18484,1,0,0:0:0:0:
250,190,18559,1,0,0:0:0:0:
250,190,18634,1,0,0:0:0:0:
250,190,18709,1,0,0:0:0:0:
250,190,18784,1,8,0:0:0:0:
250,190,18859,1,8,0:0:0:0:
250,190,18934,1,8,0:0:0:0:
250,190,19009,1,8,0:0:0:0:
250,190,19084,1,0,0:0:0:0:
250,190,19159,1,0,0:0:0:0:
250,190,19234,1,8,0:0:0:0:
250,190,19309,1,0,0:0:0:0:
250,190,19384,1,8,0:0:0:0:
250,190,19459,1,8,0:0:0:0:
250,190,19534,1,8,0:0:0:0:
256,192,19684,1,4,0:0:0:0:
256,192,19984,1,8,0:0:0:0:
256,192,20134,1,0,0:0:0:0:
256,192,20284,1,8,0:0:0:0:
256,192,20359,1,0,0:0:0:0:
256,192,20434,1,8,0:0:0:0:
256,192,20509,1,8,0:0:0:0:
256,192,20584,1,0,0:0:0:0:
256,192,20659,1,0,0:0:0:0:
256,192,20734,1,8,0:0:0:0:
256,192,20884,1,0,0:0:0:0:
256,192,21034,1,8,0:0:0:0:
256,192,21109,1,8,0:0:0:0:
256,192,21184,1,8,0:0:0:0:
256,192,21334,1,0,0:0:0:0:
256,192,21409,1,8,0:0:0:0:
256,192,21559,1,0,0:0:0:0:
256,192,21634,1,8,0:0:0:0:
256,192,21784,1,8,0:0:0:0:
256,192,21934,1,0,0:0:0:0:
256,192,22009,1,8,0:0:0:0:
256,192,22084,1,0,0:0:0:0:
256,192,22159,1,0,0:0:0:0:
256,192,22234,1,0,0:0:0:0:
256,192,22384,1,8,0:0:0:0:
256,192,22534,1,0,0:0:0:0:
256,192,22609,1,0,0:0:0:0:
256,192,22684,1,8,0:0:0:0:
256,192,22834,1,8,0:0:0:0:
256,192,22909,1,8,0:0:0:0:
256,192,22984,1,0,0:0:0:0:
256,192,23059,1,8,0:0:0:0:
256,192,23134,1,0,0:0:0:0:
256,192,23209,1,0,0:0:0:0:
256,192,23284,1,8,0:0:0:0:
256,192,23434,1,8,0:0:0:0:
256,192,23584,1,0,0:0:0:0:
256,192,23659,1,8,0:0:0:0:
256,192,23734,1,8,0:0:0:0:
256,192,23809,1,0,0:0:0:0:
256,192,23884,1,8,0:0:0:0:
256,192,24034,1,0,0:0:0:0:
256,192,24184,1,8,0:0:0:0:
256,192,24259,1,8,0:0:0:0:
256,192,24334,1,8,0:0:0:0:
256,192,24484,1,4,0:0:0:0:
256,192,24784,1,8,0:0:0:0:
256,192,24934,1,8,0:0:0:0:
256,192,25084,1,0,0:0:0:0:
256,192,25159,1,0,0:0:0:0:
256,192,25234,1,8,0:0:0:0:
256,192,25384,1,0,0:0:0:0:
256,192,25534,1,8,0:0:0:0:
256,192,25684,1,0,0:0:0:0:
256,192,25759,1,0,0:0:0:0:
256,192,25834,1,8,0:0:0:0:
256,192,25909,1,8,0:0:0:0:
256,192,25984,1,8,0:0:0:0:
256,192,26134,1,0,0:0:0:0:
256,192,26209,1,8,0:0:0:0:
256,192,26284,1,0,0:0:0:0:
256,192,26359,1,0,0:0:0:0:
256,192,26434,1,8,0:0:0:0:
256,192,26509,1,0,0:0:0:0:
256,192,26584,1,8,0:0:0:0:
256,192,26734,1,8,0:0:0:0:
256,192,26884,1,0,0:0:0:0:
256,192,26959,1,0,0:0:0:0:
256,192,27034,1,0,0:0:0:0:
256,192,27184,1,8,0:0:0:0:
256,192,27334,1,8,0:0:0:0:
256,192,27484,1,0,0:0:0:0:
256,192,27559,1,0,0:0:0:0:
256,192,27634,1,8,0:0:0:0:
256,192,27709,1,8,0:0:0:0:
256,192,27784,1,0,0:0:0:0:
256,192,27934,1,0,0:0:0:0:
256,192,28084,1,8,0:0:0:0:
256,192,28159,1,0,0:0:0:0:
256,192,28234,1,8,0:0:0:0:
256,192,28309,1,8,0:0:0:0:
256,192,28384,1,0,0:0:0:0:
256,192,28459,1,8,0:0:0:0:
256,192,28534,1,0,0:0:0:0:
256,192,28609,1,0,0:0:0:0:
256,192,28684,1,8,0:0:0:0:
256,192,28834,1,0,0:0:0:0:
256,192,28984,1,8,0:0:0:0:
256,192,29059,1,8,0:0:0:0:
256,192,29134,1,8,0:0:0:0:
256,192,29284,1,4,0:0:0:0:
256,192,29584,1,8,0:0:0:0:
256,192,29734,1,0,0:0:0:0:
256,192,29809,1,8,0:0:0:0:
256,192,29959,1,8,0:0:0:0:
256,192,30034,1,0,0:0:0:0:
256,192,30109,1,0,0:0:0:0:
256,192,30184,1,8,0:0:0:0:
256,192,30334,1,8,0:0:0:0:
256,192,30484,1,0,0:0:0:0:
256,192,30559,1,8,0:0:0:0:
256,192,30634,1,0,0:0:0:0:
256,192,30709,1,0,0:0:0:0:
256,192,30784,1,8,0:0:0:0:
256,192,30934,1,0,0:0:0:0:
256,192,31009,1,8,0:0:0:0:
256,192,31159,1,8,0:0:0:0:
256,192,31234,1,0,0:0:0:0:
256,192,31309,1,0,0:0:0:0:
256,192,31384,1,8,0:0:0:0:
256,192,31459,1,0,0:0:0:0:
256,192,31534,1,8,0:0:0:0:
256,192,31684,1,0,0:0:0:0:
256,192,31759,1,0,0:0:0:0:
256,192,31834,1,8,0:0:0:0:
256,192,31909,1,8,0:0:0:0:
256,192,31984,1,0,0:0:0:0:
256,192,32134,1,8,0:0:0:0:
256,192,32209,1,0,0:0:0:0:
256,192,32284,1,0,0:0:0:0:
256,192,32359,1,0,0:0:0:0:
256,192,32434,1,8,0:0:0:0:
256,192,32509,1,8,0:0:0:0:
256,192,32584,1,0,0:0:0:0:
256,192,32734,1,0,0:0:0:0:
256,192,32884,1,8,0:0:0:0:
256,192,32959,1,8,0:0:0:0:
256,192,33034,1,0,0:0:0:0:
256,192,33109,1,8,0:0:0:0:
256,192,33184,1,8,0:0:0:0:
256,192,33259,1,0,0:0:0:0:
256,192,33334,1,8,0:0:0:0:
256,192,33409,1,8,0:0:0:0:
256,192,33484,1,0,0:0:0:0:
256,192,33559,1,0,0:0:0:0:
256,192,33634,1,8,0:0:0:0:
256,192,33709,1,8,0:0:0:0:
256,192,33784,1,8,0:0:0:0:
256,192,33859,1,0,0:0:0:0:
256,192,33934,1,8,0:0:0:0:
256,192,34084,1,4,0:0:0:0:
256,192,34384,1,8,0:0:0:0:
256,192,34534,1,0,0:0:0:0:
256,192,34684,1,8,0:0:0:0:
256,192,34759,1,0,0:0:0:0:
256,192,34834,1,8,0:0:0:0:
256,192,34909,1,8,0:0:0:0:
256,192,34984,1,0,0:0:0:0:
256,192,35134,1,8,0:0:0:0:
256,192,35284,1,0,0:0:0:0:
256,192,35434,1,8,0:0:0:0:
256,192,35509,1,8,0:0:0:0:
256,192,35584,1,8,0:0:0:0:
256,192,35734,1,0,0:0:0:0:
256,192,35809,1,8,0:0:0:0:
256,192,35959,1,0,0:0:0:0:
256,192,36034,1,8,0:0:0:0:
256,192,36184,1,8,0:0:0:0:
256,192,36259,1,0,0:0:0:0:
256,192,36409,1,8,0:0:0:0:
256,192,36484,1,0,0:0:0:0:
256,192,36559,1,0,0:0:0:0:
256,192,36634,1,0,0:0:0:0:
256,192,36784,1,8,0:0:0:0:
256,192,36934,1,0,0:0:0:0:
256,192,37084,1,0,0:0:0:0:
256,192,37159,1,0,0:0:0:0:
256,192,37234,1,8,0:0:0:0:
256,192,37309,1,8,0:0:0:0:
256,192,37384,1,0,0:0:0:0:
256,192,37534,1,8,0:0:0:0:
256,192,37684,1,0,0:0:0:0:
256,192,37759,1,0,0:0:0:0:
256,192,37834,1,8,0:0:0:0:
256,192,37909,1,8,0:0:0:0:
256,192,37984,1,0,0:0:0:0:
256,192,38059,1,8,0:0:0:0:
256,192,38134,1,8,0:0:0:0:
256,192,38209,1,0,0:0:0:0:
256,192,38284,1,8,0:0:0:0:
256,192,38434,1,0,0:0:0:0:
256,192,38584,1,8,0:0:0:0:
256,192,38659,1,8,0:0:0:0:
256,192,38734,1,8,0:0:0:0:
256,192,38884,1,4,0:0:0:0:
256,192,39184,1,8,0:0:0:0:
256,192,39334,1,8,0:0:0:0:
256,192,39484,1,0,0:0:0:0:
256,192,39559,1,0,0:0:0:0:
256,192,39634,1,8,0:0:0:0:
256,192,39784,1,0,0:0:0:0:
256,192,39934,1,8,0:0:0:0:
256,192,40009,1,8,0:0:0:0:
256,192,40084,1,0,0:0:0:0:
256,192,40234,1,8,0:0:0:0:
256,192,40309,1,8,0:0:0:0:
256,192,40384,1,8,0:0:0:0:
256,192,40534,1,0,0:0:0:0:
256,192,40609,1,8,0:0:0:0:
256,192,40759,1,0,0:0:0:0:
256,192,40834,1,8,0:0:0:0:
256,192,40984,1,0,0:0:0:0:
256,192,41059,1,0,0:0:0:0:
256,192,41134,1,0,0:0:0:0:
256,192,41209,1,0,0:0:0:0:
256,192,41284,1,0,0:0:0:0:
256,192,41434,1,8,0:0:0:0:
256,192,41509,1,0,0:0:0:0:
256,192,41584,1,8,0:0:0:0:
256,192,41734,1,8,0:0:0:0:
256,192,41884,1,0,0:0:0:0:
256,192,41959,1,0,0:0:0:0:
256,192,42034,1,8,0:0:0:0:
256,192,42109,1,8,0:0:0:0:
256,192,42184,1,0,0:0:0:0:
256,192,42334,1,0,0:0:0:0:
256,192,42484,1,12,0:0:0:0:
256,192,42784,1,12,0:0:0:0:
256,192,43084,1,12,0:0:0:0:
256,192,43384,1,8,0:0:0:0:
256,192,43459,1,8,0:0:0:0:
256,192,43534,1,8,0:0:0:0:
256,192,43684,1,4,0:0:0:0:
256,192,43984,1,0,0:0:0:0:
256,192,44284,1,8,0:0:0:0:
256,192,44584,1,0,0:0:0:0:
256,192,44734,1,8,0:0:0:0:
256,192,44884,1,0,0:0:0:0:
256,192,45034,1,8,0:0:0:0:
256,192,45184,1,0,0:0:0:0:
256,192,45484,1,8,0:0:0:0:
256,192,46084,1,0,0:0:0:0:
256,192,46384,1,0,0:0:0:0:
256,192,46684,1,8,0:0:0:0:
256,192,46984,1,0,0:0:0:0:
256,192,47134,1,8,0:0:0:0:
256,192,47284,1,0,0:0:0:0:
256,192,47434,1,8,0:0:0:0:
256,192,47584,1,0,0:0:0:0:
256,192,47884,1,8,0:0:0:0:
256,192,48184,1,8,0:0:0:0:
256,192,48334,1,8,0:0:0:0:
256,192,48484,1,0,0:0:0:0:
256,192,48784,1,0,0:0:0:0:
256,192,49084,1,8,0:0:0:0:
256,192,49384,1,0,0:0:0:0:
256,192,49534,1,8,0:0:0:0:
256,192,49684,1,0,0:0:0:0:
256,192,49834,1,8,0:0:0:0:
256,192,49984,1,0,0:0:0:0:
256,192,50284,1,8,0:0:0:0:
256,192,50584,1,8,0:0:0:0:
256,192,50634,1,8,0:0:0:0:
256,192,50684,1,8,0:0:0:0:
256,192,50734,1,8,0:0:0:0:
256,192,50884,1,4,0:0:0:0:
256,192,51109,1,12,0:0:0:0:
256,192,51484,1,4,0:0:0:0:
256,192,52084,1,4,0:0:0:0:
256,192,52684,1,4,0:0:0:0:
256,192,53284,1,4,0:0:0:0:
256,192,53584,1,4,0:0:0:0:
256,192,53884,1,8,0:0:0:0:
256,192,53959,1,0,0:0:0:0:
256,192,54109,1,0,0:0:0:0:
256,192,54184,1,8,0:0:0:0:
256,192,54334,1,0,0:0:0:0:
256,192,54409,1,0,0:0:0:0:
256,192,54484,1,8,0:0:0:0:
256,192,54634,1,0,0:0:0:0:
256,192,54709,1,8,0:0:0:0:
256,192,54784,1,8,0:0:0:0:
256,192,54859,1,0,0:0:0:0:
256,192,55009,1,8,0:0:0:0:
256,192,55084,1,0,0:0:0:0:
256,192,55234,1,8,0:0:0:0:
256,192,55309,1,0,0:0:0:0:
256,192,55384,1,0,0:0:0:0:
256,192,55534,1,8,0:0:0:0:
256,192,55684,1,0,0:0:0:0:
256,192,55759,1,0,0:0:0:0:
256,192,55834,1,8,0:0:0:0:
256,192,55909,1,0,0:0:0:0:
256,192,55984,1,8,0:0:0:0:
256,192,56059,1,8,0:0:0:0:
256,192,56134,1,0,0:0:0:0:
256,192,56209,1,8,0:0:0:0:
256,192,56284,1,0,0:0:0:0:
256,192,56359,1,8,0:0:0:0:
256,192,56434,1,0,0:0:0:0:
256,192,56509,1,0,0:0:0:0:
256,192,56584,1,8,0:0:0:0:
256,192,56659,1,0,0:0:0:0:
256,192,56734,1,8,0:0:0:0:
256,192,56809,1,8,0:0:0:0:
256,192,56884,1,0,0:0:0:0:
256,192,56959,1,0,0:0:0:0:
256,192,57034,1,8,0:0:0:0:
256,192,57109,1,8,0:0:0:0:
256,192,57184,1,0,0:0:0:0:
256,192,57259,1,0,0:0:0:0:
256,192,57334,1,8,0:0:0:0:
256,192,57484,1,0,0:0:0:0:
256,192,57559,1,0,0:0:0:0:
256,192,57634,1,8,0:0:0:0:
256,192,57784,1,0,0:0:0:0:
256,192,57934,1,8,0:0:0:0:
256,192,57984,1,8,0:0:0:0:
256,192,58034,1,8,0:0:0:0:
256,192,58084,1,0,0:0:0:0:
256,192,58309,1,8,0:0:0:0:
256,192,58384,1,0,0:0:0:0:
256,192,58534,1,8,0:0:0:0:
256,192,58684,1,0,0:0:0:0:
256,192,58759,1,0,0:0:0:0:
256,192,58834,1,8,0:0:0:0:
256,192,58909,1,8,0:0:0:0:
256,192,58984,1,0,0:0:0:0:
256,192,59059,1,8,0:0:0:0:
256,192,59134,1,8,0:0:0:0:
256,192,59209,1,8,0:0:0:0:
256,192,59284,1,0,0:0:0:0:
256,192,59434,1,8,0:0:0:0:
256,192,59509,1,0,0:0:0:0:
256,192,59584,1,0,0:0:0:0:
256,192,59659,1,8,0:0:0:0:
256,192,59809,1,8,0:0:0:0:
256,192,59884,1,0,0:0:0:0:
256,192,60034,1,8,0:0:0:0:
256,192,60109,1,0,0:0:0:0:
256,192,60184,1,0,0:0:0:0:
256,192,60334,1,8,0:0:0:0:
256,192,60484,1,0,0:0:0:0:
256,192,60709,1,8,0:0:0:0:
256,192,60784,1,0,0:0:0:0:
256,192,60934,1,8,0:0:0:0:
256,192,61084,1,0,0:0:0:0:
256,192,61234,1,8,0:0:0:0:
256,192,61309,1,8,0:0:0:0:
256,192,61384,1,0,0:0:0:0:
256,192,61459,1,0,0:0:0:0:
256,192,61534,1,8,0:0:0:0:
256,192,61684,1,0,0:0:0:0:
256,192,61759,1,0,0:0:0:0:
256,192,61834,1,8,0:0:0:0:
256,192,61909,1,8,0:0:0:0:
256,192,61984,1,0,0:0:0:0:
256,192,62059,1,8,0:0:0:0:
256,192,62134,1,0,0:0:0:0:
256,192,62284,1,8,0:0:0:0:
256,192,62359,1,8,0:0:0:0:
256,192,62434,1,8,0:0:0:0:
256,192,62509,1,8,0:0:0:0:
256,192,62584,1,0,0:0:0:0:
256,192,62634,1,0,0:0:0:0:
256,192,62684,1,0,0:0:0:0:
256,192,62734,1,8,0:0:0:0:
256,192,62809,1,8,0:0:0:0:
256,192,62884,1,0,0:0:0:0:
256,192,63034,1,8,0:0:0:0:
256,192,63109,1,8,0:0:0:0:
256,192,63184,1,0,0:0:0:0:
256,192,63334,1,8,0:0:0:0:
256,192,63484,1,0,0:0:0:0:
256,192,63559,1,8,0:0:0:0:
256,192,63709,1,0,0:0:0:0:
256,192,63784,1,8,0:0:0:0:
256,192,64084,1,4,0:0:0:0:
256,192,64234,1,0,0:0:0:0:
256,192,64309,1,0,0:0:0:0:
256,192,64384,1,8,0:0:0:0:
256,192,64534,1,0,0:0:0:0:
256,192,64609,1,8,0:0:0:0:
256,192,64759,1,8,0:0:0:0:
256,192,64834,1,0,0:0:0:0:
256,192,64984,1,8,0:0:0:0:
256,192,65134,1,0,0:0:0:0:
256,192,65284,1,8,0:0:0:0:
256,192,65359,1,0,0:0:0:0:
256,192,65434,1,8,0:0:0:0:
256,192,65509,1,8,0:0:0:0:
256,192,65584,1,0,0:0:0:0:
256,192,65734,1,8,0:0:0:0:
256,192,65809,1,0,0:0:0:0:
256,192,65959,1,0,0:0:0:0:
256,192,66034,1,8,0:0:0:0:
256,192,66184,1,0,0:0:0:0:
256,192,66334,1,8,0:0:0:0:
256,192,66484,1,0,0:0:0:0:
256,192,66559,1,8,0:0:0:0:
256,192,66634,1,0,0:0:0:0:
256,192,66709,1,0,0:0:0:0:
256,192,66784,1,8,0:0:0:0:
256,192,66934,1,0,0:0:0:0:
256,192,67009,1,8,0:0:0:0:
256,192,67159,1,8,0:0:0:0:
256,192,67234,1,0,0:0:0:0:
256,192,67384,1,8,0:0:0:0:
256,192,67534,1,0,0:0:0:0:
256,192,67609,1,0,0:0:0:0:
256,192,67684,1,8,0:0:0:0:
256,192,67759,1,0,0:0:0:0:
256,192,67834,1,8,0:0:0:0:
256,192,67909,1,8,0:0:0:0:
256,192,67984,1,0,0:0:0:0:
256,192,68134,1,8,0:0:0:0:
256,192,68209,1,0,0:0:0:0:
256,192,68359,1,0,0:0:0:0:
256,192,68434,1,8,0:0:0:0:
256,192,68584,1,0,0:0:0:0:
256,192,68734,1,8,0:0:0:0:
256,192,68884,1,0,0:0:0:0:
256,192,68959,1,0,0:0:0:0:
256,192,69034,1,8,0:0:0:0:
256,192,69109,1,0,0:0:0:0:
256,192,69184,1,8,0:0:0:0:
256,192,69334,1,0,0:0:0:0:
256,192,69409,1,8,0:0:0:0:
256,192,69559,1,8,0:0:0:0:
256,192,69634,1,0,0:0:0:0:
256,192,69709,1,0,0:0:0:0:
256,192,69784,1,8,0:0:0:0:
256,192,69934,1,0,0:0:0:0:
256,192,70084,1,8,0:0:0:0:
256,192,70159,1,8,0:0:0:0:
256,192,70234,1,0,0:0:0:0:
256,192,70309,1,8,0:0:0:0:
256,192,70384,1,0,0:0:0:0:
256,192,70534,1,8,0:0:0:0:
256,192,70609,1,0,0:0:0:0:
256,192,70759,1,0,0:0:0:0:
256,192,70834,1,8,0:0:0:0:
256,192,70909,1,8,0:0:0:0:
256,192,70984,1,0,0:0:0:0:
256,192,71134,1,8,0:0:0:0:
256,192,71284,1,0,0:0:0:0:
256,192,71359,1,8,0:0:0:0:
256,192,71434,1,0,0:0:0:0:
256,192,71509,1,0,0:0:0:0:
256,192,71584,1,8,0:0:0:0:
256,192,71734,1,0,0:0:0:0:
256,192,71809,1,8,0:0:0:0:
256,192,71959,1,8,0:0:0:0:
256,192,72034,1,0,0:0:0:0:
256,192,72109,1,0,0:0:0:0:
256,192,72184,1,8,0:0:0:0:
256,192,72334,1,0,0:0:0:0:
256,192,72409,1,0,0:0:0:0:
256,192,72484,1,8,0:0:0:0:
256,192,72559,1,0,0:0:0:0:
256,192,72634,1,8,0:0:0:0:
256,192,72709,1,8,0:0:0:0:
256,192,72784,1,0,0:0:0:0:
256,192,72934,1,8,0:0:0:0:
256,192,73009,1,0,0:0:0:0:
256,192,73159,1,0,0:0:0:0:
256,192,73234,1,8,0:0:0:0:
256,192,73309,1,8,0:0:0:0:
256,192,73384,1,0,0:0:0:0:
256,192,73684,1,4,0:0:0:0:
256,192,73834,1,0,0:0:0:0:
256,192,73984,1,8,0:0:0:0:
256,192,74134,1,0,0:0:0:0:
256,192,74209,1,8,0:0:0:0:
256,192,74284,1,0,0:0:0:0:
256,192,74434,1,0,0:0:0:0:
256,192,74509,1,0,0:0:0:0:
256,192,74584,1,8,0:0:0:0:
256,192,74734,1,8,0:0:0:0:
256,192,74884,1,0,0:0:0:0:
256,192,75109,1,0,0:0:0:0:
256,192,75184,1,8,0:0:0:0:
256,192,75334,1,8,0:0:0:0:
256,192,75484,1,0,0:0:0:0:
256,192,75559,1,8,0:0:0:0:
256,192,75634,1,0,0:0:0:0:
256,192,75709,1,0,0:0:0:0:
256,192,75784,1,8,0:0:0:0:
256,192,75934,1,8,0:0:0:0:
256,192,76009,1,8,0:0:0:0:
256,192,76084,1,0,0:0:0:0:
256,192,76234,1,0,0:0:0:0:
256,192,76384,1,8,0:0:0:0:
256,192,76534,1,8,0:0:0:0:
256,192,76684,1,0,0:0:0:0:
256,192,76759,1,0,0:0:0:0:
256,192,76834,1,8,0:0:0:0:
256,192,76909,1,0,0:0:0:0:
256,192,76984,1,8,0:0:0:0:
256,192,77134,1,8,0:0:0:0:
256,192,77284,1,0,0:0:0:0:
256,192,77359,1,0,0:0:0:0:
256,192,77434,1,0,0:0:0:0:
256,192,77509,1,0,0:0:0:0:
256,192,77584,1,8,0:0:0:0:
256,192,77734,1,0,0:0:0:0:
256,192,77809,1,8,0:0:0:0:
256,192,77959,1,0,0:0:0:0:
256,192,78034,1,8,0:0:0:0:
256,192,78109,1,8,0:0:0:0:
256,192,78184,1,0,0:0:0:0:
256,192,78334,1,8,0:0:0:0:
256,192,78409,1,8,0:0:0:0:
256,192,78484,1,0,0:0:0:0:
256,192,78634,1,0,0:0:0:0:
256,192,78784,1,8,0:0:0:0:
256,192,78934,1,0,0:0:0:0:
256,192,79009,1,0,0:0:0:0:
256,192,79159,1,8,0:0:0:0:
256,192,79234,1,0,0:0:0:0:
256,192,79309,1,0,0:0:0:0:
256,192,79384,1,8,0:0:0:0:
256,192,79534,1,0,0:0:0:0:
256,192,79609,1,8,0:0:0:0:
256,192,79684,1,0,0:0:0:0:
256,192,79834,1,0,0:0:0:0:
256,192,79984,1,8,0:0:0:0:
256,192,80059,1,8,0:0:0:0:
256,192,80134,1,0,0:0:0:0:
256,192,80209,1,0,0:0:0:0:
256,192,80359,1,8,0:0:0:0:
256,192,80434,1,0,0:0:0:0:
256,192,80584,1,8,0:0:0:0:
256,192,80734,1,8,0:0:0:0:
256,192,80884,1,0,0:0:0:0:
256,192,81109,1,0,0:0:0:0:
256,192,81184,1,8,0:0:0:0:
256,192,81334,1,8,0:0:0:0:
256,192,81484,1,0,0:0:0:0:
256,192,81634,1,0,0:0:0:0:
256,192,81709,1,0,0:0:0:0:
256,192,81784,1,8,0:0:0:0:
256,192,81934,1,8,0:0:0:0:
256,192,82084,1,0,0:0:0:0:
256,192,82159,1,8,0:0:0:0:
256,192,82309,1,0,0:0:0:0:
256,192,82384,1,8,0:0:0:0:
256,192,82534,1,0,0:0:0:0:
256,192,82609,1,0,0:0:0:0:
256,192,82684,1,8,0:0:0:0:
256,192,82759,1,8,0:0:0:0:
256,192,82834,1,0,0:0:0:0:
256,192,82909,1,8,0:0:0:0:
256,192,82984,1,0,0:0:0:0:
256,192,83059,1,0,0:0:0:0:
256,192,83134,1,8,0:0:0:0:
256,192,83284,1,4,0:0:0:0:
256,192,83584,1,8,0:0:0:0:
256,192,83734,1,0,0:0:0:0:
256,192,83884,1,0,0:0:0:0:
256,192,83959,1,0,0:0:0:0:
256,192,84034,1,8,0:0:0:0:
256,192,84109,1,8,0:0:0:0:
256,192,84184,1,0,0:0:0:0:
256,192,84334,1,8,0:0:0:0:
256,192,84484,1,0,0:0:0:0:
256,192,84559,1,0,0:0:0:0:
256,192,84634,1,0,0:0:0:0:
256,192,84784,1,8,0:0:0:0:
256,192,84934,1,0,0:0:0:0:
256,192,85009,1,8,0:0:0:0:
256,192,85084,1,0,0:0:0:0:
256,192,85159,1,0,0:0:0:0:
256,192,85234,1,8,0:0:0:0:
256,192,85384,1,0,0:0:0:0:
256,192,85459,1,0,0:0:0:0:
256,192,85534,1,0,0:0:0:0:
256,192,85609,1,8,0:0:0:0:
256,192,85684,1,0,0:0:0:0:
256,192,85834,1,0,0:0:0:0:
256,192,85984,1,8,0:0:0:0:
256,192,86059,1,8,0:0:0:0:
256,192,86134,1,8,0:0:0:0:
256,192,86284,1,0,0:0:0:0:
256,192,86434,1,8,0:0:0:0:
256,192,86509,1,8,0:0:0:0:
256,192,86584,1,0,0:0:0:0:
256,192,86659,1,0,0:0:0:0:
256,192,86734,1,8,0:0:0:0:
256,192,86884,1,12,0:0:0:0:
256,192,87184,1,12,0:0:0:0:
256,192,87484,1,12,0:0:0:0:
256,192,87634,1,0,0:0:0:0:
256,192,87784,1,8,0:0:0:0:
256,192,87859,1,8,0:0:0:0:
256,192,87934,1,8,0:0:0:0:
256,192,88084,1,4,0:0:0:0:
256,192,88384,1,8,0:0:0:0:
256,192,88534,1,0,0:0:0:0:
256,192,88684,1,8,0:0:0:0:
256,192,88759,1,8,0:0:0:0:
256,192,88834,1,0,0:0:0:0:
256,192,88909,1,8,0:0:0:0:
256,192,88984,1,0,0:0:0:0:
256,192,89059,1,0,0:0:0:0:
256,192,89134,1,8,0:0:0:0:
256,192,89284,1,0,0:0:0:0:
256,192,89434,1,8,0:0:0:0:
256,192,89509,1,0,0:0:0:0:
256,192,89584,1,8,0:0:0:0:
256,192,89734,1,8,0:0:0:0:
256,192,89884,1,0,0:0:0:0:
256,192,89959,1,0,0:0:0:0:
256,192,90034,1,8,0:0:0:0:
256,192,90109,1,8,0:0:0:0:
256,192,90184,1,0,0:0:0:0:
256,192,90334,1,0,0:0:0:0:
256,192,90484,1,8,0:0:0:0:
256,192,90634,1,0,0:0:0:0:
256,192,90709,1,0,0:0:0:0:
256,192,90784,1,8,0:0:0:0:
256,192,90934,1,8,0:0:0:0:
256,192,91009,1,8,0:0:0:0:
256,192,91084,1,0,0:0:0:0:
256,192,91234,1,0,0:0:0:0:
256,192,91309,1,0,0:0:0:0:
256,192,91384,1,8,0:0:0:0:
256,192,91459,1,0,0:0:0:0:
256,192,91534,1,8,0:0:0:0:
256,192,91609,1,8,0:0:0:0:
256,192,91684,1,0,0:0:0:0:
256,192,92884,1,0,0:0:0:0:
256,192,93109,1,0,0:0:0:0:
256,192,93184,1,8,0:0:0:0:
256,192,93334,1,8,0:0:0:0:
256,192,93484,1,0,0:0:0:0:
256,192,93559,1,0,0:0:0:0:
256,192,93634,1,8,0:0:0:0:
256,192,93709,1,0,0:0:0:0:
256,192,93784,1,8,0:0:0:0:
256,192,93934,1,8,0:0:0:0:
256,192,94009,1,8,0:0:0:0:
256,192,94084,1,0,0:0:0:0:
256,192,94159,1,8,0:0:0:0:
256,192,94309,1,8,0:0:0:0:
256,192,94384,1,0,0:0:0:0:
256,192,94534,1,0,0:0:0:0:
256,192,94609,1,0,0:0:0:0:
256,192,94684,1,8,0:0:0:0:
256,192,94834,1,8,0:0:0:0:
256,192,94909,1,8,0:0:0:0:
256,192,94984,1,8,0:0:0:0:
256,192,95059,1,8,0:0:0:0:
256,192,95209,1,8,0:0:0:0:
256,192,95284,1,0,0:0:0:0:
256,192,95434,1,0,0:0:0:0:
256,192,95584,1,8,0:0:0:0:
256,192,95734,1,8,0:0:0:0:
256,192,95809,1,8,0:0:0:0:
256,192,95884,1,0,0:0:0:0:
256,192,95959,1,8,0:0:0:0:
256,192,96034,1,0,0:0:0:0:
256,192,96109,1,0,0:0:0:0:
256,192,96184,1,8,0:0:0:0:
256,192,96334,1,8,0:0:0:0:
256,192,96484,1,0,0:0:0:0:
256,192,96559,1,0,0:0:0:0:
256,192,96634,1,0,0:0:0:0:
256,192,96709,1,0,0:0:0:0:
256,192,96784,1,8,0:0:0:0:
256,192,96934,1,8,0:0:0:0:
256,192,97009,1,8,0:0:0:0:
256,192,97084,1,0,0:0:0:0:
256,192,97159,1,0,0:0:0:0:
256,192,97234,1,8,0:0:0:0:
256,192,97309,1,0,0:0:0:0:
256,192,97384,1,8,0:0:0:0:
256,192,97534,1,8,0:0:0:0:
256,192,97684,1,4,0:0:0:0:
256,192,97984,1,8,0:0:0:0:
256,192,98134,1,8,0:0:0:0:
256,192,98284,1,0,0:0:0:0:
256,192,98359,1,0,0:0:0:0:
256,192,98434,1,0,0:0:0:0:
256,192,98584,1,0,0:0:0:0:
256,192,98734,1,8,0:0:0:0:
256,192,98884,1,0,0:0:0:0:
256,192,98959,1,0,0:0:0:0:
256,192,99109,1,0,0:0:0:0:
256,192,99184,1,8,0:0:0:0:
256,192,99334,1,8,0:0:0:0:
256,192,99484,1,0,0:0:0:0:
256,192,99559,1,0,0:0:0:0:
256,192,99634,1,8,0:0:0:0:
256,192,99784,1,0,0:0:0:0:
256,192,99934,1,0,0:0:0:0:
256,192,100084,1,0,0:0:0:0:
256,192,100234,1,8,0:0:0:0:
256,192,100309,1,0,0:0:0:0:
256,192,100384,1,8,0:0:0:0:
256,192,100534,1,8,0:0:0:0:
256,192,100684,1,0,0:0:0:0:
256,192,100759,1,0,0:0:0:0:
256,192,100834,1,0,0:0:0:0:
256,192,100984,1,0,0:0:0:0:
256,192,101134,1,8,0:0:0:0:
256,192,101284,1,0,0:0:0:0:
256,192,101321,1,0,0:0:0:0:
256,192,101584,1,8,0:0:0:0:
256,192,101659,1,0,0:0:0:0:
256,192,101734,1,0,0:0:0:0:
256,192,101809,1,0,0:0:0:0:
256,192,101884,1,8,0:0:0:0:
256,192,101959,1,8,0:0:0:0:
256,192,102034,1,0,0:0:0:0:
256,192,102071,1,0,0:0:0:0:
256,192,102184,1,8,0:0:0:0:
256,192,102259,1,8,0:0:0:0:
256,192,102334,1,8,0:0:0:0:
256,192,102409,1,8,0:0:0:0:
256,192,102484,1,0,0:0:0:0:
256,192,102709,1,0,0:0:0:0:
256,192,102784,1,8,0:0:0:0:
256,192,102934,1,0,0:0:0:0:
256,192,103084,1,8,0:0:0:0:
256,192,103159,1,0,0:0:0:0:
256,192,103234,1,8,0:0:0:0:
256,192,103309,1,8,0:0:0:0:
256,192,103384,1,0,0:0:0:0:
256,192,103459,1,0,0:0:0:0:
256,192,103534,1,8,0:0:0:0:
256,192,103684,1,0,0:0:0:0:
256,192,103759,1,8,0:0:0:0:
256,192,103909,1,8,0:0:0:0:
256,192,103984,1,0,0:0:0:0:
256,192,104134,1,0,0:0:0:0:
256,192,104284,1,8,0:0:0:0:
256,192,104359,1,0,0:0:0:0:
256,192,104434,1,8,0:0:0:0:
256,192,104509,1,8,0:0:0:0:
256,192,104584,1,8,0:0:0:0:
256,192,104659,1,8,0:0:0:0:
256,192,104809,1,8,0:0:0:0:
256,192,104884,1,0,0:0:0:0:
256,192,105034,1,0,0:0:0:0:
256,192,105109,1,0,0:0:0:0:
256,192,105184,1,8,0:0:0:0:
256,192,105334,1,0,0:0:0:0:
256,192,105409,1,0,0:0:0:0:
256,192,105484,1,8,0:0:0:0:
256,192,105559,1,0,0:0:0:0:
256,192,105709,1,0,0:0:0:0:
256,192,105784,1,8,0:0:0:0:
256,192,105934,1,8,0:0:0:0:
256,192,106084,1,0,0:0:0:0:
256,192,106159,1,0,0:0:0:0:
256,192,106234,1,0,0:0:0:0:
256,192,106384,1,8,0:0:0:0:
256,192,106459,1,8,0:0:0:0:
256,192,106534,1,0,0:0:0:0:
256,192,106609,1,8,0:0:0:0:
256,192,106684,1,0,0:0:0:0:
256,192,106759,1,0,0:0:0:0:
256,192,106834,1,8,0:0:0:0:
256,192,106909,1,0,0:0:0:0:
256,192,106984,1,8,0:0:0:0:
256,192,107134,1,8,0:0:0:0:
256,192,107284,1,4,0:0:0:0:
256,192,107584,1,12,0:0:0:0:
256,192,107884,1,0,0:0:0:0:
256,192,108034,1,8,0:0:0:0:
256,192,108184,1,8,0:0:0:0:
256,192,108334,1,8,0:0:0:0:
256,192,108484,1,0,0:0:0:0:
256,192,108559,1,0,0:0:0:0:
256,192,108709,1,0,0:0:0:0:
256,192,108784,1,8,0:0:0:0:
256,192,108934,1,0,0:0:0:0:
256,192,109084,1,8,0:0:0:0:
256,192,109159,1,8,0:0:0:0:
256,192,109234,1,8,0:0:0:0:
256,192,109384,1,0,0:0:0:0:
256,192,109534,1,0,0:0:0:0:
256,192,109684,1,0,0:0:0:0:
256,192,109834,1,8,0:0:0:0:
256,192,109909,1,8,0:0:0:0:
256,192,109984,1,8,0:0:0:0:
256,192,110134,1,8,0:0:0:0:
256,192,110284,1,0,0:0:0:0:
256,192,110359,1,0,0:0:0:0:
256,192,110434,1,0,0:0:0:0:
256,192,110584,1,0,0:0:0:0:
256,192,110734,1,8,0:0:0:0:
256,192,110884,1,8,0:0:0:0:
256,192,111184,1,8,0:0:0:0:
256,192,111484,1,8,0:0:0:0:
256,192,111634,1,0,0:0:0:0:
256,192,111784,1,8,0:0:0:0:
256,192,111859,1,8,0:0:0:0:
256,192,111934,1,8,0:0:0:0:
256,192,112009,1,8,0:0:0:0:
256,192,112084,1,0,0:0:0:0:
256,192,112309,1,8,0:0:0:0:
256,192,112384,1,0,0:0:0:0:
256,192,112534,1,8,0:0:0:0:
256,192,112684,1,0,0:0:0:0:
256,192,112834,1,8,0:0:0:0:
256,192,112909,1,8,0:0:0:0:
256,192,112984,1,0,0:0:0:0:
256,192,113134,1,8,0:0:0:0:
256,192,113284,1,4,0:0:0:0:
256,192,113509,1,8,0:0:0:0:
256,192,113584,1,0,0:0:0:0:
256,192,113734,1,8,0:0:0:0:
256,192,113884,1,0,0:0:0:0:
256,192,113959,1,0,0:0:0:0:
256,192,114034,1,0,0:0:0:0:
256,192,114184,1,8,0:0:0:0:
256,192,114334,1,0,0:0:0:0:
256,192,114484,1,8,0:0:0:0:
256,192,114559,1,0,0:0:0:0:
256,192,114634,1,8,0:0:0:0:
256,192,114709,1,8,0:0:0:0:
256,192,114784,1,0,0:0:0:0:
256,192,114934,1,8,0:0:0:0:
256,192,115084,1,0,0:0:0:0:
256,192,115159,1,0,0:0:0:0:
256,192,115234,1,0,0:0:0:0:
256,192,115384,1,8,0:0:0:0:
256,192,115534,1,8,0:0:0:0:
256,192,115684,1,0,0:0:0:0:
256,192,115909,1,8,0:0:0:0:
256,192,115984,1,0,0:0:0:0:
256,192,116134,1,8,0:0:0:0:
256,192,116284,1,0,0:0:0:0:
256,192,116359,1,0,0:0:0:0:
256,192,116434,1,8,0:0:0:0:
256,192,116509,1,8,0:0:0:0:
256,192,116584,1,0,0:0:0:0:
256,192,116734,1,8,0:0:0:0:
256,192,116884,1,0,0:0:0:0:
256,192,116959,1,0,0:0:0:0:
256,192,117034,1,0,0:0:0:0:
256,192,117184,1,8,0:0:0:0:
256,192,117334,1,0,0:0:0:0:
256,192,117484,1,8,0:0:0:0:
256,192,117559,1,8,0:0:0:0:
256,192,117634,1,0,0:0:0:0:
256,192,117784,1,8,0:0:0:0:
256,192,117934,1,8,0:0:0:0:
256,192,118084,1,0,0:0:0:0:
256,192,118309,1,8,0:0:0:0:
256,192,118384,1,0,0:0:0:0:
256,192,118534,1,8,0:0:0:0:
256,192,118684,1,0,0:0:0:0:
256,192,118759,1,0,0:0:0:0:
256,192,118834,1,0,0:0:0:0:
256,192,118984,1,8,0:0:0:0:
256,192,119134,1,0,0:0:0:0:
256,192,119284,1,8,0:0:0:0:
256,192,119359,1,0,0:0:0:0:
256,192,119434,1,8,0:0:0:0:
256,192,119509,1,8,0:0:0:0:
256,192,119584,1,0,0:0:0:0:
256,192,119734,1,8,0:0:0:0:
256,192,119884,1,0,0:0:0:0:
256,192,119959,1,0,0:0:0:0:
256,192,120034,1,0,0:0:0:0:
256,192,120109,1,0,0:0:0:0:
256,192,120184,1,8,0:0:0:0:
256,192,120234,1,0,0:0:0:0:
256,192,120284,1,0,0:0:0:0:
256,192,120334,1,8,0:0:0:0:
256,192,120409,1,8,0:0:0:0:
256,192,120484,1,0,0:0:0:0:
256,192,120709,1,8,0:0:0:0:
256,192,120784,1,0,0:0:0:0:
256,192,120934,1,8,0:0:0:0:
256,192,121084,1,0,0:0:0:0:
256,192,121159,1,0,0:0:0:0:
256,192,121234,1,8,0:0:0:0:
256,192,121384,1,0,0:0:0:0:
256,192,121534,1,8,0:0:0:0:
256,192,121684,1,0,0:0:0:0:
256,192,121759,1,0,0:0:0:0:
256,192,121834,1,0,0:0:0:0:
256,192,121984,1,8,0:0:0:0:
256,192,122134,1,0,0:0:0:0:
256,192,122284,1,8,0:0:0:0:
256,192,122359,1,0,0:0:0:0:
256,192,122434,1,8,0:0:0:0:
256,192,122509,1,8,0:0:0:0:
256,192,122584,1,0,0:0:0:0:
256,192,122659,1,0,0:0:0:0:
256,192,122734,1,8,0:0:0:0:
256,192,122884,1,0,0:0:0:0:
256,192,123109,1,8,0:0:0:0:
256,192,123184,1,0,0:0:0:0:
256,192,123334,1,8,0:0:0:0:
256,192,123484,1,0,0:0:0:0:
256,192,123559,1,8,0:0:0:0:
256,192,123634,1,0,0:0:0:0:
256,192,123784,1,8,0:0:0:0:
256,192,123934,1,0,0:0:0:0:
256,192,124084,1,8,0:0:0:0:
256,192,124159,1,0,0:0:0:0:
256,192,124234,1,8,0:0:0:0:
256,192,124309,1,8,0:0:0:0:
256,192,124384,1,0,0:0:0:0:
256,192,124534,1,8,0:0:0:0:
256,192,124684,1,0,0:0:0:0:
256,192,124759,1,0,0:0:0:0:
256,192,124834,1,8,0:0:0:0:
256,192,124984,1,0,0:0:0:0:
256,192,125134,1,8,0:0:0:0:
256,192,125209,1,8,0:0:0:0:
256,192,125284,1,0,0:0:0:0:
256,192,125509,1,8,0:0:0:0:
256,192,125584,1,0,0:0:0:0:
256,192,125734,1,8,0:0:0:0:
256,192,125884,1,0,0:0:0:0:
256,192,125959,1,0,0:0:0:0:
256,192,126034,1,8,0:0:0:0:
256,192,126109,1,8,0:0:0:0:
256,192,126184,1,0,0:0:0:0:
256,192,126334,1,8,0:0:0:0:
256,192,126484,1,0,0:0:0:0:
256,192,126559,1,0,0:0:0:0:
256,192,126634,1,0,0:0:0:0:
256,192,126784,1,8,0:0:0:0:
256,192,126934,1,0,0:0:0:0:
256,192,127084,1,8,0:0:0:0:
256,192,127159,1,8,0:0:0:0:
256,192,127234,1,0,0:0:0:0:
256,192,127309,1,8,0:0:0:0:
256,192,127384,1,0,0:0:0:0:
256,192,127534,1,8,0:0:0:0:
256,192,127684,1,0,0:0:0:0:
256,192,127909,1,8,0:0:0:0:
256,192,127984,1,0,0:0:0:0:
256,192,128134,1,8,0:0:0:0:
256,192,128284,1,0,0:0:0:0:
256,192,128359,1,8,0:0:0:0:
256,192,128434,1,0,0:0:0:0:
256,192,128584,1,8,0:0:0:0:
256,192,128734,1,0,0:0:0:0:
256,192,128884,1,8,0:0:0:0:
256,192,128959,1,0,0:0:0:0:
256,192,129034,1,0,0:0:0:0:
256,192,129184,1,8,0:0:0:0:
256,192,129334,1,0,0:0:0:0:
256,192,129484,1,8,0:0:0:0:
256,192,129559,1,0,0:0:0:0:
256,192,129634,1,8,0:0:0:0:
256,192,129709,1,8,0:0:0:0:
256,192,129784,1,0,0:0:0:0:
256,192,129934,1,8,0:0:0:0:
256,192,130009,1,8,0:0:0:0:
256,192,130084,1,0,0:0:0:0:
256,192,130309,1,8,0:0:0:0:
256,192,130384,1,0,0:0:0:0:
256,192,130534,1,8,0:0:0:0:
256,192,130684,1,0,0:0:0:0:
256,192,130759,1,0,0:0:0:0:
256,192,130834,1,8,0:0:0:0:
256,192,130909,1,8,0:0:0:0:
256,192,130984,1,0,0:0:0:0:
256,192,131134,1,8,0:0:0:0:
256,192,131284,1,0,0:0:0:0:
256,192,131359,1,8,0:0:0:0:
256,192,131434,1,0,0:0:0:0:
256,192,131584,1,8,0:0:0:0:
256,192,131734,1,0,0:0:0:0:
256,192,131884,1,8,0:0:0:0:
256,192,131959,1,8,0:0:0:0:
256,192,132034,1,0,0:0:0:0:
256,192,132109,1,8,0:0:0:0:
256,192,132184,1,0,0:0:0:0:
256,192,132259,1,0,0:0:0:0:
256,192,132334,1,8,0:0:0:0:
256,192,132484,1,4,0:0:0:0:
256,192,132634,1,0,0:0:0:0:
256,192,132784,1,8,0:0:0:0:
256,192,133084,1,0,0:0:0:0:
256,192,133234,1,8,0:0:0:0:
256,192,133309,1,8,0:0:0:0:
256,192,133384,1,0,0:0:0:0:
256,192,133534,1,8,0:0:0:0:
256,192,133684,1,0,0:0:0:0:
256,192,133984,1,8,0:0:0:0:
256,192,134134,1,0,0:0:0:0:
256,192,134209,1,0,0:0:0:0:
256,192,134284,1,0,0:0:0:0:
256,192,134434,1,8,0:0:0:0:
256,192,134509,1,8,0:0:0:0:
256,192,134584,1,0,0:0:0:0:
256,192,134734,1,8,0:0:0:0:
256,192,134884,1,0,0:0:0:0:
256,192,134959,1,8,0:0:0:0:
256,192,135034,1,0,0:0:0:0:
256,192,135184,1,8,0:0:0:0:
256,192,135484,1,0,0:0:0:0:
256,192,135634,1,8,0:0:0:0:
256,192,135709,1,8,0:0:0:0:
256,192,135784,1,0,0:0:0:0:
256,192,135934,1,8,0:0:0:0:
256,192,136084,1,0,0:0:0:0:
256,192,136234,1,8,0:0:0:0:
256,192,136384,1,0,0:0:0:0:
256,192,136459,1,0,0:0:0:0:
256,192,136534,1,0,0:0:0:0:
256,192,136684,1,8,0:0:0:0:
256,192,136759,1,0,0:0:0:0:
256,192,136834,1,8,0:0:0:0:
256,192,136909,1,8,0:0:0:0:
256,192,136984,1,0,0:0:0:0:
256,192,137134,1,8,0:0:0:0:
256,192,137284,1,0,0:0:0:0:
256,192,137434,1,0,0:0:0:0:
256,192,137584,1,8,0:0:0:0:
256,192,137884,1,0,0:0:0:0:
256,192,138034,1,8,0:0:0:0:
256,192,138109,1,0,0:0:0:0:
256,192,138184,1,0,0:0:0:0:
256,192,138334,1,8,0:0:0:0:
256,192,138484,1,0,0:0:0:0:
256,192,138784,1,0,0:0:0:0:
256,192,138934,1,8,0:0:0:0:
256,192,139084,1,0,0:0:0:0:
256,192,139234,1,8,0:0:0:0:
256,192,139309,1,8,0:0:0:0:
256,192,139384,1,0,0:0:0:0:
256,192,139434,1,0,0:0:0:0:
256,192,139484,1,0,0:0:0:0:
256,192,139534,1,8,0:0:0:0:
256,192,139609,1,8,0:0:0:0:
256,192,139684,1,0,0:0:0:0:
256,192,139909,1,0,0:0:0:0:
256,192,139984,1,8,0:0:0:0:
256,192,140134,1,0,0:0:0:0:
256,192,140209,1,0,0:0:0:0:
256,192,140284,1,8,0:0:0:0:
256,192,140434,1,8,0:0:0:0:
256,192,140584,1,8,0:0:0:0:
256,192,140734,1,8,0:0:0:0:
256,192,140884,8,8,141934,0:0:0:0:
256,192,142084,5,4,0:0:0:0:
256,192,142234,1,0,0:0:0:0:
256,192,142384,1,8,0:0:0:0:
256,192,142459,1,8,0:0:0:0:
256,192,142534,1,8,0:0:0:0:
256,192,142684,1,0,0:0:0:0:
256,192,142834,1,8,0:0:0:0:
256,192,142909,1,8,0:0:0:0:
256,192,142984,1,0,0:0:0:0:
256,192,143059,1,0,0:0:0:0:
256,192,143134,1,8,0:0:0:0:
256,192,143284,1,0,0:0:0:0:
256,192,143434,1,8,0:0:0:0:
256,192,143509,1,0,0:0:0:0:
256,192,143584,1,8,0:0:0:0:
256,192,143734,1,0,0:0:0:0:
256,192,143809,1,0,0:0:0:0:
256,192,143884,1,0,0:0:0:0:
256,192,144034,1,8,0:0:0:0:
256,192,144109,1,8,0:0:0:0:
256,192,144184,1,0,0:0:0:0:
256,192,144334,1,8,0:0:0:0:
256,192,144484,1,0,0:0:0:0:
256,192,144559,1,8,0:0:0:0:
256,192,144634,1,0,0:0:0:0:
256,192,144784,1,8,0:0:0:0:
256,192,145084,1,0,0:0:0:0:
256,192,145234,1,8,0:0:0:0:
256,192,145309,1,8,0:0:0:0:
256,192,145384,1,0,0:0:0:0:
256,192,145534,1,8,0:0:0:0:
256,192,145684,1,0,0:0:0:0:
256,192,145834,1,8,0:0:0:0:
256,192,145984,1,0,0:0:0:0:
256,192,146059,1,0,0:0:0:0:
256,192,146134,1,0,0:0:0:0:
256,192,146284,1,8,0:0:0:0:
256,192,146359,1,0,0:0:0:0:
256,192,146434,1,8,0:0:0:0:
256,192,146509,1,8,0:0:0:0:
256,192,146584,1,0,0:0:0:0:
256,192,146734,1,8,0:0:0:0:
256,192,146884,1,0,0:0:0:0:
256,192,146959,1,0,0:0:0:0:
256,192,147034,1,0,0:0:0:0:
256,192,147184,1,8,0:0:0:0:
256,192,147484,1,0,0:0:0:0:
256,192,147634,1,8,0:0:0:0:
256,192,147784,1,0,0:0:0:0:
256,192,147859,1,0,0:0:0:0:
256,192,147934,1,8,0:0:0:0:
256,192,148084,1,0,0:0:0:0:
256,192,148234,1,8,0:0:0:0:
256,192,148309,1,8,0:0:0:0:
256,192,148384,1,0,0:0:0:0:
256,192,148459,1,0,0:0:0:0:
256,192,148534,1,8,0:0:0:0:
256,192,148684,1,0,0:0:0:0:
256,192,148834,1,8,0:0:0:0:
256,192,148909,1,8,0:0:0:0:
256,192,148984,1,0,0:0:0:0:
256,192,149034,1,0,0:0:0:0:
256,192,149084,1,0,0:0:0:0:
256,192,149134,1,8,0:0:0:0:
256,192,149209,1,8,0:0:0:0:
256,192,149284,1,0,0:0:0:0:
256,192,149434,1,8,0:0:0:0:
256,192,149509,1,8,0:0:0:0:
256,192,149584,1,0,0:0:0:0:
256,192,149659,1,0,0:0:0:0:
256,192,149734,1,8,0:0:0:0:
256,192,149884,1,0,0:0:0:0:
256,192,149959,1,0,0:0:0:0:
256,192,150034,1,8,0:0:0:0:
256,192,150184,1,8,0:0:0:0:
256,192,150334,1,8,0:0:0:0:
256,192,150484,1,8,0:0:0:0:
256,192,150559,1,8,0:0:0:0:
256,192,150634,1,0,0:0:0:0:
256,192,150709,1,8,0:0:0:0:
256,192,150784,1,0,0:0:0:0:
256,192,150859,1,8,0:0:0:0:
256,192,150934,1,0,0:0:0:0:
256,192,151009,1,0,0:0:0:0:
256,192,151084,1,8,0:0:0:0:
256,192,151159,1,8,0:0:0:0:
256,192,151234,1,8,0:0:0:0:
256,192,151309,1,8,0:0:0:0:
256,192,151384,1,0,0:0:0:0:
256,192,151459,1,0,0:0:0:0:
256,192,151534,1,8,0:0:0:0:
256,192,151684,1,4,0:0:0:0:
256,192,152284,1,8,0:0:0:0:
256,192,152734,1,0,0:0:0:0:
256,192,153034,1,8,0:0:0:0:
256,192,153184,1,0,0:0:0:0:
256,192,153484,1,8,0:0:0:0:
256,192,153784,1,8,0:0:0:0:
256,192,153934,1,8,0:0:0:0:
256,192,154084,1,0,0:0:0:0:
256,192,154234,1,8,0:0:0:0:
256,192,154534,1,0,0:0:0:0:
256,192,154684,1,8,0:0:0:0:
256,192,154834,1,0,0:0:0:0:
256,192,155134,1,8,0:0:0:0:
256,192,155434,1,8,0:0:0:0:
256,192,155584,1,0,0:0:0:0:
256,192,155734,1,0,0:0:0:0:
256,192,155884,1,8,0:0:0:0:
256,192,156184,1,8,0:0:0:0:
256,192,156334,1,8,0:0:0:0:
256,192,156484,1,0,0:0:0:0:
256,192,156784,1,0,0:0:0:0:
256,192,156934,1,0,0:0:0:0:
256,192,157084,1,8,0:0:0:0:
256,192,157234,1,0,0:0:0:0:
256,192,157534,1,8,0:0:0:0:
256,192,157684,1,0,0:0:0:0:
256,192,157834,1,0,0:0:0:0:
256,192,158134,1,0,0:0:0:0:
256,192,158284,1,8,0:0:0:0:
256,192,158584,1,8,0:0:0:0:
256,192,158659,1,8,0:0:0:0:
256,192,158734,1,8,0:0:0:0:
256,192,158809,1,8,0:0:0:0:
256,192,158884,1,0,0:0:0:0:
256,192,159109,1,0,0:0:0:0:
256,192,159334,1,0,0:0:0:0:
256,192,159484,1,8,0:0:0:0:
256,192,159634,1,8,0:0:0:0:
256,192,159784,1,8,0:0:0:0:
256,192,159934,1,8,0:0:0:0:
256,192,160084,1,0,0:0:0:0:
256,192,160384,1,0,0:0:0:0:
256,192,160684,1,8,0:0:0:0:
256,192,160984,1,8,0:0:0:0:
256,192,161134,1,8,0:0:0:0:
256,192,161284,1,4,0:0:0:0:
256,192,161509,1,0,0:0:0:0:
256,192,161584,1,8,0:0:0:0:
256,192,161734,1,8,0:0:0:0:
256,192,161884,1,0,0:0:0:0:
256,192,162034,1,0,0:0:0:0:
256,192,162109,1,0,0:0:0:0:
256,192,162184,1,8,0:0:0:0:
256,192,162334,1,8,0:0:0:0:
256,192,162484,1,0,0:0:0:0:
256,192,162709,1,0,0:0:0:0:
256,192,162784,1,8,0:0:0:0:
256,192,162934,1,8,0:0:0:0:
256,192,163084,1,0,0:0:0:0:
256,192,163159,1,0,0:0:0:0:
256,192,163234,1,0,0:0:0:0:
256,192,163384,1,8,0:0:0:0:
256,192,163534,1,8,0:0:0:0:
256,192,163684,1,0,0:0:0:0:
256,192,163759,1,0,0:0:0:0:
256,192,163909,1,0,0:0:0:0:
256,192,163984,1,8,0:0:0:0:
256,192,164134,1,8,0:0:0:0:
256,192,164284,1,0,0:0:0:0:
256,192,164359,1,8,0:0:0:0:
256,192,164434,1,0,0:0:0:0:
256,192,164509,1,0,0:0:0:0:
256,192,164584,1,8,0:0:0:0:
256,192,164734,1,8,0:0:0:0:
256,192,164884,1,0,0:0:0:0:
256,192,165109,1,0,0:0:0:0:
256,192,165184,1,8,0:0:0:0:
256,192,165334,1,8,0:0:0:0:
256,192,165484,1,0,0:0:0:0:
256,192,165634,1,8,0:0:0:0:
256,192,165709,1,0,0:0:0:0:
256,192,165784,1,8,0:0:0:0:
256,192,165934,1,8,0:0:0:0:
256,192,166084,1,4,0:0:0:0:
256,192,166309,1,0,0:0:0:0:
256,192,166384,1,8,0:0:0:0:
256,192,166534,1,8,0:0:0:0:
256,192,166609,1,8,0:0:0:0:
256,192,166684,1,0,0:0:0:0:
256,192,166834,1,0,0:0:0:0:
256,192,166984,1,8,0:0:0:0:
256,192,167059,1,0,0:0:0:0:
256,192,167134,1,8,0:0:0:0:
256,192,167209,1,8,0:0:0:0:
256,192,167284,1,0,0:0:0:0:
256,192,167434,1,0,0:0:0:0:
256,192,167509,1,0,0:0:0:0:
256,192,167584,1,8,0:0:0:0:
256,192,167734,1,8,0:0:0:0:
256,192,167884,1,0,0:0:0:0:
256,192,167959,1,0,0:0:0:0:
256,192,168034,1,8,0:0:0:0:
256,192,168109,1,0,0:0:0:0:
256,192,168184,1,8,0:0:0:0:
256,192,168334,1,8,0:0:0:0:
256,192,168484,1,4,0:0:0:0:
256,192,168884,1,4,0:0:0:0:
256,192,169284,1,4,0:0:0:0:
256,192,169684,1,12,0:0:0:0:
256,192,170134,1,12,0:0:0:0:
256,192,170584,1,0,0:0:0:0:
256,192,170734,1,0,0:0:0:0:
256,192,170884,1,12,0:0:0:0:
256,192,171034,1,0,0:0:0:0:
256,192,171109,1,0,0:0:0:0:
256,192,171184,1,8,0:0:0:0:
256,192,171334,1,0,0:0:0:0:
256,192,171484,1,8,0:0:0:0:
256,192,171559,1,0,0:0:0:0:
256,192,171709,1,0,0:0:0:0:
256,192,171784,1,8,0:0:0:0:
256,192,171934,1,0,0:0:0:0:
256,192,172009,1,0,0:0:0:0:
256,192,172084,1,8,0:0:0:0:
256,192,172234,1,0,0:0:0:0:
256,192,172309,1,0,0:0:0:0:
256,192,172384,1,8,0:0:0:0:
256,192,172459,1,8,0:0:0:0:
256,192,172534,1,0,0:0:0:0:
256,192,172684,1,8,0:0:0:0:
256,192,172759,1,0,0:0:0:0:
256,192,172909,1,0,0:0:0:0:
256,192,172984,1,8,0:0:0:0:
256,192,173134,1,0,0:0:0:0:
256,192,173284,1,8,0:0:0:0:
256,192,173434,1,0,0:0:0:0:
256,192,173509,1,0,0:0:0:0:
256,192,173584,1,0,0:0:0:0:
256,192,173734,1,8,0:0:0:0:
256,192,173884,1,0,0:0:0:0:
256,192,173959,1,8,0:0:0:0:
256,192,174034,1,0,0:0:0:0:
256,192,174109,1,0,0:0:0:0:
256,192,174184,1,8,0:0:0:0:
256,192,174334,1,0,0:0:0:0:
256,192,174484,1,8,0:0:0:0:
256,192,174634,1,0,0:0:0:0:
256,192,174709,1,0,0:0:0:0:
256,192,174784,1,8,0:0:0:0:
256,192,174934,1,0,0:0:0:0:
256,192,175009,1,0,0:0:0:0:
256,192,175084,1,8,0:0:0:0:
256,192,175159,1,0,0:0:0:0:
256,192,175309,1,8,0:0:0:0:
256,192,175384,1,0,0:0:0:0:
256,192,175534,1,8,0:0:0:0:
256,192,175684,1,0,0:0:0:0:
256,192,175834,1,8,0:0:0:0:
256,192,175909,1,8,0:0:0:0:
256,192,175984,1,0,0:0:0:0:
256,192,176134,1,8,0:0:0:0:
256,192,176284,1,0,0:0:0:0:
256,192,176359,1,8,0:0:0:0:
256,192,176509,1,8,0:0:0:0:
256,192,176584,1,0,0:0:0:0:
256,192,176659,1,0,0:0:0:0:
256,192,176734,1,8,0:0:0:0:
256,192,176884,1,0,0:0:0:0:
256,192,177034,1,8,0:0:0:0:
256,192,177109,1,0,0:0:0:0:
256,192,177184,1,8,0:0:0:0:
256,192,177259,1,8,0:0:0:0:
256,192,177334,1,0,0:0:0:0:
256,192,177484,1,8,0:0:0:0:
256,192,177634,1,0,0:0:0:0:
256,192,177709,1,8,0:0:0:0:
256,192,177784,1,0,0:0:0:0:
256,192,177934,1,8,0:0:0:0:
256,192,178084,1,0,0:0:0:0:
256,192,178234,1,8,0:0:0:0:
256,192,178309,1,8,0:0:0:0:
256,192,178384,1,0,0:0:0:0:
256,192,178534,1,8,0:0:0:0:
256,192,178684,1,0,0:0:0:0:
256,192,178759,1,0,0:0:0:0:
256,192,178834,1,8,0:0:0:0:
256,192,178909,1,8,0:0:0:0:
256,192,178984,1,0,0:0:0:0:
256,192,179134,1,8,0:0:0:0:
256,192,179284,1,0,0:0:0:0:
256,192,179359,1,0,0:0:0:0:
256,192,179434,1,0,0:0:0:0:
256,192,179584,1,8,0:0:0:0:
256,192,179659,1,8,0:0:0:0:
256,192,179734,1,8,0:0:0:0:
256,192,179884,1,0,0:0:0:0:
256,192,179959,1,0,0:0:0:0:
256,192,180034,1,8,0:0:0:0:
256,192,180184,1,0,0:0:0:0:
256,192,180334,1,8,0:0:0:0:
256,192,180384,1,8,0:0:0:0:
256,192,180434,1,8,0:0:0:0:
256,192,180484,1,0,0:0:0:0:
256,192,180634,1,8,0:0:0:0:
256,192,180709,1,0,0:0:0:0:
256,192,180784,1,8,0:0:0:0:
256,192,180859,1,8,0:0:0:0:
256,192,180934,1,0,0:0:0:0:
256,192,181084,1,8,0:0:0:0:
256,192,181159,1,0,0:0:0:0:
256,192,181309,1,0,0:0:0:0:
256,192,181384,1,8,0:0:0:0:
256,192,181534,1,0,0:0:0:0:
256,192,181609,1,0,0:0:0:0:
256,192,181684,1,8,0:0:0:0:
256,192,181834,1,0,0:0:0:0:
256,192,181984,1,8,0:0:0:0:
256,192,182059,1,8,0:0:0:0:
256,192,182134,1,0,0:0:0:0:
256,192,182209,1,8,0:0:0:0:
256,192,182284,1,0,0:0:0:0:
256,192,182434,1,8,0:0:0:0:
256,192,182484,1,8,0:0:0:0:
256,192,182534,1,8,0:0:0:0:
256,192,182584,1,0,0:0:0:0:
256,192,182734,1,8,0:0:0:0:
256,192,182884,1,0,0:0:0:0:
256,192,183034,1,8,0:0:0:0:
256,192,183109,1,0,0:0:0:0:
256,192,183184,1,0,0:0:0:0:
256,192,183334,1,8,0:0:0:0:
256,192,183484,1,0,0:0:0:0:
256,192,183559,1,8,0:0:0:0:
256,192,183634,1,0,0:0:0:0:
256,192,183709,1,0,0:0:0:0:
256,192,183784,1,8,0:0:0:0:
256,192,183934,1,0,0:0:0:0:
256,192,184084,1,8,0:0:0:0:
256,192,184234,1,0,0:0:0:0:
256,192,184309,1,0,0:0:0:0:
256,192,184384,1,8,0:0:0:0:
256,192,184459,1,0,0:0:0:0:
256,192,184534,1,8,0:0:0:0:
256,192,184609,1,8,0:0:0:0:
256,192,184684,1,0,0:0:0:0:
256,192,184834,1,8,0:0:0:0:
256,192,184884,1,8,0:0:0:0:
256,192,184934,1,8,0:0:0:0:
256,192,184984,1,0,0:0:0:0:
256,192,185134,1,8,0:0:0:0:
256,192,185284,1,0,0:0:0:0:
256,192,185434,1,8,0:0:0:0:
256,192,185509,1,8,0:0:0:0:
256,192,185584,1,0,0:0:0:0:
256,192,185734,1,8,0:0:0:0:
256,192,185884,1,0,0:0:0:0:
256,192,185959,1,8,0:0:0:0:
256,192,186034,1,0,0:0:0:0:
256,192,186109,1,0,0:0:0:0:
256,192,186184,1,8,0:0:0:0:
256,192,186334,1,0,0:0:0:0:
256,192,186484,1,8,0:0:0:0:
256,192,186634,1,0,0:0:0:0:
256,192,186709,1,0,0:0:0:0:
256,192,186784,1,8,0:0:0:0:
256,192,186859,1,8,0:0:0:0:
256,192,186934,1,0,0:0:0:0:
256,192,187009,1,8,0:0:0:0:
256,192,187084,1,0,0:0:0:0:
256,192,187234,1,8,0:0:0:0:
256,192,187284,1,8,0:0:0:0:
256,192,187334,1,8,0:0:0:0:
256,192,187384,1,0,0:0:0:0:
256,192,187534,1,8,0:0:0:0:
256,192,187684,1,0,0:0:0:0:
256,192,187834,1,8,0:0:0:0:
256,192,187909,1,8,0:0:0:0:
256,192,187984,1,0,0:0:0:0:
256,192,188134,1,8,0:0:0:0:
256,192,188284,1,0,0:0:0:0:
256,192,188359,1,0,0:0:0:0:
256,192,188434,1,8,0:0:0:0:
256,192,188509,1,8,0:0:0:0:
256,192,188584,1,0,0:0:0:0:
256,192,188734,1,8,0:0:0:0:
256,192,188884,1,0,0:0:0:0:
256,192,188959,1,0,0:0:0:0:
256,192,189034,1,0,0:0:0:0:
256,192,189184,1,8,0:0:0:0:
256,192,189259,1,8,0:0:0:0:
256,192,189334,1,8,0:0:0:0:
256,192,189409,1,8,0:0:0:0:
256,192,189484,1,0,0:0:0:0:
256,192,189634,1,8,0:0:0:0:
256,192,189684,1,8,0:0:0:0:
256,192,189734,1,8,0:0:0:0:
256,192,189784,1,0,0:0:0:0:
256,192,189859,1,0,0:0:0:0:
256,192,189934,1,8,0:0:0:0:
256,192,190009,1,8,0:0:0:0:
256,192,190084,1,0,0:0:0:0:
256,192,190309,1,8,0:0:0:0:
256,192,190384,1,0,0:0:0:0:
256,192,190534,1,8,0:0:0:0:
256,192,190684,1,0,0:0:0:0:
256,192,190759,1,0,0:0:0:0:
256,192,190834,1,0,0:0:0:0:
256,192,190984,1,8,0:0:0:0:
256,192,191134,1,0,0:0:0:0:
256,192,191284,1,8,0:0:0:0:
256,192,191359,1,0,0:0:0:0:
256,192,191434,1,8,0:0:0:0:
256,192,191509,1,8,0:0:0:0:
256,192,191584,1,0,0:0:0:0:
256,192,191734,1,8,0:0:0:0:
256,192,191809,1,0,0:0:0:0:
256,192,191884,1,8,0:0:0:0:
256,192,192034,1,0,0:0:0:0:
256,192,192184,1,8,0:0:0:0:
256,192,192334,1,8,0:0:0:0:
256,192,192484,1,0,0:0:0:0:
256,192,192709,1,8,0:0:0:0:
256,192,192784,1,0,0:0:0:0:
256,192,192934,1,8,0:0:0:0:
256,192,193009,1,8,0:0:0:0:
256,192,193084,1,0,0:0:0:0:
256,192,193159,1,8,0:0:0:0:
256,192,193234,1,0,0:0:0:0:
256,192,193384,1,8,0:0:0:0:
256,192,193534,1,0,0:0:0:0:
256,192,193684,1,8,0:0:0:0:
256,192,193759,1,8,0:0:0:0:
256,192,193834,1,0,0:0:0:0:
256,192,193984,1,8,0:0:0:0:
256,192,194134,1,0,0:0:0:0:
256,192,194209,1,0,0:0:0:0:
256,192,194284,1,8,0:0:0:0:
256,192,194359,1,8,0:0:0:0:
256,192,194434,1,0,0:0:0:0:
256,192,194584,1,8,0:0:0:0:
256,192,194734,1,8,0:0:0:0:
256,192,194884,1,0,0:0:0:0:
256,192,195109,1,8,0:0:0:0:
256,192,195184,1,0,0:0:0:0:
256,192,195334,1,8,0:0:0:0:
256,192,195484,1,0,0:0:0:0:
256,192,195559,1,0,0:0:0:0:
256,192,195634,1,0,0:0:0:0:
256,192,195709,1,0,0:0:0:0:
256,192,195784,1,8,0:0:0:0:
256,192,195934,1,0,0:0:0:0:
256,192,196084,1,8,0:0:0:0:
256,192,196159,1,8,0:0:0:0:
256,192,196234,1,0,0:0:0:0:
256,192,196384,1,8,0:0:0:0:
256,192,196534,1,0,0:0:0:0:
256,192,196609,1,0,0:0:0:0:
256,192,196684,1,8,0:0:0:0:
256,192,196834,1,0,0:0:0:0:
256,192,196984,1,8,0:0:0:0:
256,192,197134,1,8,0:0:0:0:
256,192,197284,1,0,0:0:0:0:
256,192,197509,1,8,0:0:0:0:
256,192,197584,1,0,0:0:0:0:
256,192,197734,1,8,0:0:0:0:
256,192,197884,1,0,0:0:0:0:
256,192,197959,1,8,0:0:0:0:
256,192,198034,1,0,0:0:0:0:
256,192,198109,1,0,0:0:0:0:
256,192,198184,1,8,0:0:0:0:
256,192,198334,1,0,0:0:0:0:
256,192,198484,1,8,0:0:0:0:
256,192,198559,1,0,0:0:0:0:
256,192,198634,1,8,0:0:0:0:
256,192,198709,1,8,0:0:0:0:
256,192,198784,1,0,0:0:0:0:
256,192,198934,1,8,0:0:0:0:
256,192,199009,1,8,0:0:0:0:
256,192,199084,1,8,0:0:0:0:
256,192,199234,1,0,0:0:0:0:
256,192,199384,1,8,0:0:0:0:
256,192,199534,1,8,0:0:0:0:
256,192,199684,1,0,0:0:0:0:
256,192,199909,1,8,0:0:0:0:
256,192,199984,1,0,0:0:0:0:
256,192,200134,1,8,0:0:0:0:
256,192,200209,1,8,0:0:0:0:
256,192,200284,1,0,0:0:0:0:
256,192,200359,1,8,0:0:0:0:
256,192,200434,1,0,0:0:0:0:
256,192,200509,1,0,0:0:0:0:
256,192,200584,1,8,0:0:0:0:
256,192,200734,1,0,0:0:0:0:
256,192,200884,1,8,0:0:0:0:
256,192,200959,1,8,0:0:0:0:
256,192,201034,1,0,0:0:0:0:
256,192,201184,1,8,0:0:0:0:
256,192,201334,1,0,0:0:0:0:
256,192,201409,1,0,0:0:0:0:
256,192,201484,1,8,0:0:0:0:
256,192,201559,1,8,0:0:0:0:
256,192,201634,1,0,0:0:0:0:
256,192,201784,1,8,0:0:0:0:
256,192,201934,1,8,0:0:0:0:
256,192,202084,1,0,0:0:0:0:
256,192,202309,1,8,0:0:0:0:
256,192,202384,1,0,0:0:0:0:
256,192,202534,1,8,0:0:0:0:
256,192,202684,1,0,0:0:0:0:
256,192,202759,1,0,0:0:0:0:
256,192,202834,1,0,0:0:0:0:
256,192,202909,1,0,0:0:0:0:
256,192,202984,1,8,0:0:0:0:
256,192,203134,1,0,0:0:0:0:
256,192,203284,1,8,0:0:0:0:
256,192,203359,1,8,0:0:0:0:
256,192,203434,1,0,0:0:0:0:
256,192,203584,1,8,0:0:0:0:
256,192,203734,1,0,0:0:0:0:
256,192,203809,1,0,0:0:0:0:
256,192,203884,1,8,0:0:0:0:
256,192,203959,1,8,0:0:0:0:
256,192,204034,1,0,0:0:0:0:
256,192,204184,1,8,0:0:0:0:
256,192,204334,1,8,0:0:0:0:
256,192,204484,1,0,0:0:0:0:
256,192,204709,1,8,0:0:0:0:
256,192,204784,1,0,0:0:0:0:
256,192,204934,1,8,0:0:0:0:
256,192,205084,1,0,0:0:0:0:
256,192,205159,1,0,0:0:0:0:
256,192,205234,1,8,0:0:0:0:
256,192,205309,1,0,0:0:0:0:
256,192,205384,1,8,0:0:0:0:
256,192,205459,1,8,0:0:0:0:
256,192,205534,1,0,0:0:0:0:
256,192,205684,1,8,0:0:0:0:
256,192,205834,1,0,0:0:0:0:
256,192,205909,1,0,0:0:0:0:
256,192,205984,1,8,0:0:0:0:
256,192,206134,1,0,0:0:0:0:
256,192,206209,1,0,0:0:0:0:
256,192,206284,1,8,0:0:0:0:
256,192,206359,1,8,0:0:0:0:
256,192,206434,1,0,0:0:0:0:
256,192,206584,1,8,0:0:0:0:
256,192,206734,1,8,0:0:0:0:
256,192,206884,1,0,0:0:0:0:
256,192,207034,1,8,0:0:0:0:
256,192,207109,1,8,0:0:0:0:
256,192,207184,1,0,0:0:0:0:
256,192,207334,1,8,0:0:0:0:
256,192,207484,1,0,0:0:0:0:
256,192,207559,1,8,0:0:0:0:
256,192,207634,1,0,0:0:0:0:
256,192,207709,1,0,0:0:0:0:
256,192,207784,1,8,0:0:0:0:
256,192,207934,1,0,0:0:0:0:
256,192,208084,1,8,0:0:0:0:
256,192,208234,1,0,0:0:0:0:
256,192,208309,1,0,0:0:0:0:
256,192,208384,1,8,0:0:0:0:
256,192,208534,1,0,0:0:0:0:
256,192,208609,1,0,0:0:0:0:
256,192,208684,1,8,0:0:0:0:
256,192,208759,1,8,0:0:0:0:
256,192,208834,1,0,0:0:0:0:
256,192,208909,1,0,0:0:0:0:
256,192,208984,1,8,0:0:0:0:
256,192,209284,1,4,0:0:0:0:
256,192,209434,1,0,0:0:0:0:
256,192,209584,1,8,0:0:0:0:
256,192,209659,1,8,0:0:0:0:
256,192,209734,1,0,0:0:0:0:
256,192,209809,1,8,0:0:0:0:
256,192,209884,1,0,0:0:0:0:
256,192,210034,1,0,0:0:0:0:
256,192,210184,1,8,0:0:0:0:
256,192,210259,1,8,0:0:0:0:
256,192,210334,1,0,0:0:0:0:
256,192,210409,1,8,0:0:0:0:
256,192,210484,1,0,0:0:0:0:
256,192,210634,1,0,0:0:0:0:
256,192,210784,1,8,0:0:0:0:
256,192,210859,1,8,0:0:0:0:
256,192,210934,1,0,0:0:0:0:
256,192,211009,1,0,0:0:0:0:
256,192,211084,1,8,0:0:0:0:
256,192,211234,1,0,0:0:0:0:
256,192,211284,1,0,0:0:0:0:
256,192,211334,1,0,0:0:0:0:
256,192,211384,1,8,0:0:0:0:
256,192,211534,1,8,0:0:0:0:
256,192,211684,1,0,0:0:0:0:
256,192,211834,1,0,0:0:0:0:
256,192,211984,1,8,0:0:0:0:
256,192,212059,1,0,0:0:0:0:
256,192,212134,1,8,0:0:0:0:
256,192,212209,1,8,0:0:0:0:
256,192,212284,1,0,0:0:0:0:
256,192,212434,1,0,0:0:0:0:
256,192,212584,1,8,0:0:0:0:
256,192,212659,1,0,0:0:0:0:
256,192,212734,1,8,0:0:0:0:
256,192,212809,1,8,0:0:0:0:
256,192,212884,1,0,0:0:0:0:
256,192,213034,1,0,0:0:0:0:
256,192,213184,1,8,0:0:0:0:
256,192,213334,1,8,0:0:0:0:
256,192,213484,1,0,0:0:0:0:
256,192,213559,1,8,0:0:0:0:
256,192,213634,1,0,0:0:0:0:
256,192,213709,1,0,0:0:0:0:
256,192,213784,1,8,0:0:0:0:
256,192,213934,1,8,0:0:0:0:
256,192,214084,1,4,0:0:0:0:
256,192,214234,1,0,0:0:0:0:
256,192,214384,1,8,0:0:0:0:
256,192,214459,1,0,0:0:0:0:
256,192,214534,1,0,0:0:0:0:
256,192,214609,1,8,0:0:0:0:
256,192,214684,1,0,0:0:0:0:
256,192,214834,1,0,0:0:0:0:
256,192,214984,1,8,0:0:0:0:
256,192,215059,1,0,0:0:0:0:
256,192,215134,1,0,0:0:0:0:
256,192,215209,1,8,0:0:0:0:
256,192,215284,1,0,0:0:0:0:
256,192,215434,1,0,0:0:0:0:
256,192,215584,1,8,0:0:0:0:
256,192,215659,1,0,0:0:0:0:
256,192,215734,1,0,0:0:0:0:
256,192,215809,1,0,0:0:0:0:
256,192,215884,1,8,0:0:0:0:
256,192,216034,1,0,0:0:0:0:
256,192,216084,1,0,0:0:0:0:
256,192,216134,1,0,0:0:0:0:
256,192,216184,1,8,0:0:0:0:
256,192,216334,1,8,0:0:0:0:
256,192,216484,1,0,0:0:0:0:
256,192,216634,1,0,0:0:0:0:
256,192,216709,1,0,0:0:0:0:
256,192,216784,1,8,0:0:0:0:
256,192,216934,1,8,0:0:0:0:
256,192,217009,1,8,0:0:0:0:
256,192,217084,1,0,0:0:0:0:
256,192,217234,1,8,0:0:0:0:
256,192,217309,1,8,0:0:0:0:
256,192,217384,1,0,0:0:0:0:
256,192,217459,1,0,0:0:0:0:
256,192,217534,1,8,0:0:0:0:
256,192,217684,1,4,0:0:0:0:
256,192,217834,1,8,0:0:0:0:
256,192,217884,1,8,0:0:0:0:
256,192,217934,1,8,0:0:0:0:
256,192,217984,1,0,0:0:0:0:
256,192,218134,1,0,0:0:0:0:
256,192,218284,1,8,0:0:0:0:
256,192,218584,1,0,0:0:0:0:
256,192,218734,1,0,0:0:0:0:
256,192,218884,1,4,0:0:0:0:
256,192,219034,1,8,0:0:0:0:
256,192,219109,1,0,0:0:0:0:
256,192,219184,1,0,0:0:0:0:
256,192,219259,1,0,0:0:0:0:
256,192,219334,1,8,0:0:0:0:
256,192,219409,1,8,0:0:0:0:
256,192,219484,1,0,0:0:0:0:
256,192,219634,1,8,0:0:0:0:
256,192,219709,1,0,0:0:0:0:
256,192,219784,1,0,0:0:0:0:
256,192,219859,1,0,0:0:0:0:
256,192,219934,1,8,0:0:0:0:
256,192,220009,1,8,0:0:0:0:
256,192,220084,1,0,0:0:0:0:
256,192,220234,1,8,0:0:0:0:
256,192,220384,1,0,0:0:0:0:
256,192,220459,1,0,0:0:0:0:
256,192,220534,1,8,0:0:0:0:
256,192,220609,1,0,0:0:0:0:
256,192,220684,1,8,0:0:0:0:
256,192,220834,1,0,0:0:0:0:
256,192,220884,1,0,0:0:0:0:
256,192,220934,1,0,0:0:0:0:
256,192,220984,1,8,0:0:0:0:
256,192,221134,1,8,0:0:0:0:
256,192,221284,1,0,0:0:0:0:
256,192,221434,1,8,0:0:0:0:
256,192,221509,1,0,0:0:0:0:
256,192,221584,1,8,0:0:0:0:
256,192,221659,1,0,0:0:0:0:
256,192,221734,1,8,0:0:0:0:
256,192,221809,1,8,0:0:0:0:
256,192,221884,1,0,0:0:0:0:
256,192,222034,1,8,0:0:0:0:
256,192,222109,1,0,0:0:0:0:
256,192,222184,1,8,0:0:0:0:
256,192,222259,1,0,0:0:0:0:
256,192,222334,1,8,0:0:0:0:
256,192,222409,1,8,0:0:0:0:
256,192,222484,1,0,0:0:0:0:
256,192,222634,1,0,0:0:0:0:
256,192,222784,1,8,0:0:0:0:
256,192,222859,1,8,0:0:0:0:
256,192,222934,1,8,0:0:0:0:
256,192,223084,1,0,0:0:0:0:
256,192,223159,1,8,0:0:0:0:
256,192,223234,1,0,0:0:0:0:
256,192,223309,1,0,0:0:0:0:
256,192,223384,1,8,0:0:0:0:
256,192,223534,1,8,0:0:0:0:
256,192,223684,1,4,0:0:0:0:
256,192,223834,1,8,0:0:0:0:
256,192,223909,1,0,0:0:0:0:
256,192,223984,1,8,0:0:0:0:
256,192,224059,1,8,0:0:0:0:
256,192,224134,1,0,0:0:0:0:
256,192,224209,1,8,0:0:0:0:
256,192,224284,1,0,0:0:0:0:
256,192,224434,1,8,0:0:0:0:
256,192,224509,1,0,0:0:0:0:
256,192,224584,1,8,0:0:0:0:
256,192,224659,1,8,0:0:0:0:
256,192,224734,1,0,0:0:0:0:
256,192,224809,1,8,0:0:0:0:
256,192,224884,1,0,0:0:0:0:
256,192,225034,1,0,0:0:0:0:
256,192,225184,1,8,0:0:0:0:
256,192,225259,1,8,0:0:0:0:
256,192,225334,1,0,0:0:0:0:
256,192,225409,1,0,0:0:0:0:
256,192,225484,1,8,0:0:0:0:
256,192,225634,1,0,0:0:0:0:
256,192,225684,1,0,0:0:0:0:
256,192,225734,1,0,0:0:0:0:
256,192,225784,1,8,0:0:0:0:
256,192,225934,1,8,0:0:0:0:
256,192,226084,1,0,0:0:0:0:
256,192,226159,1,0,0:0:0:0:
256,192,226234,1,8,0:0:0:0:
256,192,226309,1,0,0:0:0:0:
256,192,226384,1,8,0:0:0:0:
256,192,226459,1,8,0:0:0:0:
256,192,226534,1,8,0:0:0:0:
256,192,226609,1,8,0:0:0:0:
256,192,226684,1,0,0:0:0:0:
256,192,226834,1,0,0:0:0:0:
256,192,226909,1,0,0:0:0:0:
256,192,226984,1,8,0:0:0:0:
256,192,227059,1,0,0:0:0:0:
256,192,227134,1,8,0:0:0:0:
256,192,227284,1,4,0:0:0:0:
256,192,227509,1,4,0:0:0:0:
256,192,227734,1,4,0:0:0:0:
256,192,227884,1,12,0:0:0:0:
256,192,228184,1,8,0:0:0:0:
256,192,228334,1,8,0:0:0:0:
256,192,228484,1,4,0:0:0:0:
256,192,228709,1,8,0:0:0:0:
256,192,228784,1,0,0:0:0:0:
256,192,228934,1,8,0:0:0:0:
256,192,229084,1,0,0:0:0:0:
256,192,229159,1,0,0:0:0:0:
256,192,229234,1,0,0:0:0:0:
256,192,229384,1,8,0:0:0:0:
256,192,229459,1,8,0:0:0:0:
256,192,229534,1,8,0:0:0:0:
256,192,229684,1,0,0:0:0:0:
256,192,229909,1,8,0:0:0:0:
256,192,229984,1,0,0:0:0:0:
256,192,230134,1,8,0:0:0:0:
256,192,230284,1,0,0:0:0:0:
256,192,230359,1,0,0:0:0:0:
256,192,230434,1,8,0:0:0:0:
256,192,230509,1,8,0:0:0:0:
256,192,230584,1,0,0:0:0:0:
256,192,230734,1,8,0:0:0:0:
256,192,230884,1,0,0:0:0:0:
256,192,231109,1,8,0:0:0:0:
256,192,231184,1,0,0:0:0:0:
256,192,231334,1,8,0:0:0:0:
256,192,231484,1,0,0:0:0:0:
256,192,231559,1,0,0:0:0:0:
256,192,231634,1,8,0:0:0:0:
256,192,231709,1,0,0:0:0:0:
256,192,231784,1,8,0:0:0:0:
256,192,231859,1,8,0:0:0:0:
256,192,231934,1,0,0:0:0:0:
256,192,232084,1,8,0:0:0:0:
256,192,232234,1,0,0:0:0:0:
256,192,232309,1,0,0:0:0:0:
256,192,232384,1,8,0:0:0:0:
256,192,232534,1,0,0:0:0:0:
256,192,232684,1,8,0:0:0:0:
256,192,232759,1,0,0:0:0:0:
256,192,232909,1,0,0:0:0:0:
256,192,232984,1,8,0:0:0:0:
256,192,233284,1,0,0:0:0:0:
256,192,233509,1,8,0:0:0:0:
256,192,233584,1,0,0:0:0:0:
256,192,233734,1,8,0:0:0:0:
256,192,233884,1,0,0:0:0:0:
256,192,233959,1,0,0:0:0:0:
256,192,234034,1,8,0:0:0:0:
256,192,234184,1,0,0:0:0:0:
256,192,234259,1,8,0:0:0:0:
256,192,234334,1,0,0:0:0:0:
256,192,234484,1,8,0:0:0:0:
256,192,234634,1,0,0:0:0:0:
256,192,234709,1,0,0:0:0:0:
256,192,234784,1,8,0:0:0:0:
256,192,234934,1,0,0:0:0:0:
256,192,235084,1,8,0:0:0:0:
256,192,235159,1,0,0:0:0:0:
256,192,235234,1,8,0:0:0:0:
256,192,235309,1,8,0:0:0:0:
256,192,235384,1,0,0:0:0:0:
256,192,235534,1,8,0:0:0:0:
256,192,235684,1,0,0:0:0:0:
256,192,235909,1,8,0:0:0:0:
256,192,235984,1,0,0:0:0:0:
256,192,236134,1,8,0:0:0:0:
256,192,236284,1,0,0:0:0:0:
256,192,236359,1,0,0:0:0:0:
256,192,236434,1,8,0:0:0:0:
256,192,236509,1,8,0:0:0:0:
256,192,236584,1,8,0:0:0:0:
256,192,236659,1,8,0:0:0:0:
256,192,236734,1,0,0:0:0:0:
256,192,236884,1,8,0:0:0:0:
256,192,237034,1,0,0:0:0:0:
256,192,237109,1,0,0:0:0:0:
256,192,237184,1,8,0:0:0:0:
256,192,237334,1,0,0:0:0:0:
256,192,237484,1,8,0:0:0:0:
256,192,237559,1,8,0:0:0:0:
256,192,237634,1,0,0:0:0:0:
256,192,237709,1,0,0:0:0:0:
256,192,237784,1,8,0:0:0:0:
256,192,238084,1,0,0:0:0:0:
256,192,238309,1,8,0:0:0:0:
256,192,238384,1,0,0:0:0:0:
256,192,238534,1,8,0:0:0:0:
256,192,238684,1,0,0:0:0:0:
256,192,238834,1,8,0:0:0:0:
256,192,238909,1,8,0:0:0:0:
256,192,238984,1,0,0:0:0:0:
256,192,239134,1,8,0:0:0:0:
256,192,239284,1,0,0:0:0:0:
256,192,239359,1,0,0:0:0:0:
256,192,239434,1,0,0:0:0:0:
256,192,239584,1,8,0:0:0:0:
256,192,239734,1,8,0:0:0:0:
256,192,239884,1,0,0:0:0:0:
256,192,240034,1,8,0:0:0:0:
256,192,240109,1,8,0:0:0:0:
256,192,240184,1,0,0:0:0:0:
256,192,240334,1,8,0:0:0:0:
256,192,240484,1,0,0:0:0:0:
256,192,240709,1,8,0:0:0:0:
256,192,240784,1,0,0:0:0:0:
256,192,240934,1,8,0:0:0:0:
256,192,241084,1,0,0:0:0:0:
256,192,241159,1,0,0:0:0:0:
256,192,241234,1,8,0:0:0:0:
256,192,241384,1,0,0:0:0:0:
256,192,241534,1,8,0:0:0:0:
256,192,241684,1,0,0:0:0:0:
256,192,241834,1,8,0:0:0:0:
256,192,241909,1,8,0:0:0:0:
256,192,241984,1,0,0:0:0:0:
256,192,242134,1,8,0:0:0:0:
256,192,242209,1,0,0:0:0:0:
256,192,242284,1,0,0:0:0:0:
256,192,242434,1,0,0:0:0:0:
256,192,242584,1,8,0:0:0:0:
256,192,242734,1,8,0:0:0:0:
256,192,242884,1,0,0:0:0:0:
256,192,243109,1,8,0:0:0:0:
256,192,243184,1,0,0:0:0:0:
256,192,243334,1,8,0:0:0:0:
256,192,243484,1,0,0:0:0:0:
256,192,243559,1,0,0:0:0:0:
256,192,243634,1,8,0:0:0:0:
256,192,243784,1,0,0:0:0:0:
256,192,243934,1,8,0:0:0:0:
256,192,244084,1,0,0:0:0:0:
256,192,244159,1,0,0:0:0:0:
256,192,244234,1,8,0:0:0:0:
256,192,244309,1,8,0:0:0:0:
256,192,244384,1,0,0:0:0:0:
256,192,244534,1,8,0:0:0:0:
256,192,244684,1,0,0:0:0:0:
256,192,244984,1,0,0:0:0:0:
256,192,245134,1,8,0:0:0:0:
256,192,245284,1,0,0:0:0:0:
256,192,245359,1,0,0:0:0:0:
256,192,245434,1,8,0:0:0:0:
256,192,245734,1,0,0:0:0:0:
256,192,245884,1,8,0:0:0:0:
256,192,246034,1,0,0:0:0:0:
256,192,246109,1,0,0:0:0:0:
256,192,246184,1,0,0:0:0:0:
256,192,246334,1,8,0:0:0:0:
256,192,246484,1,0,0:0:0:0:
256,192,246784,1,8,0:0:0:0:
256,192,246934,1,0,0:0:0:0:
256,192,247384,1,8,0:0:0:0:
256,192,247684,1,4,0:0:0:0:
256,192,247834,1,0,0:0:0:0:
256,192,247909,1,0,0:0:0:0:
256,192,247984,1,8,0:0:0:0:
256,192,248134,1,0,0:0:0:0:
256,192,248284,1,8,0:0:0:0:
256,192,248359,1,0,0:0:0:0:
256,192,248434,1,8,0:0:0:0:
256,192,248509,1,8,0:0:0:0:
256,192,248584,1,0,0:0:0:0:
256,192,248734,1,8,0:0:0:0:
256,192,248884,1,0,0:0:0:0:
256,192,248959,1,8,0:0:0:0:
256,192,249034,1,0,0:0:0:0:
256,192,249109,1,0,0:0:0:0:
256,192,249184,1,8,0:0:0:0:
256,192,249259,1,0,0:0:0:0:
256,192,249334,1,8,0:0:0:0:
256,192,249484,1,0,0:0:0:0:
256,192,249634,1,8,0:0:0:0:
256,192,249709,1,8,0:0:0:0:
256,192,249784,1,0,0:0:0:0:
256,192,249859,1,0,0:0:0:0:
256,192,249934,1,8,0:0:0:0:
256,192,250084,1,0,0:0:0:0:
256,192,250234,1,8,0:0:0:0:
256,192,250309,1,8,0:0:0:0:
256,192,250384,1,8,0:0:0:0:
256,192,250534,1,0,0:0:0:0:
256,192,250684,1,8,0:0:0:0:
256,192,250759,1,0,0:0:0:0:
256,192,250834,1,8,0:0:0:0:
256,192,250909,1,8,0:0:0:0:
256,192,250984,1,0,0:0:0:0:
256,192,251134,1,8,0:0:0:0:
256,192,251284,1,0,0:0:0:0:
256,192,251359,1,0,0:0:0:0:
256,192,251434,1,8,0:0:0:0:
256,192,251509,1,0,0:0:0:0:
256,192,251584,1,8,0:0:0:0:
256,192,251659,1,8,0:0:0:0:
256,192,251734,1,0,0:0:0:0:
256,192,251884,1,8,0:0:0:0:
256,192,252034,1,0,0:0:0:0:
256,192,252109,1,0,0:0:0:0:
256,192,252184,1,8,0:0:0:0:
256,192,252484,1,4,0:0:0:0:
256,192,252634,1,0,0:0:0:0:
256,192,252709,1,0,0:0:0:0:
256,192,252784,1,8,0:0:0:0:
256,192,252934,1,0,0:0:0:0:
256,192,253084,1,8,0:0:0:0:
256,192,253159,1,8,0:0:0:0:
256,192,253234,1,0,0:0:0:0:
256,192,253309,1,0,0:0:0:0:
256,192,253384,1,8,0:0:0:0:
256,192,253534,1,0,0:0:0:0:
256,192,253684,1,8,0:0:0:0:
256,192,253759,1,8,0:0:0:0:
256,192,253834,1,0,0:0:0:0:
256,192,253909,1,8,0:0:0:0:
256,192,253984,1,0,0:0:0:0:
256,192,254059,1,0,0:0:0:0:
256,192,254134,1,8,0:0:0:0:
256,192,254209,1,8,0:0:0:0:
256,192,254284,1,0,0:0:0:0:
256,192,254434,1,8,0:0:0:0:
256,192,254509,1,8,0:0:0:0:
256,192,254584,1,0,0:0:0:0:
256,192,254734,1,8,0:0:0:0:
256,192,254884,1,0,0:0:0:0:
256,192,255034,1,8,0:0:0:0:
256,192,255109,1,0,0:0:0:0:
256,192,255184,1,8,0:0:0:0:
256,192,255334,1,0,0:0:0:0:
256,192,255484,1,8,0:0:0:0:
256,192,255559,1,0,0:0:0:0:
256,192,255634,1,8,0:0:0:0:
256,192,255709,1,8,0:0:0:0:
256,192,255784,1,0,0:0:0:0:
256,192,255934,1,8,0:0:0:0:
256,192,256084,1,0,0:0:0:0:
256,192,256159,1,0,0:0:0:0:
256,192,256234,1,0,0:0:0:0:
256,192,256309,1,0,0:0:0:0:
256,192,256384,1,8,0:0:0:0:
256,192,256459,1,8,0:0:0:0:
256,192,256534,1,0,0:0:0:0:
256,192,256609,1,0,0:0:0:0:
256,192,256684,1,8,0:0:0:0:
256,192,256834,1,0,0:0:0:0:
256,192,256909,1,0,0:0:0:0:
256,192,256984,1,8,0:0:0:0:
256,192,257284,1,4,0:0:0:0:
256,192,257434,1,0,0:0:0:0:
256,192,257509,1,0,0:0:0:0:
256,192,257584,1,8,0:0:0:0:
256,192,257734,1,0,0:0:0:0:
256,192,257884,1,8,0:0:0:0:
256,192,257959,1,8,0:0:0:0:
256,192,258034,1,0,0:0:0:0:
256,192,258109,1,0,0:0:0:0:
256,192,258184,1,8,0:0:0:0:
256,192,258334,1,0,0:0:0:0:
256,192,258484,1,8,0:0:0:0:
256,192,258559,1,8,0:0:0:0:
256,192,258634,1,0,0:0:0:0:
256,192,258709,1,8,0:0:0:0:
256,192,258784,1,0,0:0:0:0:
256,192,258859,1,0,0:0:0:0:
256,192,258934,1,8,0:0:0:0:
256,192,259009,1,8,0:0:0:0:
256,192,259084,1,0,0:0:0:0:
256,192,259234,1,8,0:0:0:0:
256,192,259309,1,8,0:0:0:0:
256,192,259384,1,8,0:0:0:0:
256,192,259459,1,8,0:0:0:0:
256,192,259534,1,8,0:0:0:0:
256,192,259609,1,8,0:0:0:0:
256,192,259684,1,0,0:0:0:0:
256,192,259834,1,8,0:0:0:0:
256,192,259909,1,8,0:0:0:0:
256,192,259984,1,0,0:0:0:0:
256,192,260134,1,8,0:0:0:0:
256,192,260284,1,0,0:0:0:0:
256,192,260359,1,8,0:0:0:0:
256,192,260434,1,0,0:0:0:0:
256,192,260509,1,0,0:0:0:0:
256,192,260584,1,8,0:0:0:0:
256,192,260734,1,0,0:0:0:0:
256,192,260884,1,8,0:0:0:0:
256,192,260959,1,8,0:0:0:0:
256,192,261034,1,0,0:0:0:0:
256,192,261109,1,8,0:0:0:0:
256,192,261184,1,0,0:0:0:0:
256,192,261259,1,0,0:0:0:0:
256,192,261334,1,8,0:0:0:0:
256,192,261409,1,0,0:0:0:0:
256,192,261484,1,8,0:0:0:0:
256,192,261634,1,0,0:0:0:0:
256,192,261709,1,0,0:0:0:0:
256,192,261784,1,8,0:0:0:0:
256,192,261934,1,8,0:0:0:0:
256,192,262084,1,4,0:0:0:0:
256,192,262234,1,8,0:0:0:0:
256,192,262309,1,8,0:0:0:0:
256,192,262384,1,0,0:0:0:0:
256,192,262534,1,8,0:0:0:0:
256,192,262684,1,0,0:0:0:0:
256,192,262759,1,8,0:0:0:0:
256,192,262834,1,0,0:0:0:0:
256,192,262909,1,0,0:0:0:0:
256,192,262984,1,8,0:0:0:0:
256,192,263134,1,0,0:0:0:0:
256,192,263284,1,8,0:0:0:0:
256,192,263359,1,0,0:0:0:0:
256,192,263434,1,0,0:0:0:0:
256,192,263509,1,0,0:0:0:0:
256,192,263584,1,8,0:0:0:0:
256,192,263659,1,0,0:0:0:0:
256,192,263734,1,8,0:0:0:0:
256,192,263809,1,8,0:0:0:0:
256,192,263884,1,0,0:0:0:0:
256,192,264034,1,8,0:0:0:0:
256,192,264109,1,0,0:0:0:0:
256,192,264184,1,0,0:0:0:0:
256,192,264334,1,8,0:0:0:0:
256,192,264484,1,0,0:0:0:0:
256,192,264634,1,8,0:0:0:0:
256,192,264709,1,0,0:0:0:0:
256,192,264784,1,8,0:0:0:0:
256,192,264859,1,8,0:0:0:0:
256,192,264934,1,0,0:0:0:0:
256,192,265084,1,8,0:0:0:0:
256,192,265234,1,0,0:0:0:0:
256,192,265309,1,0,0:0:0:0:
256,192,265384,1,8,0:0:0:0:
256,192,265459,1,0,0:0:0:0:
256,192,265534,1,8,0:0:0:0:
256,192,265609,1,8,0:0:0:0:
256,192,265684,1,0,0:0:0:0:
256,192,265834,1,8,0:0:0:0:
256,192,265909,1,8,0:0:0:0:
256,192,265984,1,0,0:0:0:0:
256,192,266134,1,8,0:0:0:0:
256,192,266284,1,0,0:0:0:0:
256,192,266359,1,0,0:0:0:0:
256,192,266434,1,8,0:0:0:0:
256,192,266584,1,0,0:0:0:0:
256,192,266659,1,0,0:0:0:0:
256,192,266734,1,8,0:0:0:0:
256,192,266809,1,8,0:0:0:0:
256,192,266884,1,0,0:0:0:0:
256,192,267034,1,8,0:0:0:0:
256,192,267184,1,0,0:0:0:0:
256,192,267259,1,8,0:0:0:0:
256,192,267334,1,0,0:0:0:0:
256,192,267409,1,8,0:0:0:0:
256,192,267484,1,0,0:0:0:0:
256,192,267634,1,8,0:0:0:0:
256,192,267784,1,0,0:0:0:0:
256,192,267859,1,0,0:0:0:0:
256,192,267934,1,8,0:0:0:0:
256,192,268009,1,8,0:0:0:0:
256,192,268084,1,0,0:0:0:0:
256,192,268234,1,8,0:0:0:0:
256,192,268384,1,0,0:0:0:0:
256,192,268459,1,8,0:0:0:0:
256,192,268534,1,0,0:0:0:0:
256,192,268609,1,8,0:0:0:0:
256,192,268684,1,0,0:0:0:0:
256,192,268834,1,8,0:0:0:0:
256,192,268909,1,8,0:0:0:0:
256,192,268984,1,0,0:0:0:0:
256,192,269134,1,8,0:0:0:0:
256,192,269284,1,0,0:0:0:0:
256,192,269434,1,8,0:0:0:0:
256,192,269584,1,0,0:0:0:0:
256,192,269659,1,0,0:0:0:0:
256,192,269734,1,8,0:0:0:0:
256,192,269809,1,8,0:0:0:0:
256,192,269884,1,0,0:0:0:0:
256,192,270034,1,8,0:0:0:0:
256,192,270184,1,0,0:0:0:0:
256,192,270259,1,8,0:0:0:0:
256,192,270334,1,0,0:0:0:0:
256,192,270409,1,8,0:0:0:0:
256,192,270484,1,0,0:0:0:0:
256,192,270634,1,0,0:0:0:0:
256,192,270784,1,8,0:0:0:0:
256,192,270934,1,0,0:0:0:0:
256,192,271084,1,8,0:0:0:0:
256,192,271159,1,8,0:0:0:0:
256,192,271234,1,8,0:0:0:0:
256,192,271309,1,8,0:0:0:0:
256,192,271384,1,0,0:0:0:0:
256,192,271534,1,8,0:0:0:0:
256,192,271684,1,0,0:0:0:0:
256,192,271834,1,8,0:0:0:0:
256,192,271909,1,8,0:0:0:0:
256,192,271984,1,0,0:0:0:0:
256,192,272059,1,0,0:0:0:0:
256,192,272134,1,8,0:0:0:0:
256,192,272209,1,8,0:0:0:0:
256,192,272284,1,0,0:0:0:0:
256,192,272434,1,8,0:0:0:0:
256,192,272509,1,0,0:0:0:0:
256,192,272584,1,0,0:0:0:0:
256,192,272659,1,0,0:0:0:0:
256,192,272734,1,8,0:0:0:0:
256,192,272809,1,8,0:0:0:0:
256,192,272884,1,0,0:0:0:0:
256,192,273034,1,8,0:0:0:0:
256,192,273109,1,8,0:0:0:0:
256,192,273184,1,0,0:0:0:0:
256,192,273259,1,0,0:0:0:0:
256,192,273334,1,8,0:0:0:0:
256,192,273409,1,8,0:0:0:0:
256,192,273484,1,0,0:0:0:0:
256,192,273634,1,8,0:0:0:0:
256,192,273709,1,8,0:0:0:0:
256,192,273784,1,0,0:0:0:0:
256,192,273934,1,8,0:0:0:0:
256,192,274084,1,0,0:0:0:0:
256,192,274159,1,0,0:0:0:0:
256,192,274234,1,8,0:0:0:0:
256,192,274309,1,8,0:0:0:0:
256,192,274384,1,0,0:0:0:0:
256,192,274459,1,0,0:0:0:0:
256,192,274534,1,8,0:0:0:0:
256,192,274609,1,8,0:0:0:0:
256,192,274684,1,0,0:0:0:0:
256,192,274834,1,8,0:0:0:0:
256,192,274984,1,0,0:0:0:0:
256,192,275059,1,8,0:0:0:0:
256,192,275134,1,0,0:0:0:0:
256,192,275284,1,12,0:0:0:0:
256,192,275509,1,12,0:0:0:0:
256,192,275734,1,4,0:0:0:0:
256,192,275884,1,12,0:0:0:0:
256,192,276184,1,0,0:0:0:0:
256,192,276334,1,8,0:0:0:0:
256,192,276484,1,4,0:0:0:0:
256,192,276709,1,0,0:0:0:0:
256,192,276784,1,8,0:0:0:0:
256,192,276934,1,8,0:0:0:0:
256,192,277084,1,0,0:0:0:0:
256,192,277159,1,0,0:0:0:0:
256,192,277234,1,0,0:0:0:0:
256,192,277384,1,8,0:0:0:0:
256,192,277534,1,8,0:0:0:0:
256,192,277684,1,0,0:0:0:0:
256,192,277909,1,8,0:0:0:0:
256,192,277984,1,8,0:0:0:0:
256,192,278134,1,0,0:0:0:0:
256,192,278284,1,8,0:0:0:0:
256,192,278359,1,8,0:0:0:0:
256,192,278434,1,0,0:0:0:0:
256,192,278509,1,0,0:0:0:0:
256,192,278584,1,8,0:0:0:0:
256,192,278734,1,8,0:0:0:0:
256,192,278884,1,0,0:0:0:0:
256,192,279109,1,0,0:0:0:0:
256,192,279184,1,8,0:0:0:0:
256,192,279334,1,0,0:0:0:0:
256,192,279409,1,0,0:0:0:0:
256,192,279484,1,8,0:0:0:0:
256,192,279559,1,8,0:0:0:0:
256,192,279634,1,0,0:0:0:0:
256,192,279784,1,8,0:0:0:0:
256,192,279934,1,8,0:0:0:0:
256,192,280084,1,0,0:0:0:0:
256,192,280159,1,0,0:0:0:0:
256,192,280234,1,8,0:0:0:0:
256,192,280309,1,0,0:0:0:0:
256,192,280384,1,8,0:0:0:0:
256,192,280534,1,8,0:0:0:0:
256,192,280684,1,0,0:0:0:0:
256,192,280759,1,0,0:0:0:0:
256,192,280834,1,0,0:0:0:0:
256,192,280909,1,0,0:0:0:0:
256,192,280984,1,8,0:0:0:0:
256,192,281021,1,8,0:0:0:0:
256,192,281134,1,8,0:0:0:0:
256,192,281171,1,8,0:0:0:0:
256,192,281284,1,4,0:0:0:0:
256,192,281584,1,8,0:0:0:0:
256,192,281809,1,8,0:0:0:0:
256,192,281884,1,0,0:0:0:0:
256,192,282034,1,0,0:0:0:0:
256,192,282184,1,8,0:0:0:0:
256,192,282259,1,0,0:0:0:0:
256,192,282334,1,8,0:0:0:0:
256,192,282409,1,8,0:0:0:0:
256,192,282484,1,0,0:0:0:0:
256,192,282634,1,0,0:0:0:0:
256,192,282709,1,0,0:0:0:0:
256,192,282784,1,8,0:0:0:0:
256,192,283009,1,8,0:0:0:0:
256,192,283084,1,0,0:0:0:0:
256,192,283234,1,0,0:0:0:0:
256,192,283384,1,8,0:0:0:0:
256,192,283459,1,8,0:0:0:0:
256,192,283534,1,0,0:0:0:0:
256,192,283609,1,8,0:0:0:0:
256,192,283684,1,0,0:0:0:0:
256,192,283834,1,0,0:0:0:0:
256,192,283984,1,8,0:0:0:0:
256,192,284209,1,8,0:0:0:0:
256,192,284284,1,0,0:0:0:0:
256,192,284434,1,0,0:0:0:0:
256,192,284509,1,0,0:0:0:0:
256,192,284584,1,8,0:0:0:0:
256,192,284734,1,8,0:0:0:0:
256,192,284884,1,0,0:0:0:0:
256,192,284959,1,0,0:0:0:0:
256,192,285034,1,0,0:0:0:0:
256,192,285184,1,8,0:0:0:0:
256,192,285259,1,8,0:0:0:0:
256,192,285334,1,0,0:0:0:0:
256,192,285409,1,0,0:0:0:0:
256,192,285484,1,8,0:0:0:0:
256,192,285634,1,0,0:0:0:0:
256,192,285784,1,8,0:0:0:0:
256,192,285859,1,8,0:0:0:0:
256,192,285934,1,8,0:0:0:0:
256,192,286084,1,4,0:0:0:0:
256,192,286384,1,0,0:0:0:0:
256,192,286684,1,0,0:0:0:0:
256,192,286984,1,0,0:0:0:0:
256,192,287284,1,0,0:0:0:0:
256,192,287584,1,0,0:0:0:0:
256,192,287884,1,0,0:0:0:0:
256,192,288184,1,0,0:0:0:0:
256,192,288334,1,0,0:0:0:0:
256,192,288484,1,0,0:0:0:0:
256,192,288784,1,0,0:0:0:0:
256,192,289084,1,0,0:0:0:0:
256,192,289384,1,0,0:0:0:0:
256,192,289684,1,4,0:0:0:0:
256,192,289984,1,0,0:0:0:0:
256,192,290284,1,0,0:0:0:0:
256,192,290584,1,0,0:0:0:0:
256,192,290734,1,0,0:0:0:0:
256,192,290884,1,4,0:0:0:0:
256,192,291184,1,0,0:0:0:0:
256,192,291484,1,0,0:0:0:0:
256,192,291784,1,0,0:0:0:0:
256,192,292084,1,0,0:0:0:0:
256,192,292384,1,0,0:0:0:0:
256,192,292684,1,0,0:0:0:0:
256,192,292984,1,0,0:0:0:0:
256,192,293134,1,0,0:0:0:0:
256,192,293284,1,0,0:0:0:0:
256,192,293434,1,8,0:0:0:0:
256,192,293584,1,0,0:0:0:0:
256,192,293884,1,0,0:0:0:0:
256,192,294184,1,0,0:0:0:0:
256,192,294484,1,4,0:0:0:0:
256,192,294784,1,8,0:0:0:0:
256,192,294934,1,8,0:0:0:0:
256,192,295684,1,4,0:0:0:0:
256,192,295909,1,0,0:0:0:0:
256,192,295984,1,8,0:0:0:0:
256,192,296134,1,0,0:0:0:0:
256,192,296284,1,8,0:0:0:0:
256,192,296359,1,8,0:0:0:0:
256,192,296434,1,0,0:0:0:0:
256,192,296584,1,8,0:0:0:0:
256,192,296734,1,0,0:0:0:0:
256,192,296809,1,0,0:0:0:0:
256,192,296884,1,8,0:0:0:0:
256,192,296959,1,8,0:0:0:0:
256,192,297034,1,0,0:0:0:0:
256,192,297184,1,8,0:0:0:0:
256,192,297334,1,8,0:0:0:0:
256,192,297409,1,8,0:0:0:0:
256,192,297484,1,0,0:0:0:0:
256,192,297559,1,8,0:0:0:0:
256,192,297634,1,0,0:0:0:0:
256,192,297709,1,0,0:0:0:0:
256,192,297784,1,8,0:0:0:0:
256,192,297934,1,0,0:0:0:0:
256,192,298084,1,8,0:0:0:0:
256,192,298159,1,0,0:0:0:0:
256,192,298309,1,0,0:0:0:0:
256,192,298384,1,8,0:0:0:0:
256,192,298534,1,8,0:0:0:0:
256,192,298684,1,0,0:0:0:0:
256,192,298759,1,8,0:0:0:0:
256,192,298834,1,0,0:0:0:0:
256,192,298909,1,0,0:0:0:0:
256,192,298984,1,8,0:0:0:0:
256,192,299134,1,8,0:0:0:0:
256,192,299209,1,8,0:0:0:0:
256,192,299284,1,0,0:0:0:0:
256,192,299434,1,0,0:0:0:0:
256,192,299509,1,0,0:0:0:0:
256,192,299584,1,8,0:0:0:0:
256,192,299659,1,8,0:0:0:0:
256,192,299734,1,0,0:0:0:0:
256,192,299809,1,8,0:0:0:0:
256,192,299884,1,0,0:0:0:0:
256,192,300034,1,0,0:0:0:0:
256,192,300184,1,8,0:0:0:0:
256,192,300259,1,8,0:0:0:0:
256,192,300334,1,8,0:0:0:0:
256,192,300484,1,4,0:0:0:0:
256,192,300709,1,0,0:0:0:0:
256,192,300784,1,8,0:0:0:0:
256,192,300934,1,0,0:0:0:0:
256,192,301009,1,0,0:0:0:0:
256,192,301084,1,8,0:0:0:0:
256,192,301159,1,8,0:0:0:0:
256,192,301234,1,0,0:0:0:0:
256,192,301384,1,8,0:0:0:0:
256,192,301534,1,0,0:0:0:0:
256,192,301609,1,8,0:0:0:0:
256,192,301684,1,0,0:0:0:0:
256,192,301759,1,0,0:0:0:0:
256,192,301834,1,8,0:0:0:0:
256,192,301909,1,0,0:0:0:0:
256,192,301984,1,8,0:0:0:0:
256,192,302134,1,0,0:0:0:0:
256,192,302284,1,8,0:0:0:0:
256,192,302359,1,8,0:0:0:0:
256,192,302434,1,0,0:0:0:0:
256,192,302509,1,0,0:0:0:0:
256,192,302584,1,8,0:0:0:0:
256,192,302734,1,0,0:0:0:0:
256,192,302809,1,0,0:0:0:0:
256,192,302884,1,8,0:0:0:0:
256,192,302959,1,0,0:0:0:0:
256,192,303109,1,0,0:0:0:0:
256,192,303184,1,8,0:0:0:0:
256,192,303334,1,8,0:0:0:0:
256,192,303484,1,0,0:0:0:0:
256,192,303559,1,0,0:0:0:0:
256,192,303634,1,8,0:0:0:0:
256,192,303709,1,0,0:0:0:0:
256,192,303784,1,8,0:0:0:0:
256,192,303934,1,8,0:0:0:0:
256,192,304084,1,4,0:0:0:0:
256,192,304384,1,12,0:0:0:0:
256,192,304684,1,0,0:0:0:0:
256,192,304834,1,0,0:0:0:0:
256,192,304984,1,8,0:0:0:0:
256,192,305059,1,8,0:0:0:0:
256,192,305134,1,8,0:0:0:0:
256,192,305284,1,4,0:0:0:0:
256,192,305509,1,0,0:0:0:0:
256,192,305584,1,8,0:0:0:0:
256,192,305734,1,0,0:0:0:0:
256,192,305884,1,8,0:0:0:0:
256,192,305959,1,8,0:0:0:0:
256,192,306034,1,0,0:0:0:0:
256,192,306184,1,8,0:0:0:0:
256,192,306334,1,0,0:0:0:0:
256,192,306409,1,0,0:0:0:0:
256,192,306484,1,8,0:0:0:0:
256,192,306634,1,0,0:0:0:0:
256,192,306784,1,8,0:0:0:0:
256,192,306859,1,0,0:0:0:0:
256,192,306934,1,8,0:0:0:0:
256,192,307009,1,8,0:0:0:0:
256,192,307084,1,0,0:0:0:0:
256,192,307234,1,0,0:0:0:0:
256,192,307309,1,0,0:0:0:0:
256,192,307384,1,8,0:0:0:0:
256,192,307534,1,0,0:0:0:0:
256,192,307684,1,8,0:0:0:0:
256,192,307759,1,0,0:0:0:0:
256,192,307909,1,0,0:0:0:0:
256,192,307984,1,8,0:0:0:0:
256,192,308059,1,8,0:0:0:0:
256,192,308134,1,0,0:0:0:0:
256,192,308284,1,8,0:0:0:0:
256,192,308359,1,0,0:0:0:0:
256,192,308434,1,0,0:0:0:0:
256,192,308509,1,0,0:0:0:0:
256,192,308584,1,8,0:0:0:0:
256,192,308734,1,8,0:0:0:0:
256,192,308884,1,0,0:0:0:0:
256,192,308959,1,0,0:0:0:0:
256,192,309034,1,8,0:0:0:0:
256,192,309109,1,0,0:0:0:0:
256,192,309184,1,8,0:0:0:0:
256,192,309259,1,8,0:0:0:0:
256,192,309334,1,0,0:0:0:0:
256,192,309409,1,0,0:0:0:0:
256,192,309484,1,8,0:0:0:0:
256,192,309634,1,0,0:0:0:0:
256,192,309784,1,8,0:0:0:0:
256,192,309859,1,8,0:0:0:0:
256,192,309934,1,8,0:0:0:0:
256,192,310084,1,4,0:0:0:0:
256,192,310309,1,0,0:0:0:0:
256,192,310384,1,8,0:0:0:0:
256,192,310534,1,8,0:0:0:0:
256,192,310684,1,0,0:0:0:0:
256,192,310759,1,8,0:0:0:0:
256,192,310834,1,0,0:0:0:0:
256,192,310909,1,0,0:0:0:0:
256,192,310984,1,8,0:0:0:0:
256,192,311059,1,8,0:0:0:0:
256,192,311134,1,0,0:0:0:0:
256,192,311284,1,8,0:0:0:0:
256,192,311434,1,0,0:0:0:0:
256,192,311509,1,0,0:0:0:0:
256,192,311584,1,8,0:0:0:0:
256,192,311734,1,8,0:0:0:0:
256,192,311809,1,8,0:0:0:0:
256,192,311884,1,0,0:0:0:0:
256,192,311959,1,0,0:0:0:0:
256,192,312034,1,8,0:0:0:0:
256,192,312109,1,0,0:0:0:0:
256,192,312184,1,8,0:0:0:0:
256,192,312334,1,8,0:0:0:0:
256,192,312484,1,0,0:0:0:0:
256,192,312559,1,0,0:0:0:0:
256,192,312634,1,0,0:0:0:0:
256,192,312709,1,0,0:0:0:0:
256,192,312784,1,8,0:0:0:0:
256,192,312934,1,8,0:0:0:0:
256,192,313084,1,0,0:0:0:0:
256,192,313159,1,8,0:0:0:0:
256,192,313234,1,0,0:0:0:0:
256,192,313309,1,0,0:0:0:0:
256,192,313384,1,8,0:0:0:0:
256,192,313534,1,8,0:0:0:0:
256,192,313684,1,4,0:0:0:0:
256,192,313984,1,12,0:0:0:0:
256,192,314284,1,0,0:0:0:0:
256,192,314434,1,0,0:0:0:0:
256,192,314584,1,8,0:0:0:0:
256,192,314659,1,8,0:0:0:0:
256,192,314734,1,8,0:0:0:0:
256,192,314809,1,8,0:0:0:0:
256,192,314884,1,0,0:0:0:0:
256,192,315034,1,0,0:0:0:0:
256,192,315184,1,0,0:0:0:0:
256,192,315334,1,0,0:0:0:0:
256,192,315484,1,0,0:0:0:0:
256,192,315634,1,0,0:0:0:0:
256,192,315784,1,8,0:0:0:0:
256,192,315934,1,8,0:0:0:0:
256,192,316084,1,0,0:0:0:0:
256,192,316234,1,0,0:0:0:0:
256,192,316384,1,0,0:0:0:0:
256,192,316534,1,0,0:0:0:0:
256,192,316684,1,8,0:0:0:0:
256,192,316834,1,0,0:0:0:0:
256,192,316984,1,8,0:0:0:0:
256,192,317059,1,8,0:0:0:0:
256,192,317134,1,0,0:0:0:0:
256,192,317284,1,8,0:0:0:0:
256,192,317434,1,8,0:0:0:0:
256,192,317584,1,8,0:0:0:0:
256,192,317734,1,8,0:0:0:0:
256,192,317884,1,0,0:0:0:0:
256,192,318034,1,0,0:0:0:0:
256,192,318184,1,8,0:0:0:0:
256,192,318259,1,8,0:0:0:0:
256,192,318334,1,0,0:0:0:0:
256,192,318484,1,8,0:0:0:0:
256,192,318634,1,0,0:0:0:0:
256,192,318709,1,0,0:0:0:0:
256,192,318784,1,8,0:0:0:0:
256,192,318859,1,0,0:0:0:0:
256,192,318934,1,8,0:0:0:0:
256,192,319009,1,8,0:0:0:0:
256,192,319084,1,0,0:0:0:0:
256,192,319159,1,0,0:0:0:0:
256,192,319234,1,8,0:0:0:0:
256,192,319309,1,0,0:0:0:0:
256,192,319384,1,8,0:0:0:0:
256,192,319534,1,0,0:0:0:0:
256,192,319684,1,8,0:0:0:0:
256,192,319759,1,0,0:0:0:0:
256,192,319834,1,0,0:0:0:0:
256,192,319909,1,8,0:0:0:0:
256,192,320059,1,8,0:0:0:0:
256,192,320134,1,0,0:0:0:0:
256,192,320209,1,0,0:0:0:0:
256,192,320284,1,8,0:0:0:0:
256,192,320359,1,0,0:0:0:0:
256,192,320434,1,0,0:0:0:0:
256,192,320509,1,8,0:0:0:0:
256,192,320659,1,8,0:0:0:0:
256,192,320734,1,8,0:0:0:0:
256,192,320809,1,0,0:0:0:0:
256,192,320884,1,0,0:0:0:0:
256,192,320959,1,8,0:0:0:0:
256,192,321034,1,0,0:0:0:0:
256,192,321109,1,8,0:0:0:0:
256,192,321259,1,8,0:0:0:0:
256,192,321334,1,0,0:0:0:0:
256,192,321409,1,8,0:0:0:0:
256,192,321484,1,8,0:0:0:0:
256,192,321559,1,0,0:0:0:0:
256,192,321634,1,0,0:0:0:0:
256,192,321709,1,8,0:0:0:0:
256,192,321859,1,8,0:0:0:0:
256,192,321934,1,0,0:0:0:0:
256,192,322009,1,0,0:0:0:0:
256,192,322084,1,0,0:0:0:0:
256,192,322159,1,8,0:0:0:0:
256,192,322234,1,0,0:0:0:0:
256,192,322309,1,8,0:0:0:0:
256,192,322459,1,8,0:0:0:0:
256,192,322534,1,8,0:0:0:0:
256,192,322609,1,0,0:0:0:0:
256,192,322684,1,8,0:0:0:0:
256,192,322759,1,0,0:0:0:0:
256,192,322834,1,0,0:0:0:0:
256,192,322909,1,8,0:0:0:0:
256,192,323059,1,8,0:0:0:0:
256,192,323134,1,0,0:0:0:0:
256,192,323209,1,8,0:0:0:0:
256,192,323284,1,0,0:0:0:0:
256,192,323359,1,8,0:0:0:0:
256,192,323434,1,8,0:0:0:0:
256,192,323509,1,0,0:0:0:0:
256,192,323659,1,8,0:0:0:0:
256,192,323734,1,0,0:0:0:0:
256,192,323809,1,0,0:0:0:0:
256,192,323884,1,8,0:0:0:0:
256,192,323959,1,0,0:0:0:0:
256,192,324034,1,8,0:0:0:0:
256,192,324109,1,8,0:0:0:0:
256,192,324184,1,0,0:0:0:0:
256,192,324334,1,0,0:0:0:0:
256,192,324484,1,8,0:0:0:0:
256,192,324559,1,0,0:0:0:0:
256,192,324634,1,0,0:0:0:0:
256,192,324709,1,0,0:0:0:0:
256,192,324784,1,8,0:0:0:0:
256,192,324859,1,8,0:0:0:0:
256,192,324934,1,8,0:0:0:0:
256,192,325009,1,8,0:0:0:0:
256,192,325084,1,0,0:0:0:0:
256,192,325159,1,0,0:0:0:0:
256,192,325234,1,8,0:0:0:0:
256,192,325309,1,0,0:0:0:0:
256,192,325384,1,8,0:0:0:0:
256,192,325459,1,8,0:0:0:0:
256,192,325534,1,0,0:0:0:0:
256,192,325609,1,0,0:0:0:0:
256,192,325684,1,8,0:0:0:0:
256,192,325759,1,0,0:0:0:0:
256,192,325834,1,0,0:0:0:0:
256,192,325909,1,0,0:0:0:0:
256,192,325984,1,8,0:0:0:0:
256,192,326059,1,8,0:0:0:0:
256,192,326134,1,8,0:0:0:0:
256,192,326209,1,8,0:0:0:0:
256,192,326284,1,0,0:0:0:0:
256,192,326359,1,8,0:0:0:0:
256,192,326434,1,0,0:0:0:0:
256,192,326509,1,0,0:0:0:0:
256,192,326584,1,8,0:0:0:0:
256,192,326659,1,0,0:0:0:0:
256,192,326734,1,8,0:0:0:0:
256,192,326809,1,8,0:0:0:0:
256,192,326884,1,0,0:0:0:0:
256,192,326959,1,0,0:0:0:0:
256,192,327034,1,0,0:0:0:0:
256,192,327109,1,0,0:0:0:0:
256,192,327184,1,8,0:0:0:0:
256,192,327259,1,0,0:0:0:0:
256,192,327334,1,0,0:0:0:0:
256,192,327409,1,0,0:0:0:0:
256,192,327484,1,8,0:0:0:0:
256,192,327559,1,8,0:0:0:0:
256,192,327634,1,0,0:0:0:0:
256,192,327709,1,0,0:0:0:0:
256,192,327784,1,8,0:0:0:0:
256,192,327859,1,8,0:0:0:0:
256,192,327934,1,8,0:0:0:0:
256,192,328009,1,8,0:0:0:0:
256,192,328084,1,0,0:0:0:0:
256,192,328159,1,8,0:0:0:0:
256,192,328234,1,0,0:0:0:0:
256,192,328309,1,0,0:0:0:0:
256,192,328384,1,8,0:0:0:0:
256,192,328459,1,0,0:0:0:0:
256,192,328534,1,0,0:0:0:0:
256,192,328609,1,0,0:0:0:0:
256,192,328684,1,8,0:0:0:0:
256,192,328759,1,0,0:0:0:0:
256,192,328834,1,8,0:0:0:0:
256,192,328909,1,8,0:0:0:0:
256,192,328984,1,0,0:0:0:0:
256,192,329059,1,0,0:0:0:0:
256,192,329134,1,0,0:0:0:0:
256,192,329209,1,0,0:0:0:0:
256,192,329284,1,8,0:0:0:0:
254,192,329359,1,0,0:0:0:0:
254,192,329434,1,0,0:0:0:0:
254,192,329509,1,0,0:0:0:0:
254,192,329584,1,8,0:0:0:0:
254,192,329659,1,8,0:0:0:0:
254,192,329734,1,0,0:0:0:0:
254,192,329809,1,0,0:0:0:0:
254,192,329884,1,8,0:0:0:0:
254,192,329959,1,0,0:0:0:0:
254,192,330034,1,8,0:0:0:0:
254,192,330109,1,8,0:0:0:0:
254,192,330184,1,8,0:0:0:0:
254,192,330259,1,8,0:0:0:0:
254,192,330334,1,0,0:0:0:0:
254,192,330409,1,0,0:0:0:0:
254,192,330484,1,8,0:0:0:0:
254,192,330559,1,0,0:0:0:0:
254,192,330634,1,0,0:0:0:0:
254,192,330709,1,0,0:0:0:0:
254,192,330784,1,8,0:0:0:0:
254,192,330859,1,8,0:0:0:0:
254,192,330934,1,0,0:0:0:0:
254,192,331009,1,8,0:0:0:0:
254,192,331084,1,0,0:0:0:0:
254,192,331159,1,0,0:0:0:0:
254,192,331234,1,0,0:0:0:0:
254,192,331309,1,0,0:0:0:0:
254,192,331384,1,8,0:0:0:0:
254,192,331459,1,0,0:0:0:0:
254,192,331534,1,8,0:0:0:0:
254,192,331609,1,8,0:0:0:0:
254,192,331684,1,0,0:0:0:0:
254,192,331759,1,0,0:0:0:0:
254,192,331834,1,0,0:0:0:0:
254,192,331909,1,0,0:0:0:0:
254,192,331984,1,8,0:0:0:0:
254,192,332059,1,0,0:0:0:0:
254,192,332134,1,0,0:0:0:0:
254,192,332209,1,0,0:0:0:0:
254,192,332284,1,8,0:0:0:0:
254,192,332359,1,8,0:0:0:0:
254,192,332434,1,0,0:0:0:0:
254,192,332509,1,0,0:0:0:0:
254,192,332584,1,8,0:0:0:0:
254,192,332659,1,0,0:0:0:0:
254,192,332734,1,8,0:0:0:0:
254,192,332809,1,8,0:0:0:0:
254,192,332884,1,0,0:0:0:0:
254,192,332959,1,0,0:0:0:0:
254,192,333034,1,0,0:0:0:0:
254,192,333109,1,0,0:0:0:0:
254,192,333184,1,8,0:0:0:0:
254,192,333259,1,0,0:0:0:0:
254,192,333334,1,8,0:0:0:0:
254,192,333409,1,8,0:0:0:0:
254,192,333484,1,8,0:0:0:0:
254,192,333559,1,8,0:0:0:0:
254,192,333634,1,0,0:0:0:0:
254,192,333709,1,0,0:0:0:0:
254,192,333784,1,8,0:0:0:0:
254,192,333859,1,0,0:0:0:0:
254,192,333934,1,8,0:0:0:0:
254,192,334009,1,8,0:0:0:0:
254,192,334084,1,0,0:0:0:0:
254,192,334159,1,0,0:0:0:0:
254,192,334234,1,0,0:0:0:0:
254,192,334309,1,0,0:0:0:0:
254,192,334384,1,8,0:0:0:0:
254,192,334459,1,0,0:0:0:0:
254,192,334534,1,0,0:0:0:0:
254,192,334609,1,0,0:0:0:0:
254,192,334684,1,8,0:0:0:0:
254,192,334759,1,8,0:0:0:0:
254,192,334834,1,0,0:0:0:0:
254,192,334909,1,0,0:0:0:0:
254,192,334984,1,8,0:0:0:0:
254,192,335059,1,8,0:0:0:0:
254,192,335134,1,8,0:0:0:0:
254,192,335209,1,8,0:0:0:0:
254,192,335284,1,0,0:0:0:0:
254,192,335359,1,8,0:0:0:0:
254,192,335434,1,0,0:0:0:0:
254,192,335509,1,0,0:0:0:0:
254,192,335584,1,8,0:0:0:0:
254,192,335659,1,8,0:0:0:0:
254,192,335734,1,0,0:0:0:0:
254,192,335809,1,0,0:0:0:0:
254,192,335884,1,8,0:0:0:0:
254,192,335959,1,0,0:0:0:0:
254,192,336034,1,0,0:0:0:0:
254,192,336109,1,0,0:0:0:0:
254,192,336184,1,8,0:0:0:0:
254,192,336259,1,0,0:0:0:0:
254,192,336334,1,8,0:0:0:0:
254,192,336409,1,8,0:0:0:0:
254,192,336484,1,0,0:0:0:0:
254,192,336559,1,0,0:0:0:0:
254,192,336634,1,0,0:0:0:0:
254,192,336709,1,0,0:0:0:0:
254,192,336784,1,8,0:0:0:0:
254,192,336859,1,0,0:0:0:0:
254,192,336934,1,0,0:0:0:0:
254,192,337009,1,0,0:0:0:0:
254,192,337084,1,8,0:0:0:0:
254,192,337159,1,8,0:0:0:0:
254,192,337234,1,0,0:0:0:0:
254,192,337309,1,0,0:0:0:0:
254,192,337384,1,8,0:0:0:0:
254,192,337459,1,0,0:0:0:0:
254,192,337534,1,0,0:0:0:0:
254,192,337609,1,0,0:0:0:0:
254,192,337684,1,8,0:0:0:0:
254,192,337759,1,0,0:0:0:0:
254,192,337834,1,0,0:0:0:0:
254,192,337909,1,8,0:0:0:0:
254,192,337984,1,0,0:0:0:0:
254,192,338059,1,0,0:0:0:0:
254,192,338134,1,8,0:0:0:0:
254,192,338209,1,8,0:0:0:0:
254,192,338284,1,8,0:0:0:0:
254,192,338359,1,8,0:0:0:0:
254,192,338434,1,0,0:0:0:0:
254,192,338509,1,0,0:0:0:0:
254,192,338584,1,8,0:0:0:0:
254,192,338734,1,8,0:0:0:0:
256,192,338884,1,4,0:0:0:0:
256,192,339109,1,0,0:0:0:0:
256,192,339184,1,8,0:0:0:0:
256,192,339334,1,0,0:0:0:0:
256,192,339484,1,8,0:0:0:0:
256,192,339559,1,8,0:0:0:0:
256,192,339634,1,0,0:0:0:0:
256,192,339709,1,0,0:0:0:0:
256,192,339784,1,8,0:0:0:0:
256,192,339934,1,8,0:0:0:0:
256,192,340084,1,0,0:0:0:0:
256,192,340234,1,0,0:0:0:0:
256,192,340309,1,0,0:0:0:0:
256,192,340384,1,8,0:0:0:0:
256,192,340534,1,8,0:0:0:0:
256,192,340684,1,0,0:0:0:0:
256,192,340759,1,8,0:0:0:0:
256,192,340834,1,0,0:0:0:0:
256,192,340984,1,8,0:0:0:0:
256,192,341134,1,8,0:0:0:0:
256,192,341284,1,0,0:0:0:0:
256,192,341509,1,0,0:0:0:0:
256,192,341584,1,8,0:0:0:0:
256,192,341734,1,0,0:0:0:0:
256,192,341884,1,8,0:0:0:0:
256,192,341959,1,8,0:0:0:0:
256,192,342034,1,0,0:0:0:0:
256,192,342184,1,8,0:0:0:0:
256,192,342259,1,0,0:0:0:0:
256,192,342334,1,0,0:0:0:0:
256,192,342484,1,12,0:0:0:0:
256,192,342784,1,8,0:0:0:0:
256,192,342934,1,0,0:0:0:0:
256,192,343084,1,8,0:0:0:0:
256,192,343159,1,8,0:0:0:0:
256,192,343234,1,8,0:0:0:0:
256,192,343384,1,8,0:0:0:0:
256,192,343534,1,8,0:0:0:0:
256,192,343684,1,4,0:0:0:0:
256,192,343909,1,0,0:0:0:0:
256,192,343984,1,8,0:0:0:0:
256,192,344134,1,8,0:0:0:0:
256,192,344284,1,0,0:0:0:0:
256,192,344359,1,0,0:0:0:0:
256,192,344434,1,8,0:0:0:0:
256,192,344509,1,0,0:0:0:0:
256,192,344584,1,8,0:0:0:0:
256,192,344734,1,8,0:0:0:0:
256,192,344884,1,0,0:0:0:0:
256,192,345034,1,0,0:0:0:0:
256,192,345109,1,0,0:0:0:0:
256,192,345184,1,8,0:0:0:0:
256,192,345334,1,8,0:0:0:0:
256,192,345484,1,0,0:0:0:0:
256,192,345559,1,8,0:0:0:0:
256,192,345634,1,0,0:0:0:0:
256,192,345709,1,0,0:0:0:0:
256,192,345784,1,8,0:0:0:0:
256,192,345934,1,8,0:0:0:0:
256,192,346084,1,0,0:0:0:0:
256,192,346234,1,0,0:0:0:0:
256,192,346534,1,0,0:0:0:0:
256,192,346684,1,8,0:0:0:0:
256,192,346759,1,8,0:0:0:0:
256,192,346834,1,0,0:0:0:0:
256,192,346984,1,8,0:0:0:0:
256,192,347134,1,8,0:0:0:0:
256,192,347284,1,4,0:0:0:0:
256,192,347584,1,12,0:0:0:0:
256,192,347884,1,8,0:0:0:0:
256,192,348034,1,8,0:0:0:0:
256,192,348184,1,0,0:0:0:0:
256,192,348259,1,0,0:0:0:0:
256,192,348334,1,0,0:0:0:0:
256,192,348484,1,12,0:0:0:0:
256,192,348934,1,0,0:0:0:0:
256,192,349084,1,8,0:0:0:0:
256,192,349534,1,8,0:0:0:0:
256,192,349684,1,0,0:0:0:0:
256,192,349984,1,8,0:0:0:0:
256,192,350134,1,8,0:0:0:0:
256,192,350284,1,0,0:0:0:0:
256,192,350584,1,8,0:0:0:0:
256,192,350884,1,0,0:0:0:0:
256,192,351109,1,0,0:0:0:0:
256,192,351334,1,0,0:0:0:0:
256,192,351484,1,8,0:0:0:0:
256,192,351934,1,8,0:0:0:0:
256,192,352084,1,0,0:0:0:0:
256,192,352384,1,8,0:0:0:0:
256,192,352684,1,0,0:0:0:0:
256,192,352984,1,8,0:0:0:0:
256,192,353134,1,8,0:0:0:0:
256,192,353284,1,4,0:0:0:0:
256,192,353734,1,0,0:0:0:0:
256,192,353884,1,8,0:0:0:0:
256,192,354334,1,8,0:0:0:0:
256,192,354484,1,0,0:0:0:0:
256,192,354784,1,8,0:0:0:0:
256,192,354934,1,8,0:0:0:0:
256,192,355084,1,0,0:0:0:0:
256,192,355384,1,8,0:0:0:0:
256,192,355684,1,0,0:0:0:0:
256,192,355909,1,0,0:0:0:0:
256,192,356134,1,0,0:0:0:0:
256,192,356284,1,8,0:0:0:0:
256,192,356734,1,8,0:0:0:0:
256,192,356884,1,0,0:0:0:0:
256,192,357184,1,8,0:0:0:0:
256,192,357484,1,0,0:0:0:0:
256,192,357784,1,8,0:0:0:0:
256,192,357934,1,8,0:0:0:0:
256,192,358084,1,4,0:0:0:0:
256,192,358684,1,8,0:0:0:0:
256,192,359284,1,0,0:0:0:0:
256,192,359584,1,0,0:0:0:0:
256,192,359884,1,8,0:0:0:0:
256,192,360484,1,0,0:0:0:0:
256,192,361084,1,8,0:0:0:0:
256,192,361684,1,0,0:0:0:0:
256,192,361984,1,8,0:0:0:0:
256,192,362284,1,0,0:0:0:0:
256,192,362584,1,8,0:0:0:0:
256,192,362734,1,8,0:0:0:0:
256,192,362884,8,0,367084,0:0:0:0:
