osu file format v14

[General]
AudioFilename: audio.mp3
AudioLeadIn: 0
PreviewTime: 53502
Countdown: 0
SampleSet: Normal
StackLeniency: 0.7
Mode: 0
LetterboxInBreaks: 0
WidescreenStoryboard: 0

[Editor]
Bookmarks: 1424,2775,5433,8106,10188,16110,18109,29738,35131,53502,53545,53973,54008,64436,64457,76447,78951,94119,99682
DistanceSpacing: 2.2
BeatDivisor: 2
GridSize: 32
TimelineZoom: 1

[Metadata]
Title:GROOVY (OP ver.)
TitleUnicode:GROOVY (OP ver.)
Artist:Lyn
ArtistUnicode:Lyn
Creator:Otaku One
Version:Normal
Source:ペルソナ5 ダンシング・スターナイト
Tags:persona 5 dancing star night game atlus joker traffic dance groove baby
BeatmapID:1898191
BeatmapSetID:909635

[Difficulty]
HPDrainRate:4
CircleSize:3.5
OverallDifficulty:4
ApproachRate:5
SliderMultiplier:0.7
SliderTickRate:1

[Events]
//Background and Video events
0,0,"persona5.png",0,0
Video,0,"Untitled.avi"
//Break Periods
//Storyboard Layer 0 (Background)
//Storyboard Layer 1 (Fail)
//Storyboard Layer 2 (Pass)
//Storyboard Layer 3 (Foreground)
//Storyboard Sound Samples

[TimingPoints]
1448,337.078651685393,4,1,1,75,1,0
2799,-100,4,2,0,75,0,0
8130,-100,4,1,1,75,0,0
10212,-100,4,1,1,75,0,0
10880,-100,4,1,1,75,0,0
29762,-133.333333333333,4,1,0,80,0,0
35155,-100,4,1,1,75,0,0
53526,-100,4,1,1,85,0,0
54032,-100,4,1,1,85,0,1
64460,-100,4,1,1,75,0,0
94143,-100,4,1,1,85,0,0

[Colours]
Combo1 : 88,72,236
Combo2 : 210,130,197
Combo3 : 234,0,6

[HitObjects]
68,38,2796,6,0,B|145:313|252:-11|374:65|460:69|433:163,1,490,8|8,0:0|0:0,0:0:0:0:
434,248,5492,2,0,B|457:327|371:331|249:407|142:83|66:352,1,490,8|8,0:0|0:0,0:0:0:0:
31,243,8189,5,0,0:0:0:0:
104,158,8526,1,0,0:0:0:0:
104,158,8695,2,0,L|74:91,1,70
144,60,9200,1,8,0:0:0:0:
181,127,9369,2,0,P|206:148|252:157,1,70
390,82,10043,6,0,P|393:125|382:154,1,70
432,210,10549,2,0,L|381:233,1,35
325,204,10886,2,0,P|283:219|232:221,1,70
197,151,11391,6,0,P|234:136|269:89,1,70,2|0,0:0|0:0,0:0:0:0:
332,111,11897,1,8,0:0:0:0:
408,112,12065,2,0,P|405:78|363:41,1,70
271,42,12740,6,0,L|202:69,1,70
240,136,13245,2,0,L|292:151,1,35
252,219,13582,2,0,L|245:268,1,35
299,310,13919,1,0,0:0:0:0:
299,310,14088,2,0,P|320:282|327:234,1,70
341,172,14594,5,0,0:0:0:0:
341,172,14762,1,0,0:0:0:0:
348,95,14931,2,0,L|316:52,1,35
257,97,15268,2,0,P|199:99|171:114,1,70
94,164,15942,1,0,0:0:0:0:
148,266,16279,6,0,B|183:242|237:229|312:279|415:277|431:142,1,350
354,59,18301,5,0,0:0:0:0:
301,158,18639,1,0,0:0:0:0:
238,64,18976,2,0,L|189:109,1,35
100,98,19481,2,0,P|93:132|102:165,1,70,8|0,0:0|0:0,0:0:0:0:
167,207,19987,1,8,0:0:0:0:
273,171,20324,2,0,L|237:238,1,70
314,250,20830,6,0,P|346:271|363:305,1,70
289,326,21335,1,0,0:0:0:0:
196,290,21672,2,0,L|159:255,1,35
64,228,22178,2,0,P|83:194|129:162,1,70
174,138,22683,1,0,0:0:0:0:
235,232,23021,2,0,P|270:218|298:185,1,70
357,154,23526,6,0,P|388:139|415:117,1,70,8|0,0:0|0:0,0:0:0:0:
354,69,24032,2,0,L|299:81,1,35,8|0,0:0|0:0,0:0:0:0:
254,118,24369,2,0,L|220:126,1,35
118,87,24874,2,0,P|140:63|180:52,1,70
250,34,25380,1,0,0:0:0:0:
322,59,25549,2,0,P|364:67|399:83,1,70
343,139,26054,5,0,0:0:0:0:
301,203,26223,2,0,P|258:201|221:209,1,70
256,278,26728,2,0,L|205:313,1,35
159,259,27065,6,0,P|51:180|206:100,1,350
457,262,29762,6,0,B|486:246|462:196|445:134|476:114,1,157.500006008148
394,90,31110,2,0,B|362:110|379:172|403:222|374:237,1,157.500006008148
292,214,32459,2,0,B|321:198|297:148|280:86|314:64,1,157.500006008148
229,45,33807,2,0,B|195:67|212:129|236:179|191:210,1,157.500006008148
286,116,35155,6,0,L|352:93,1,70
359,169,35661,2,0,L|264:206,1,70
221,221,36167,1,8,0:0:0:0:
134,149,36504,6,0,L|70:177,1,70
57,101,37009,2,0,L|124:73,1,70
194,48,37515,1,8,0:0:0:0:
279,120,37852,6,0,L|287:50,1,70
359,77,38358,2,0,L|350:146,1,70
334,221,38863,1,8,0:0:0:0:
222,221,39200,6,0,L|215:293,1,70
145,257,39706,2,0,L|153:179,1,70
160,110,40212,1,0,0:0:0:0:
263,67,40549,5,4,0:0:0:0:
337,150,40886,1,0,0:0:0:0:
287,250,41223,1,0,0:0:0:0:
125,203,41728,2,0,L|58:256,2,70
127,102,43077,5,0,0:0:0:0:
127,102,43245,1,0,0:0:0:0:
41,150,43582,2,0,P|75:177|114:188,1,70
193,156,44256,1,0,0:0:0:0:
193,156,44425,1,0,0:0:0:0:
232,66,44762,2,0,P|276:100|288:134,1,70
312,255,45605,1,4,0:0:0:0:
172,281,45942,6,0,P|146:237|144:195,1,70
240,212,46616,2,0,P|236:165|219:134,1,70
129,131,47290,2,0,P|159:88|194:66,1,70
268,56,47964,2,0,P|278:107|260:138,1,70
293,218,48639,1,4,0:0:0:0:
234,296,48976,1,0,0:0:0:0:
139,269,49313,1,0,0:0:0:0:
64,205,49650,2,0,P|99:147|123:123,1,70
256,192,50492,12,0,53021,0:0:0:0:
360,226,54032,5,2,0:0:0:0:
296,151,54369,1,2,0:0:0:0:
221,214,54706,2,2,P|189:246|157:118,1,280
244,81,56391,2,8,L|308:49,1,70,8|0,0:0|0:0,0:0:0:0:
308,148,57065,2,8,L|385:165,1,70,8|0,0:0|0:0,0:0:0:0:
380,261,57740,2,8,L|444:229,1,70,8|0,0:0|0:0,0:0:0:0:
432,132,58414,2,8,L|368:68,1,70,8|0,0:0|0:0,0:0:0:0:
285,67,59088,5,8,0:0:0:0:
285,67,59425,1,0,0:0:0:0:
201,118,59762,2,8,P|194:161|199:204,1,70,8|0,0:0|0:0,0:0:0:0:
288,166,60436,2,8,P|290:197|283:239,1,70,8|0,0:0|0:0,0:0:0:0:
189,259,61110,2,8,P|182:302|187:345,1,70,8|0,0:0|0:0,0:0:0:0:
281,321,61785,2,8,P|313:337|362:334,1,70,8|0,0:0|0:0,0:0:0:0:
327,242,62459,2,8,P|312:195|275:160,1,70,8|0,0:0|0:0,0:0:0:0:
224,242,63133,2,8,P|185:258|146:263,1,70,8|0,0:0|0:0,0:0:0:0:
70,217,63807,5,8,0:0:0:0:
73,119,64144,1,0,0:0:0:0:
175,85,64481,5,8,0:0:0:0:
171,182,64818,1,4,0:0:0:0:
261,150,65155,6,8,P|296:136|355:131,1,70,8|0,0:0|0:0,0:0:0:0:
341,227,65830,2,8,P|383:217|421:186,1,70,8|0,0:0|0:0,0:0:0:0:
453,117,66504,2,8,P|420:91|385:67,1,70,8|0,0:0|0:0,0:0:0:0:
324,140,67178,2,8,P|283:152|230:144,1,70,8|0,0:0|0:0,0:0:0:0:
159,126,67852,2,8,P|139:170|140:212,1,70
139,287,68526,2,8,P|173:288|223:275,1,70,8|0,0:0|0:0,0:0:0:0:
260,197,69200,1,8,0:0:0:0:
307,276,69537,1,0,0:0:0:0:
372,198,69874,6,8,P|403:151|396:113,1,70,8|0,0:0|0:0,0:0:0:0:
386,42,70549,1,8,0:0:0:0:
311,90,70886,1,2,0:0:0:0:
219,53,71223,2,8,P|195:84|177:129,1,70,8|0,0:0|0:0,0:0:0:0:
222,201,71897,1,8,0:0:0:0:
312,163,72234,1,2,0:0:0:0:
404,171,72571,2,0,P|394:232|374:262,1,70,8|0,0:0|0:0,0:0:0:0:
317,304,73245,5,8,0:0:0:0:
219,304,73582,1,2,0:0:0:0:
155,237,73919,2,0,P|143:192|157:151,1,70,8|0,0:0|0:0,0:0:0:0:
241,198,74594,2,0,P|274:207|323:191,2,70,8|0|0,0:0|0:0|0:0,0:0:0:0:
143,199,75605,1,4,0:0:0:0:
85,121,75942,6,0,P|128:109|174:113,1,70,8|0,0:0|0:0,0:0:0:0:
143,199,76616,2,0,P|183:223|211:228,1,70,8|0,0:0|0:0,0:0:0:0:
227,140,77290,2,0,P|268:122|299:120,1,70,8|0,0:0|0:0,0:0:0:0:
354,199,77964,2,0,P|395:217|432:204,1,70,8|0,0:0|0:0,0:0:0:0:
391,117,78639,2,0,P|347:74|331:69,1,70,8|0,0:0|0:0,0:0:0:0:
242,71,79313,5,8,0:0:0:0:
169,136,79650,1,2,0:0:0:0:
264,158,79987,2,0,P|306:155|343:164,1,70,8|0,0:0|0:0,0:0:0:0:
295,250,80661,2,0,P|247:265|207:267,1,70,8|0,0:0|0:0,0:0:0:0:
136,230,81335,2,0,P|131:264|137:315,1,70,8|0,0:0|0:0,0:0:0:0:
227,267,82009,2,0,P|232:231|226:192,1,70,8|0,0:0|0:0,0:0:0:0:
318,228,82683,2,0,P|326:169|322:131,1,70,8|0,0:0|0:0,0:0:0:0:
423,160,83358,2,0,B|427:116|417:78,1,70,8|0,0:0|0:0,0:0:0:0:
327,122,84032,6,0,P|297:140|265:169,1,70,8|0,0:0|0:0,0:0:0:0:
175,183,84706,2,0,P|175:141|153:106,1,70,8|0,0:0|0:0,0:0:0:0:
87,179,85380,2,0,P|33:207|9:206,1,70,8|0,0:0|0:0,0:0:0:0:
53,113,86054,1,8,0:0:0:0:
143,74,86391,1,4,0:0:0:0:
138,171,86728,6,0,P|169:211|209:241,1,70,8|0,0:0|0:0,0:0:0:0:
243,145,87403,2,0,P|284:135|322:146,1,70,8|0,0:0|0:0,0:0:0:0:
297,237,88077,2,0,P|327:276|352:280,1,70,8|0,0:0|0:0,0:0:0:0:
403,201,88751,2,0,P|420:162|421:118,1,70,8|0,0:0|0:0,0:0:0:0:
326,152,89425,2,0,P|289:132|271:93,1,70,8|0,0:0|0:0,0:0:0:0:
343,39,90099,6,0,L|405:105,1,70,8|0,0:0|0:0,0:0:0:0:
426,181,90773,2,0,L|339:220,1,70,8|0,0:0|0:0,0:0:0:0:
282,152,91447,1,8,0:0:0:0:
193,193,91785,2,0,P|122:185|90:264,1,140
167,291,92796,2,0,P|201:296|236:292,1,70,8|0,0:0|0:0,0:0:0:0:
277,202,93470,2,0,L|276:128,1,70,8|0,0:0|0:0,0:0:0:0:
290,35,94144,1,8,0:0:0:0:
381,72,94481,6,2,L|343:168,1,70,0|8,0:0|0:0,0:0:0:0:
425,169,94987,2,2,P|383:213|362:216,1,70,0|0,0:0|0:0,0:0:0:0:
297,200,95492,2,2,P|254:158|221:151,1,70,8|0,0:0|0:0,0:0:0:0:
222,230,95998,2,2,L|160:296,1,70,0|0,0:0|0:0,0:0:0:0:
117,336,96504,2,2,P|91:280|106:246,1,70,0|12,0:0|0:0,0:0:0:0:
63,176,97178,6,0,B|88:107|88:107|137:166|137:166|181:107|181:107|268:149|268:149|306:120|306:120|346:125|346:125|368:185|368:185,1,466.666666666667
