osu file format v14

[General]
AudioFilename: audio.mp3
AudioLeadIn: 0
PreviewTime: 53502
Countdown: 0
SampleSet: Normal
StackLeniency: 0.7
Mode: 0
LetterboxInBreaks: 0
WidescreenStoryboard: 1

[Editor]
Bookmarks: 1424,2775,4204,5047,5433,5830,7009,7852,8106,8671,9008,10549,12210,29738,31845,35131,50492,53502,53545,53973,54008,64436,64457,78951,94119
DistanceSpacing: 1.8
BeatDivisor: 4
GridSize: 32
TimelineZoom: 1

[Metadata]
Title:GROOVY (OP ver.)
TitleUnicode:GROOVY (OP ver.)
Artist:Lyn
ArtistUnicode:Lyn
Creator:Otaku One
Version:Hard
Source:ペルソナ5 ダンシング・スターナイト
Tags:persona 5 dancing star night game atlus joker traffic dance groove baby
BeatmapID:1903535
BeatmapSetID:909635

[Difficulty]
HPDrainRate:6
CircleSize:4
OverallDifficulty:6
ApproachRate:6
SliderMultiplier:1
SliderTickRate:1

[Events]
//Background and Video events
0,0,"persona5.png",0,0
Video,3,"Untitled.avi"
//Break Periods
//Storyboard Layer 0 (Background)
//Storyboard Layer 1 (Fail)
//Storyboard Layer 2 (Pass)
//Storyboard Layer 3 (Foreground)
//Storyboard Layer 4 (Overlay)
//Storyboard Sound Samples

[TimingPoints]
1448,337.078651685393,4,1,1,75,1,0
2799,-133.333333333333,4,1,1,75,0,0
4253,-200,4,1,1,75,0,0
5060,-100,4,1,1,75,0,0
5830,-133.333333333333,4,1,1,75,0,0
7013,-200,4,1,1,75,0,0
7864,-100,4,1,1,75,0,0
13257,-100,4,1,1,75,0,0
29762,-133.333333333333,4,1,1,75,0,0
35155,-100,4,1,1,75,0,0
50492,-133.333333333333,4,1,1,75,0,0
51223,-100,4,1,1,75,0,0
53526,-100,4,1,1,85,0,0
54032,-100,4,1,1,85,0,1
54660,-133.333333333333,4,1,1,85,0,1
56039,-100,4,1,1,85,0,1
64460,-100,4,1,1,75,0,0
94143,-66.6666666666667,4,1,1,75,0,0

[Colours]
Combo1 : 88,72,236
Combo2 : 210,130,197
Combo3 : 234,0,6

[HitObjects]
237,98,1448,6,8,L|285:69,5,50
330,120,2459,2,0,L|394:135,1,50,4|0,0:0|0:0,0:0:0:0:
468,135,2796,5,0,0:0:0:0:
468,135,2964,1,0,0:0:0:0:
372,230,3301,6,0,B|341:239|341:239|333:260|333:260|311:271,1,75.0000028610231,8|0,0:0|0:0,0:0:0:0:
262,200,3807,1,0,0:0:0:0:
204,252,3976,1,0,0:0:0:0:
150,324,4313,2,2,P|107:283|120:218,1,125,0|0,0:0|0:0,0:0:0:0:
209,68,5492,5,0,0:0:0:0:
209,68,5661,1,0,0:0:0:0:
322,141,5998,6,0,P|310:187|287:215,1,75.0000028610231,8|0,0:0|0:0,0:0:0:0:
237,271,6504,1,0,0:0:0:0:
181,211,6672,1,0,0:0:0:0:
97,317,7010,2,2,B|149:314|172:363|246:344,1,150.000005722046,0|8,0:0|0:0,0:0:0:0:
292,224,8189,6,0,P|340:257|388:256,1,100,4|0,0:0|0:0,0:0:0:0:
363,169,8695,2,0,L|399:73,1,100,8|0,0:0|0:0,0:0:0:0:
309,87,9200,1,8,0:0:0:0:
235,136,9369,1,8,0:0:0:0:
272,206,9706,2,8,P|256:243|258:273,1,50,4|0,0:0|0:0,0:0:0:0:
376,281,10127,6,0,P|398:242|411:199,1,75,8|0,0:0|0:0,0:0:0:0:
477,155,10549,2,0,L|420:131,1,50
345,105,10886,1,0,0:0:0:0:
345,105,11054,1,0,0:0:0:0:
192,113,11391,2,0,P|127:108|87:140,1,100,8|0,0:0|0:0,0:0:0:0:
80,213,11897,1,0,0:0:0:0:
142,290,12065,1,0,0:0:0:0:
238,233,12403,2,4,B|305:252,1,50,4|0,0:0|0:0,0:0:0:0:
369,228,12740,6,0,B|410:127,1,100
253,49,13245,1,0,0:0:0:0:
380,55,13582,2,0,B|424:51|454:78|479:78,1,100,4|8,0:0|0:0,0:0:0:0:
407,136,14088,2,0,P|411:168|358:217,1,100
311,285,14594,1,0,0:0:0:0:
274,203,14762,1,0,0:0:0:0:
187,287,15099,2,0,L|225:238,1,50
140,199,15436,2,0,L|201:104,1,100,2|0,0:0|0:0,0:0:0:0:
274,73,15942,5,8,0:0:0:0:
419,140,16279,2,0,B|446:177|446:177|451:236,1,100
376,199,16785,2,0,P|320:206|267:172,1,100
235,252,17290,2,0,B|199:198|199:198|199:160,1,100
136,98,17796,2,0,P|172:94|202:96,1,50
272,117,18133,1,0,0:0:0:0:
313,37,18301,6,0,L|368:80,1,50
434,105,18639,1,0,0:0:0:0:
412,180,18976,2,0,B|386:205|386:205|361:209|329:255,1,100,4|0,0:0|0:0,0:0:0:0:
255,206,19481,2,0,P|247:252|277:303,1,100
355,330,19987,1,0,0:0:0:0:
265,340,20155,2,0,L|208:361,1,50
133,324,20492,2,0,P|94:333|71:325,1,50
91,240,20830,6,0,P|85:198|93:172,2,50
192,219,21335,1,0,0:0:0:0:
364,237,21672,5,0,0:0:0:0:
302,288,21841,2,0,P|269:269|254:250,1,50
192,219,22178,2,0,B|239:223|284:159,1,100
327,110,22683,1,8,0:0:0:0:
290,45,22852,2,0,P|241:30|192:30,1,100
104,47,23358,5,8,0:0:0:0:
38,107,23526,2,0,P|78:132|150:132,1,100
216,113,24032,2,0,P|214:152|202:181,1,50
298,182,24369,1,0,0:0:0:0:
298,182,24537,1,0,0:0:0:0:
233,229,24706,1,0,0:0:0:0:
233,229,24874,2,0,P|268:249|335:248,1,100
410,275,25380,1,8,0:0:0:0:
392,194,25717,5,4,0:0:0:0:
248,179,25886,2,0,P|225:228|188:238,1,75
119,218,26307,2,0,P|131:184|158:153,1,75
228,100,26728,1,0,0:0:0:0:
445,136,27065,6,2,B|421:181|421:181|355:212,1,100,0|0,0:0|0:0,0:0:0:0:
320,130,27571,2,2,B|275:102|275:102|212:87,1,100,0|0,0:0|0:0,0:0:0:0:
184,169,28077,2,2,B|170:222|170:222|130:258,1,100,0|0,0:0|0:0,0:0:0:0:
82,180,28582,2,0,B|85:133|85:133|126:95,1,100
184,30,29088,1,0,0:0:0:0:
287,71,29256,6,2,B|245:105|245:105|199:107,1,100
143,68,29762,2,0,P|118:96|115:132,1,75.0000028610231
146,192,30268,2,0,P|185:176|230:180,1,75.0000028610231
283,166,30773,1,8,0:0:0:0:
310,104,30942,2,0,L|358:90,1,37.5000014305115
407,133,31279,2,0,P|420:171|414:214,1,75.0000028610231
346,178,31785,1,0,0:0:0:0:
347,327,32122,5,8,0:0:0:0:
290,278,32290,1,0,0:0:0:0:
239,334,32459,2,0,P|208:331|164:299,1,75.0000028610231
226,257,32964,2,0,P|233:221|209:180,1,75.0000028610231
157,232,33470,1,8,0:0:0:0:
156,156,33639,1,0,0:0:0:0:
213,108,33807,2,0,P|242:117|284:155,1,75.0000028610231
211,182,34313,2,0,L|152:237,1,75.0000028610231
100,283,34818,1,4,0:0:0:0:
40,68,35155,6,4,P|65:42|133:30,1,100
111,100,35661,2,0,P|132:117|206:129,1,100
251,53,36167,1,8,0:0:0:0:
321,108,36335,1,0,0:0:0:0:
392,52,36504,6,0,P|405:81|392:162,1,100
321,108,37009,2,0,P|301:145|315:213,1,100
390,237,37515,1,8,0:0:0:0:
316,288,37683,1,0,0:0:0:0:
247,347,37852,6,0,P|231:304|238:243,1,100
316,288,38358,2,0,P|316:243|286:182,1,100
216,149,38863,1,8,0:0:0:0:
292,100,39032,1,0,0:0:0:0:
252,19,39200,6,0,P|227:44|197:101,1,100
292,100,39706,1,0,0:0:0:0:
292,100,39874,2,8,L|328:131,8,25
402,33,40886,5,0,0:0:0:0:
242,33,41223,1,0,0:0:0:0:
319,172,41560,1,0,0:0:0:0:
319,172,41728,1,0,0:0:0:0:
241,193,41897,5,0,0:0:0:0:
361,87,42234,1,0,0:0:0:0:
281,78,42403,2,0,B|235:72|228:106|189:112,1,100
184,192,42908,1,0,0:0:0:0:
82,244,43077,5,0,0:0:0:0:
82,244,43245,2,0,P|107:224|118:188,1,50
56,176,43582,2,0,P|61:131|76:108,1,50
138,100,43919,1,0,0:0:0:0:
294,132,44256,5,0,0:0:0:0:
358,84,44425,1,0,0:0:0:0:
450,177,44762,2,0,P|468:204|476:236,1,50
393,223,45099,2,0,B|372:263|415:317,1,100
147,289,45942,5,0,0:0:0:0:
265,194,46279,1,0,0:0:0:0:
116,133,46616,1,0,0:0:0:0:
250,46,46953,5,0,0:0:0:0:
250,46,47122,1,0,0:0:0:0:
309,98,47290,1,0,0:0:0:0:
239,138,47459,2,0,P|259:163|295:171,1,50
309,98,47796,2,0,P|345:127|350:191,1,100
307,243,48301,1,0,0:0:0:0:
460,289,48639,5,0,0:0:0:0:
460,289,48807,1,0,0:0:0:0:
401,234,48976,1,0,0:0:0:0:
273,330,49313,2,0,P|253:300|254:268,1,50
331,282,49650,2,0,P|319:243|303:224,1,50
235,217,49987,1,0,0:0:0:0:
160,245,50155,2,0,P|154:197|160:184,1,50
235,217,50492,2,0,P|234:156|150:122,1,150
367,169,51335,6,0,B|335:201|335:201|271:233,1,100
245,283,51841,2,0,B|213:251|213:251|213:187,1,100
280,215,52346,2,0,B|280:169|280:169|238:123,1,100
174,114,52852,2,0,L|134:58,1,50
284,58,53358,2,0,L|331:105,1,50
370,141,53695,5,0,0:0:0:0:
425,183,53863,1,0,0:0:0:0:
359,207,54032,2,0,P|339:231|311:241,1,50
298,172,54369,2,0,P|261:160|229:162,1,50
248,229,54706,2,0,P|168:135|271:93,1,262.500010013581
398,62,56223,5,0,0:0:0:0:
451,106,56391,1,0,0:0:0:0:
386,133,56560,2,0,P|358:142|335:168,1,50
396,201,56897,1,0,0:0:0:0:
331,226,57065,2,0,P|303:260|265:275,1,75
239,272,57403,1,0,0:0:0:0:
189,222,57571,2,0,P|98:140|154:260,1,350
126,198,58919,6,0,L|210:284,1,100
150,322,59425,2,0,P|189:339|232:325,1,75
252,317,59762,1,0,0:0:0:0:
391,306,60099,2,0,P|435:286|446:242,1,75
432,223,60436,1,0,0:0:0:0:
328,128,60773,5,0,0:0:0:0:
206,197,61110,1,0,0:0:0:0:
209,57,61447,1,0,0:0:0:0:
277,179,61785,2,0,L|316:233,1,50
268,278,62122,2,0,P|360:268|360:166,1,200
424,134,62964,2,0,P|403:114|375:107,1,50
315,125,63301,2,0,P|228:124|309:48,1,250
294,233,64313,6,0,P|274:217|245:208,1,50
132,203,64818,6,2,P|144:157|179:130,1,75,0|0,0:0|0:0,0:0:0:0:
194,123,65155,1,8,0:0:0:0:
313,49,65492,1,0,0:0:0:0:
442,102,65830,1,8,0:0:0:0:
447,241,66167,1,0,0:0:0:0:
318,296,66504,1,8,0:0:0:0:
182,259,66841,6,0,P|182:291|214:355,2,100,0|8|0,0:0|0:0|0:0,0:0:0:0:
346,142,67852,1,8,0:0:0:0:
224,72,68189,1,0,0:0:0:0:
272,203,68526,6,0,L|210:205,1,50,8|0,0:0|0:0,0:0:0:0:
162,166,68863,1,0,0:0:0:0:
44,242,69200,1,8,0:0:0:0:
182,260,69537,2,0,P|214:292|252:295,1,75
272,269,69874,2,0,L|322:241,1,50,8|0,0:0|0:0,0:0:0:0:
259,186,70212,5,0,0:0:0:0:
379,80,70549,2,0,L|411:144,1,50,8|0,0:0|0:0,0:0:0:0:
431,198,70886,1,0,0:0:0:0:
315,306,71223,2,0,L|283:242,1,50,8|0,0:0|0:0,0:0:0:0:
224,279,71560,2,0,P|224:247|241:202,1,75
276,193,71897,2,0,L|328:156,1,50,8|0,0:0|0:0,0:0:0:0:
385,122,72234,1,0,0:0:0:0:
458,264,72571,1,8,0:0:0:0:
308,321,72908,6,0,L|223:351,1,75
197,349,73245,1,8,0:0:0:0:
272,208,73582,2,0,L|184:175,1,75
163,170,73919,1,8,0:0:0:0:
69,299,74256,2,0,L|156:289,1,75
183,285,74594,1,8,0:0:0:0:
272,149,74931,1,0,0:0:0:0:
272,149,75099,2,2,P|303:106|368:85,1,100,0|0,0:0|0:0,0:0:0:0:
361,154,75605,2,2,P|408:138|457:90,1,100,0|0,0:0|0:0,0:0:0:0:
322,39,76279,5,0,0:0:0:0:
322,39,76447,2,0,L|290:103,1,50
164,120,76953,1,0,0:0:0:0:
164,120,77122,2,0,L|132:184,1,50
223,278,77627,1,8,0:0:0:0:
381,259,77964,2,0,B|412:217|412:217|368:190|368:190|429:150|365:117|365:117|328:107|323:138|323:138|276:166,1,300
156,67,79313,5,8,0:0:0:0:
98,197,79650,2,0,P|130:229|194:229,2,100,0|8|0,0:0|0:0|0:0,0:0:0:0:
187,89,80661,1,8,0:0:0:0:
280,193,80998,2,0,P|248:225|184:225,2,100,0|8|0,0:0|0:0|0:0,0:0:0:0:
220,66,82009,6,0,L|221:174,1,100,8|0,0:0|0:0,0:0:0:0:
130,272,82683,1,8,0:0:0:0:
252,340,83021,1,0,0:0:0:0:
234,201,83358,2,0,B|299:117,1,100,8|0,0:0|0:0,0:0:0:0:
427,76,84032,5,8,0:0:0:0:
295,121,84369,1,0,0:0:0:0:
410,199,84706,2,0,L|448:302,1,100,8|0,0:0|0:0,0:0:0:0:
305,274,85380,2,0,P|259:257|243:211,1,100
173,204,85886,6,2,L|201:100,1,100,0|0,0:0|0:0,0:0:0:0:
262,136,86391,2,2,L|330:54,1,100,0|0,0:0|0:0,0:0:0:0:
390,182,87065,1,0,0:0:0:0:
341,233,87234,2,2,L|277:201,1,50,0|8,0:0|0:0,0:0:0:0:
196,111,87740,2,2,L|132:143,1,50,0|8,0:0|0:0,0:0:0:0:
84,155,88077,1,0,0:0:0:0:
212,210,88414,1,0,0:0:0:0:
78,253,88751,6,0,B|78:285|78:285|142:253|142:253|142:317|142:317|206:285|206:285|268:349|268:349,1,300
211,173,90099,1,8,0:0:0:0:
353,244,90436,5,0,0:0:0:0:
296,61,90773,1,8,0:0:0:0:
405,172,91110,2,0,P|437:140|447:96,1,75
432,79,91447,1,8,0:0:0:0:
299,126,91785,2,0,P|298:80|264:49,1,75
246,49,92122,1,8,0:0:0:0:
166,164,92459,6,0,L|126:217,1,50,2|0,0:0|0:0,0:0:0:0:
69,226,92796,2,2,P|99:267|165:272,1,100,0|0,0:0|0:0,0:0:0:0:
266,207,93470,1,8,0:0:0:0:
214,76,93807,2,2,L|150:108,1,50,0|0,0:0|0:0,0:0:0:0:
73,141,94144,1,8,0:0:0:0:
64,224,94481,6,0,L|264:312,1,187.500007152558
270,326,94987,2,0,P|320:349|424:325,1,150.000005722046
339,268,95492,2,0,L|141:186,1,187.500007152558
83,143,96082,2,0,P|119:115|194:113,1,112.500004291535
265,54,96504,2,0,B|304:61|304:61|300:104|300:104|337:106|337:106|326:146|326:146|345:148|345:148|332:194,1,225.000008583069
419,250,97178,5,0,0:0:0:0:
419,250,97346,1,0,0:0:0:0:
419,250,97515,2,0,L|352:306,1,75.0000028610231
336,195,97852,2,0,P|300:216|245:207,1,75.0000028610231
177,161,98189,1,0,0:0:0:0:
177,161,98358,2,0,P|223:165|252:154,1,75.0000028610231
177,275,98751,2,0,L|104:203,1,100.000003814697
115,64,99200,2,0,L|78:105,1,50.0000019073487
140,139,99425,2,0,L|187:80,1,50.0000019073487
