osu file format v14

[General]
AudioFilename: audio.mp3
AudioLeadIn: 0
PreviewTime: 22089
Countdown: 1
SampleSet: None
StackLeniency: 0.7
Mode: 0
LetterboxInBreaks: 0
WidescreenStoryboard: 0

[Editor]
DistanceSpacing: 1
BeatDivisor: 4
GridSize: 16
TimelineZoom: 1

[Metadata]
Title:Despacito (Car Cover)
TitleUnicode:Despacito (Car Cover)
Artist:Lyft
ArtistUnicode:Lyft
Creator:Mikojel
Version:Low Speed
Source:
Tags:luis fonsi daddy yenkee dy
BeatmapID:1997148
BeatmapSetID:915899

[Difficulty]
HPDrainRate:5.5
CircleSize:4.5
OverallDifficulty:9
ApproachRate:9.2
SliderMultiplier:2.4
SliderTickRate:1

[Events]
//Background and Video events
0,0,"wallpaper-1b5ed2.jpg",0,0
//Break Periods
//Storyboard Layer 0 (Background)
//Storyboard Layer 1 (Fail)
//Storyboard Layer 2 (Pass)
//Storyboard Layer 3 (Foreground)
//Storyboard Sound Samples

[TimingPoints]
22089,674.157303370787,4,1,1,60,1,0
22089,-133.333333333333,4,1,1,40,0,0
23437,-50,4,1,1,60,0,1
32875,-57.1428571428571,4,1,1,60,0,1
34223,-50,4,1,1,60,0,1
43666,-57.1428571428571,4,1,1,60,0,1
44336,-66.6666666666667,4,1,1,60,0,1
45010,-66.6666666666667,4,1,1,60,0,0
53268,-79.9999999999999,4,1,1,60,0,0
55796,-66.6666666666667,4,1,1,60,0,0
64055,-79.9999999999999,4,1,1,60,0,0
65235,-133.333333333333,4,1,1,60,0,0
65403,-133.333333333333,4,1,1,40,0,0

[HitObjects]
79,241,22089,6,0,P|131:200|197:198,1,135.000005149842,0|0,0:0|0:0,0:0:0:0:
156,325,22763,2,0,P|137:278|187:319,1,135.000005149842,0|0,0:0|0:0,0:0:0:0:
366,176,23437,6,0,L|252:232,1,120,2|0,0:0|0:0,0:0:0:0:
370,257,23774,2,0,L|256:313,1,120,0|8,0:0|0:0,0:0:0:0:
462,325,24111,5,0,0:0:0:0:
290,94,24280,1,0,0:0:0:0:
349,332,24448,5,8,0:0:0:0:
420,67,24617,1,0,0:0:0:0:
258,229,24785,5,2,0:0:0:0:
234,3,24954,1,0,0:0:0:0:
390,170,25122,1,0,0:0:0:0:
49,181,25291,1,8,0:0:0:0:
219,69,25459,6,0,B|215:119|215:119|222:109|222:109|216:169,1,120,0|0,0:0|0:0,0:0:0:0:
193,359,25796,1,8,0:0:0:0:
117,129,25965,2,0,P|116:188|147:238,1,120,0|2,0:0|0:0,0:0:0:0:
296,357,26302,2,0,P|277:300|230:264,1,120,0|0,0:0|0:0,0:0:0:0:
88,384,26639,1,8,0:0:0:0:
176,97,26808,5,0,0:0:0:0:
190,350,26976,1,0,0:0:0:0:
287,79,27145,5,8,0:0:0:0:
460,302,27313,1,0,0:0:0:0:
407,19,27482,5,2,0:0:0:0:
280,267,27650,1,0,0:0:0:0:
502,182,27819,1,0,0:0:0:0:
256,7,27987,1,8,0:0:0:0:
372,338,28156,6,0,B|404:294|366:260|402:208,1,120,0|0,0:0|0:0,0:0:0:0:
511,91,28493,1,8,0:0:0:0:
331,156,28662,2,0,P|244:154|200:123,1,120,0|2,0:0|0:0,0:0:0:0:
0,36,28999,2,0,P|87:38|131:69,1,120,0|0,0:0|0:0,0:0:0:0:
0,194,29336,1,8,0:0:0:0:
189,32,29504,5,0,0:0:0:0:
264,315,29673,1,0,0:0:0:0:
312,33,29841,5,8,0:0:0:0:
185,266,30010,1,0,0:0:0:0:
67,10,30178,5,2,0:0:0:0:
127,321,30347,1,0,0:0:0:0:
242,29,30515,1,0,0:0:0:0:
4,258,30684,1,8,0:0:0:0:
360,210,30853,5,0,0:0:0:0:
56,133,31021,1,0,0:0:0:0:
488,44,31358,1,0,0:0:0:0:
131,289,31695,6,0,B|40:466|-188:263|-71:142|144:27|157:221|183:358|348:391|446:230,1,720,0|0,0:0|0:0,0:0:0:0:
350,150,32875,6,0,P|289:243|314:135,1,315.000003004074,2|0,0:0|0:0,0:0:0:0:
439,198,33549,2,0,P|347:313|208:264,1,315.000003004074,0|0,0:0|0:0,0:0:0:0:
70,115,34223,6,0,L|193:144,1,120,2|0,0:0|0:0,0:0:0:0:
243,81,34560,2,0,L|126:52,1,120,0|8,0:0|0:0,0:0:0:0:
62,286,34897,5,0,0:0:0:0:
33,34,35066,1,0,0:0:0:0:
173,327,35235,5,8,0:0:0:0:
243,81,35403,1,0,0:0:0:0:
275,346,35572,5,2,0:0:0:0:
93,192,35740,1,0,0:0:0:0:
322,44,35909,1,0,0:0:0:0:
233,270,36077,1,8,0:0:0:0:
160,9,36246,6,0,B|149:67|149:67|147:55|147:55|131:128,1,120,0|0,0:0|0:0,0:0:0:0:
90,293,36583,1,8,0:0:0:0:
240,92,36751,2,0,P|271:141|265:200,1,120,0|2,0:0|0:0,0:0:0:0:
83,134,37089,2,0,P|118:87|176:73,1,120,0|0,0:0|0:0,0:0:0:0:
211,240,37426,1,8,0:0:0:0:
20,89,37594,5,0,0:0:0:0:
84,363,37763,1,0,0:0:0:0:
173,110,37931,5,8,0:0:0:0:
165,384,38100,1,0,0:0:0:0:
1,254,38268,5,2,0:0:0:0:
322,224,38437,1,0,0:0:0:0:
81,301,38605,1,0,0:0:0:0:
292,89,38774,1,8,0:0:0:0:
263,334,38942,6,0,B|204:345|190:308|181:291|152:292,1,120,0|0,0:0|0:0,0:0:0:0:
17,355,39280,1,8,0:0:0:0:
196,130,39448,2,0,P|255:150|288:213,1,120,0|2,0:0|0:0,0:0:0:0:
382,376,39785,2,0,P|327:345|307:276,1,120,0|0,0:0|0:0,0:0:0:0:
376,171,40122,1,8,0:0:0:0:
459,383,40291,5,0,0:0:0:0:
498,105,40459,1,0,0:0:0:0:
381,302,40628,5,8,0:0:0:0:
318,44,40796,1,0,0:0:0:0:
489,272,40965,5,2,0:0:0:0:
176,136,41133,1,0,0:0:0:0:
460,41,41302,1,0,0:0:0:0:
205,311,41471,1,8,0:0:0:0:
241,32,41639,5,0,0:0:0:0:
331,369,41808,1,0,0:0:0:0:
42,13,42145,1,0,0:0:0:0:
425,144,42482,6,0,B|441:-61|246:-27|62:90|332:152|308:317|63:344|20:260,1,600,0|0,0:0|0:0,0:0:0:0:
136,134,43662,6,0,P|149:212|70:143,1,240,2|0,0:0|0:0,0:0:0:0:
229,170,44167,1,0,0:0:0:0:
188,81,44336,2,0,P|213:9|265:64,1,180.000006866455,0|0,0:0|0:0,0:0:0:0:
70,85,44841,1,0,0:0:0:0:
296,154,45010,6,0,P|300:210|278:260,1,90.0000034332277,2|0,0:0|0:0,0:0:0:0:
214,362,45347,2,0,P|210:306|232:256,1,90.0000034332277,0|8,0:0|0:0,0:0:0:0:
363,379,45684,1,0,0:0:0:0:
336,199,45853,1,0,0:0:0:0:
409,331,46021,1,8,0:0:0:0:
422,154,46190,1,0,0:0:0:0:
509,286,46358,6,0,P|475:258|431:254,1,90.0000034332277,2|0,0:0|0:0,0:0:0:0:
275,284,46695,2,0,P|316:298|359:287,1,90.0000034332277,0|8,0:0|0:0,0:0:0:0:
183,196,47032,1,0,0:0:0:0:
356,143,47201,1,0,0:0:0:0:
150,82,47369,1,8,0:0:0:0:
315,91,47538,1,0,0:0:0:0:
191,9,47706,6,0,P|207:50|244:74,1,90.0000034332277,2|0,0:0|0:0,0:0:0:0:
440,9,48044,1,0,0:0:0:0:
395,188,48212,1,8,0:0:0:0:
344,32,48381,2,0,P|372:66|382:109,1,90.0000034332277,0|0,0:0|0:0,0:0:0:0:
326,285,48718,1,8,0:0:0:0:
309,130,48886,1,0,0:0:0:0:
414,330,49055,2,0,P|431:288|428:244,1,90.0000034332277,2|0,0:0|0:0,0:0:0:0:
188,169,49392,5,0,0:0:0:0:
274,335,49560,1,8,0:0:0:0:
55,116,49897,5,0,0:0:0:0:
17,288,50066,1,8,0:0:0:0:
104,174,50235,1,0,0:0:0:0:
219,379,50572,6,0,B|276:323|265:235|162:232|180:122,1,270.000010299683,0|0,0:0|0:0,0:0:0:0:
178,136,51414,1,8,0:0:0:0:
2,1,51751,5,2,0:0:0:0:
31,175,51920,1,0,0:0:0:0:
103,38,52089,1,0,0:0:0:0:
93,244,52257,1,8,0:0:0:0:
37,55,52594,5,0,0:0:0:0:
237,86,52763,1,8,0:0:0:0:
66,115,52931,1,0,0:0:0:0:
400,42,53268,6,0,P|334:110|422:125,1,225,0|0,0:0|0:0,0:0:0:0:
464,70,54111,1,0,0:0:0:0:
429,206,54448,2,0,B|473:214|473:214|510:317,1,150,2|0,0:0|0:0,0:0:0:0:
437,367,54954,5,0,0:0:0:0:
340,347,55122,1,0,0:0:0:0:
340,347,55459,5,0,0:0:0:0:
263,266,55628,1,0,0:0:0:0:
151,288,55796,2,0,P|107:283|72:256,1,90.0000034332277,2|0,0:0|0:0,0:0:0:0:
2,118,56133,2,0,P|38:143|55:184,1,90.0000034332277,0|8,0:0|0:0,0:0:0:0:
88,362,56471,1,0,0:0:0:0:
121,195,56639,1,0,0:0:0:0:
195,384,56808,1,8,0:0:0:0:
164,200,56976,1,0,0:0:0:0:
300,303,57145,6,0,P|268:272|224:271,1,90.0000034332277,2|0,0:0|0:0,0:0:0:0:
81,270,57482,2,0,P|112:300|156:301,1,90.0000034332277,0|8,0:0|0:0,0:0:0:0:
263,180,57819,1,0,0:0:0:0:
76,154,57987,1,0,0:0:0:0:
294,81,58156,1,8,0:0:0:0:
127,102,58324,1,0,0:0:0:0:
224,3,58493,6,0,P|233:46|222:89,1,90.0000034332277,2|0,0:0|0:0,0:0:0:0:
130,203,58830,1,0,0:0:0:0:
35,45,58999,1,8,0:0:0:0:
40,235,59167,2,0,P|62:196|75:153,1,90.0000034332277,0|0,0:0|0:0,0:0:0:0:
120,36,59504,1,8,0:0:0:0:
203,222,59673,1,0,0:0:0:0:
217,82,59841,2,0,P|251:55|295:51,1,90.0000034332277,2|0,0:0|0:0,0:0:0:0:
426,250,60178,5,0,0:0:0:0:
383,94,60347,1,8,0:0:0:0:
277,375,60684,5,0,0:0:0:0:
320,219,60853,1,8,0:0:0:0:
347,333,61021,1,0,0:0:0:0:
239,172,61358,6,0,B|173:126|120:161|155:241|103:314|32:200|123:174,1,270.000010299683,0|0,0:0|0:0,0:0:0:0:
239,172,62201,1,8,0:0:0:0:
313,8,62538,5,0,0:0:0:0:
358,177,62706,1,0,0:0:0:0:
402,0,62875,1,0,0:0:0:0:
289,137,63044,1,8,0:0:0:0:
482,89,63381,5,0,0:0:0:0:
467,261,63549,1,8,0:0:0:0:
415,121,63718,1,0,0:0:0:0:
406,299,64055,6,0,P|373:375|329:288,1,225,0|0,0:0|0:0,0:0:0:0:
370,229,64897,1,8,0:0:0:0:
310,174,65235,6,0,B|264:192|264:192|238:222|238:222|189:248,1,135.000005149841,2|0,0:0|0:0,0:0:0:0:
141,310,65909,2,0,P|111:254|134:182,1,135.000005149841,0|0,0:0|0:0,0:0:0:0:
204,139,66583,1,0,0:0:0:0:
128,188,66920,1,0,0:0:0:0:
