osu file format v14

[General]
AudioFilename: audio.mp3
AudioLeadIn: 0
PreviewTime: 22089
Countdown: 1
SampleSet: Normal
StackLeniency: 0.7
Mode: 0
LetterboxInBreaks: 0
WidescreenStoryboard: 1

[Editor]
DistanceSpacing: 1
BeatDivisor: 4
GridSize: 16
TimelineZoom: 1

[Metadata]
Title:Despacito (Car Cover)
TitleUnicode:Despacito (Car Cover)
Artist:Lyft
ArtistUnicode:Lyft
Creator:Mikojel
Version:Hard
Source:
Tags:luis fonsi daddy yenkee dy
BeatmapID:1938890
BeatmapSetID:915899

[Difficulty]
HPDrainRate:5.5
CircleSize:3.8
OverallDifficulty:7
ApproachRate:8.3
SliderMultiplier:1.2
SliderTickRate:1

[Events]
//Background and Video events
0,0,"wallpaper-1b5ed2.jpg",0,0
//Break Periods
//Storyboard Layer 0 (Background)
//Storyboard Layer 1 (Fail)
//Storyboard Layer 2 (Pass)
//Storyboard Layer 3 (Foreground)
//Storyboard Sound Samples

[TimingPoints]
22089,674.157303370787,4,1,1,60,1,0
22089,-133.333333333333,4,1,1,60,0,0
23437,-50,4,1,1,60,0,1
32875,-80,4,1,1,60,0,0
34223,-50,4,1,1,60,0,1
43662,-80,4,1,1,60,0,1
44336,-86.9565217391304,4,1,1,60,0,1
45010,-90.9090909090909,4,1,1,60,0,0
45684,-62.5,4,1,1,60,0,0
46358,-90.9090909090909,4,1,1,60,0,0
47032,-62.5,4,1,1,60,0,0
53268,-79.9999999999999,4,1,1,60,0,0
54954,-90.9090909090909,4,1,1,60,0,0
56471,-62.5,4,1,1,60,0,0
57145,-90.9090909090909,4,1,1,60,0,0
57819,-62.5,4,1,1,60,0,0
64055,-79.9999999999999,4,1,1,60,0,0
65235,-133.333333333333,4,1,1,60,0,0
65403,-133.333333333333,4,1,1,40,0,0

[HitObjects]
474,251,22089,6,0,L|404:230,1,67.5000025749207,0|0,0:0|0:0,0:0:0:0:
307,281,22763,2,0,L|371:300,1,67.5000025749207,0|0,0:0|0:0,0:0:0:0:
214,217,23437,2,0,L|217:295,1,60,2|0,0:0|0:0,0:0:0:0:
111,266,23774,2,0,L|114:344,1,60,0|8,0:0|0:0,0:0:0:0:
29,202,24111,6,0,P|51:182|79:171,1,60,0|0,0:0|0:0,0:0:0:0:
247,126,24448,2,0,P|217:125|188:135,1,60,8|0,0:0|0:0,0:0:0:0:
100,36,24785,5,2,0:0:0:0:
260,40,24954,2,0,L|172:38,2,60,0|0|8,0:0|0:0|0:0,0:0:0:0:
316,173,25459,2,0,P|328:145|329:115,1,60,0|0,0:0|0:0,0:0:0:0:
394,8,25796,1,8,0:0:0:0:
397,180,25965,2,0,P|390:209|394:238,1,60,0|2,0:0|0:0,0:0:0:0:
501,328,26302,2,0,L|446:281,1,60,0|0,0:0|0:0,0:0:0:0:
331,363,26639,5,8,0:0:0:0:
331,362,26808,2,0,P|303:374|273:375,1,60,0|0,0:0|0:0,0:0:0:0:
91,312,27145,2,0,P|113:332|140:343,1,60,8|0,0:0|0:0,0:0:0:0:
238,233,27482,1,2,0:0:0:0:
60,223,27650,2,0,L|131:227,2,60,0|0|8,0:0|0:0|0:0,0:0:0:0:
0,139,28156,6,0,L|71:139,1,60,0|0,0:0|0:0,0:0:0:0:
177,140,28493,1,8,0:0:0:0:
118,48,28662,2,0,P|146:59|176:63,1,60,0|2,0:0|0:0,0:0:0:0:
314,7,28999,2,0,L|244:36,1,60,0|0,0:0|0:0,0:0:0:0:
433,33,29336,5,8,0:0:0:0:
433,33,29504,2,0,P|443:61|445:90,1,60,0|0,0:0|0:0,0:0:0:0:
402,242,29841,2,0,P|419:217|429:189,1,60,8|0,0:0|0:0,0:0:0:0:
343,99,30178,2,0,L|280:105,1,60,2|0,0:0|0:0,0:0:0:0:
123,197,30515,1,0,0:0:0:0:
236,190,30683,1,8,0:0:0:0:
350,184,30852,1,0,0:0:0:0:
217,266,31021,6,0,P|246:267|275:258,1,60,0|0,0:0|0:0,0:0:0:0:
382,325,31358,2,0,P|353:315|323:316,1,60,0|2,0:0|0:0,0:0:0:0:
211,341,31695,2,0,B|112:327|128:267|27:266|-8:305|-8:305|38:312|77:265,1,300,0|0,0:0|0:0,0:0:0:0:
80,182,32875,6,0,L|68:70,1,112.5,2|0,0:0|0:0,0:0:0:0:
141,0,33549,2,0,L|152:111,1,112.5,0|0,0:0|0:0,0:0:0:0:
295,44,34223,2,0,L|235:49,1,60,2|0,0:0|0:0,0:0:0:0:
367,119,34560,2,0,L|307:124,1,60,0|8,0:0|0:0,0:0:0:0:
452,160,34897,6,0,P|435:184|411:201,1,60,0|0,0:0|0:0,0:0:0:0:
231,253,35235,2,0,P|260:251|287:238,1,60,8|0,0:0|0:0,0:0:0:0:
439,333,35572,5,2,0:0:0:0:
284,327,35740,2,0,L|353:330,2,60,0|0|8,0:0|0:0|0:0,0:0:0:0:
232,193,36246,2,0,P|226:222|230:252,1,60,0|0,0:0|0:0,0:0:0:0:
128,365,36583,1,8,0:0:0:0:
151,224,36751,2,0,P|151:194|142:165,1,60,0|2,0:0|0:0,0:0:0:0:
4,96,37089,2,0,L|69:128,1,60,0|0,0:0|0:0,0:0:0:0:
164,6,37426,5,8,0:0:0:0:
164,6,37594,2,0,P|180:30|188:59,1,60,0|0,0:0|0:0,0:0:0:0:
253,220,37931,2,0,P|247:190|232:164,1,60,8|0,0:0|0:0,0:0:0:0:
74,192,38268,5,2,0:0:0:0:
38,330,38437,2,0,L|55:260,2,60,0|0|8,0:0|0:0|0:0,0:0:0:0:
174,370,38942,2,0,L|169:300,1,60,0|0,0:0|0:0,0:0:0:0:
157,169,39280,1,8,0:0:0:0:
221,257,39448,2,0,P|277:289|291:290,1,60,0|2,0:0|0:0,0:0:0:0:
434,250,39785,2,0,L|369:266,1,60,0|0,0:0|0:0,0:0:0:0:
267,166,40122,5,8,0:0:0:0:
267,166,40291,2,0,P|320:131|324:131,1,60,0|0,0:0|0:0,0:0:0:0:
466,28,40628,2,0,P|438:39|418:61,1,60,8|0,0:0|0:0,0:0:0:0:
331,209,40965,2,0,L|399:207,1,60,2|0,0:0|0:0,0:0:0:0:
512,123,41302,1,0,0:0:0:0:
398,126,41471,1,8,0:0:0:0:
284,129,41639,1,0,0:0:0:0:
342,29,41808,6,0,P|296:58|279:60,1,60,0|0,0:0|0:0,0:0:0:0:
120,69,42145,2,0,P|166:40|183:38,1,60,0|2,0:0|0:0,0:0:0:0:
173,184,42482,2,0,P|148:271|108:140,1,360,0|0,0:0|0:0,0:0:0:0:
268,233,43662,6,0,L|264:338,1,75,2|0,0:0|0:0,0:0:0:0:
343,198,44167,1,0,0:0:0:0:
343,198,44336,2,0,L|339:298,1,69.0000013160706,0|2,0:0|0:0,0:0:0:0:
436,225,44841,5,0,0:0:0:0:
436,225,45010,2,0,L|432:320,1,66.0000020141602,2|0,0:0|0:0,0:0:0:0:
499,73,45684,2,0,L|497:159,1,48,0|0,0:0|0:0,0:0:0:0:
422,22,46021,2,0,L|420:108,1,48,8|0,0:0|0:0,0:0:0:0:
297,139,46358,6,0,L|298:64,1,66.0000020141602,2|0,0:0|0:0,0:0:0:0:
102,32,47032,2,0,L|188:34,1,48,0|0,0:0|0:0,0:0:0:0:
51,109,47369,2,0,L|137:111,1,48,8|0,0:0|0:0,0:0:0:0:
207,200,47706,5,2,0:0:0:0:
50,306,48044,2,0,L|52:220,2,48,0|8|0,0:0|0:0|0:0,0:0:0:0:
130,178,48718,2,0,L|128:225,2,48,8|0|2,0:0|0:0|0:0,0:0:0:0:
253,344,49392,6,0,P|195:341|181:332,1,48,0|8,0:0|0:0,0:0:0:0:
298,275,49897,2,0,P|355:267|370:274,2,48,0|8|0,0:0|0:0|0:0,0:0:0:0:
426,373,50572,2,0,B|452:305|392:285|439:196,1,144,0|0,0:0|0:0,0:0:0:0:
436,203,51414,1,8,0:0:0:0:
447,174,51751,6,0,P|449:116|440:99,1,48,2|0,0:0|0:0,0:0:0:0:
380,3,52089,2,0,P|388:60|399:75,1,48,0|8,0:0|0:0,0:0:0:0:
290,102,52594,2,0,P|241:118|225:116,1,48,0|8,0:0|0:0,0:0:0:0:
193,105,52931,1,0,0:0:0:0:
37,112,53268,6,0,P|90:108|96:42,1,112.5,0|0,0:0|0:0,0:0:0:0:
31,30,54111,1,0,0:0:0:0:
28,197,54448,1,2,0:0:0:0:
210,270,54954,5,0,0:0:0:0:
210,270,55122,2,0,L|124:264,1,66.0000020141602,0|8,0:0|0:0,0:0:0:0:
244,349,55628,5,0,0:0:0:0:
244,349,55796,2,0,L|158:343,1,66.0000020141602,2|0,0:0|0:0,0:0:0:0:
353,256,56471,2,0,L|267:250,1,48,0|0,0:0|0:0,0:0:0:0:
418,341,56808,2,0,L|332:335,1,48,8|0,0:0|0:0,0:0:0:0:
424,220,57145,6,0,L|489:224,1,66.0000020141602,2|0,0:0|0:0,0:0:0:0:
246,185,57819,2,0,L|252:99,1,48,0|0,0:0|0:0,0:0:0:0:
152,188,58156,2,0,L|158:102,1,48,8|0,0:0|0:0,0:0:0:0:
62,13,58493,5,2,0:0:0:0:
257,48,58830,2,0,L|209:44,2,48,0|8|0,0:0|0:0|0:0,0:0:0:0:
351,113,59504,2,0,L|303:109,2,48,8|0|2,0:0|0:0|0:0,0:0:0:0:
179,176,60178,6,0,P|172:199|172:222,1,48,0|8,0:0|0:0,0:0:0:0:
224,353,60684,2,0,P|226:329|221:305,2,48,0|8|0,0:0|0:0|0:0,0:0:0:0:
0,301,61358,2,0,B|64:334|86:278|165:317,1,144,0|0,0:0|0:0,0:0:0:0:
39,221,62201,1,8,0:0:0:0:
117,213,62538,6,0,P|106:178|88:157,1,48,0|0,0:0|0:0,0:0:0:0:
36,100,62875,2,0,P|34:63|44:37,1,48,0|8,0:0|0:0,0:0:0:0:
183,1,63381,2,8,P|199:17|211:39,1,48,0|8,0:0|0:0,0:0:0:0:
218,94,63718,1,0,0:0:0:0:
381,12,64055,6,0,P|355:58|303:50,1,112.5,0|0,0:0|0:0,0:0:0:0:
438,81,64897,1,8,0:0:0:0:
369,240,65235,6,0,B|373:206|373:206|364:178|364:178|369:142,2,90.0000034332277,2|0|0,0:0|0:0|0:0,0:0:0:0:
366,259,66920,1,0,0:0:0:0:
