osu file format v14

[General]
AudioFilename: audio.mp3
AudioLeadIn: 0
PreviewTime: 38140
Countdown: 1
SampleSet: None
StackLeniency: 0.7
Mode: 0
LetterboxInBreaks: 0
WidescreenStoryboard: 0

[Editor]
Bookmarks: 20864,23264,37664,46780,68860,84700,100060,130060,138940,144460,164380,193660
DistanceSpacing: 1.5
BeatDivisor: 4
GridSize: 4
TimelineZoom: 1

[Metadata]
Title:Rapapara
TitleUnicode:Rapapara
Artist:Lydka Grubasa
ArtistUnicode:Lydka Grubasa
Creator:Rdzeniu
Version:Morda jak kopara
Source:
Tags:rapapara lydka grubasa
BeatmapID:1920749
BeatmapSetID:919711

[Difficulty]
HPDrainRate:6
CircleSize:4
OverallDifficulty:6
ApproachRate:8.5
SliderMultiplier:1.5
SliderTickRate:1

[Events]
//Background and Video events
0,0,"maxresdefault.jpg",0,0
//Break Periods
2,84900,99385
2,146340,159865
2,184260,192985
//Storyboard Layer 0 (Background)
//Storyboard Layer 1 (Fail)
//Storyboard Layer 2 (Pass)
//Storyboard Layer 3 (Foreground)
//Storyboard Sound Samples

[TimingPoints]
220.397881020488,480,4,1,0,100,1,0
23264,-83.3333333333333,4,1,0,100,0,0
29020,-50,4,1,0,100,0,0
30220,-83.3333333333333,4,1,0,100,0,0
38140,-66.6666666666667,4,1,0,60,0,0
53020,-50,4,1,0,60,0,0
53980,-83.3333333333333,4,1,0,60,0,0
68860,-66.6666666666667,4,1,0,60,0,0
83740,-50,4,1,0,60,0,0
84700,-100,4,1,0,60,0,0
100060,-83.3333333333333,4,1,0,60,0,0
119980,-66.6666666666667,4,1,0,60,0,0
121180,-83.3333333333333,4,1,0,60,0,0
130060,-66.6666666666667,4,1,0,60,0,0
145180,-50,4,1,0,60,0,0
146140,-100,4,1,0,60,0,0
160540,-66.6666666666667,4,1,0,60,0,0
193660,-83.3333333333333,4,1,0,60,0,0
207100,-55.5555555555556,4,1,0,60,0,0
209500,-50,4,1,0,60,0,1
238300,-50,4,1,0,60,0,0

[HitObjects]
328,308,220,6,8,P|368:248|376:220,1,75
143,245,700,2,8,P|159:278|183:307,1,75
188,80,1180,2,8,P|148:140|140:168,1,75
372,142,1660,2,8,P|355:108|331:79,1,75
104,312,2140,6,8,L|188:296,1,75
408,312,2620,2,8,L|324:296,1,75
104,196,3100,2,8,L|188:180,1,75
408,196,3580,2,8,L|324:180,1,75
112,72,4060,5,8,0:0:0:0:
76,212,4300,1,0,0:0:0:0:
112,72,4540,1,8,0:0:0:0:
148,212,4780,1,0,0:0:0:0:
180,72,5020,1,8,0:0:0:0:
148,212,5260,1,0,0:0:0:0:
276,212,5500,2,8,L|244:116,1,75
400,312,5980,5,8,0:0:0:0:
436,172,6220,1,0,0:0:0:0:
400,312,6460,1,8,0:0:0:0:
364,172,6700,1,0,0:0:0:0:
332,312,6940,1,8,0:0:0:0:
364,172,7180,1,0,0:0:0:0:
236,172,7420,2,8,L|268:268,1,75
32,300,7900,6,8,P|76:276|88:228,1,75
92,112,8380,1,8,0:0:0:0:
152,204,8620,1,0,0:0:0:0:
200,108,8860,2,8,P|256:88|288:104,1,75
152,204,9340,1,8,0:0:0:0:
224,352,9580,2,0,P|240:300|228:272,1,75
152,204,10060,1,0,0:0:0:0:
136,92,10300,2,8,P|184:84|216:88,1,75
360,84,10780,2,8,L|368:184,1,75
180,192,11260,1,8,0:0:0:0:
180,192,11500,1,0,0:0:0:0:
180,192,11740,6,8,P|132:200|92:216,1,75
160,356,12220,1,0,0:0:0:0:
296,312,12460,2,0,P|296:260|276:216,1,75
116,128,12940,2,0,P|160:104|188:100,1,75
348,108,13420,1,0,0:0:0:0:
432,240,13660,2,0,P|392:288|368:288,1,75
228,292,14140,2,8,P|264:248|364:224,1,150
312,80,14860,1,0,0:0:0:0:
140,136,15100,1,8,0:0:0:0:
228,292,15340,1,0,0:0:0:0:
480,84,15580,6,8,P|436:108|424:156,1,75
424,312,16060,1,8,0:0:0:0:
360,148,16300,1,0,0:0:0:0:
296,275,16540,2,8,P|240:295|208:279,1,75
360,148,17020,1,8,0:0:0:0:
224,28,17260,2,0,P|208:80|220:108,1,75
360,148,17740,1,0,0:0:0:0:
376,292,17980,2,8,P|328:300|296:296,1,75
72,236,18460,2,0,P|108:243|145:241,1,75
332,192,18940,1,8,0:0:0:0:
332,192,19180,1,0,0:0:0:0:
332,192,19420,6,8,P|380:184|420:168,2,75
112,176,20140,1,0,0:0:0:0:
112,176,20380,2,8,P|88:100|96:80,1,75
300,232,20860,2,8,P|295:268|274:299,1,75
88,296,21340,2,8,L|8:312,2,75
256,268,22060,1,0,0:0:0:0:
256,268,22300,2,8,L|324:208,1,75
324,44,22780,1,8,0:0:0:0:
176,208,23020,1,0,0:0:0:0:
324,44,23260,6,8,P|248:28|152:40,1,150
180,288,23980,1,0,0:0:0:0:
188,292,24220,2,8,P|264:308|368:296,1,179.999994506836
292,152,24940,1,0,0:0:0:0:
284,152,25180,2,8,L|184:156,1,89.9999972534181
16,156,25660,1,8,0:0:0:0:
16,156,25900,2,0,P|72:96|88:96,1,89.9999972534181
88,316,26380,1,0,0:0:0:0:
336,216,26620,1,8,0:0:0:0:
432,320,26860,1,0,0:0:0:0:
184,216,27100,1,8,0:0:0:0:
432,320,27340,6,0,P|452:244|436:200,1,89.9999972534181
440,60,27820,1,0,0:0:0:0:
440,60,28060,2,8,P|344:48|324:60,1,89.9999972534181
96,120,28540,2,8,P|143:130|164:68,1,89.9999972534181
60,232,29020,2,8,B|100:216|100:216|100:348,1,150
192,232,29500,2,8,B|264:224|204:376|172:304|184:204,1,150
296,324,29980,1,8,0:0:0:0:
444,188,30220,2,0,B|384:188|384:188|384:244|384:244|432:244|452:280|452:300|432:320|404:320|372:320,1,269.999991760254
192,176,31180,6,8,P|232:136|268:132,1,89.9999972534181
264,132,31660,1,0,0:0:0:0:
136,52,31900,2,8,L|44:108,1,89.9999972534181
32,248,32380,2,8,L|124:192,1,89.9999972534181
244,280,32860,1,8,0:0:0:0:
244,280,33100,2,8,P|300:216|288:180,1,89.9999972534181
216,32,33580,1,0,0:0:0:0:
216,32,33820,2,8,P|160:96|172:132,1,89.9999972534181
144,304,34300,1,0,0:0:0:0:
288,168,34540,1,0,0:0:0:0:
376,348,34780,6,8,L|276:332,1,89.9999972534181
48,236,35260,1,8,0:0:0:0:
48,236,35500,2,8,L|160:200,1,89.9999972534181
288,112,35980,1,0,0:0:0:0:
288,112,36220,2,8,P|308:148|296:144,1,89.9999972534181
116,96,36700,1,8,0:0:0:0:
116,96,36940,2,0,P|64:76|104:136,1,179.999994506836
288,140,37660,2,8,L|288:260,1,89.9999972534181
284,232,38140,5,4,0:0:0:0:
72,192,38380,1,0,0:0:0:0:
64,160,38500,1,0,0:0:0:0:
64,124,38620,2,0,P|112:64|144:56,1,112.500004291535
416,36,39100,2,0,L|356:144,1,112.500004291535
480,104,39580,1,0,0:0:0:0:
463,133,39700,1,0,0:0:0:0:
447,163,39820,1,0,0:0:0:0:
430,192,39940,1,0,0:0:0:0:
416,216,40060,6,0,L|356:324,1,112.500004291535
96,348,40540,2,0,L|156:240,1,112.500004291535
280,32,41020,1,0,0:0:0:0:
280,316,41260,1,0,0:0:0:0:
60,164,41500,2,0,L|160:100,1,112.500004291535
484,104,41980,6,0,L|384:168,1,112.500004291535
200,280,42460,2,0,P|232:352|232:264,1,225.000008583069
100,144,43180,1,0,0:0:0:0:
76,101,43300,1,0,0:0:0:0:
52,60,43420,1,0,0:0:0:0:
200,280,43660,1,0,0:0:0:0:
428,104,43900,6,0,P|328:72|296:72,1,112.500004291535
292,320,44380,2,0,P|324:244|320:180,1,112.500004291535
241,66,44860,2,0,P|206:109|192:164,1,112.500004291535
204,320,45340,1,0,0:0:0:0:
241,66,45580,1,0,0:0:0:0:
292,320,45820,5,0,0:0:0:0:
72,192,46060,1,0,0:0:0:0:
64,224,46180,1,0,0:0:0:0:
64,260,46300,2,0,P|112:320|144:328,1,112.500004291535
416,348,46780,2,0,L|356:240,1,112.500004291535
480,280,47260,1,0,0:0:0:0:
463,251,47380,1,0,0:0:0:0:
447,221,47500,1,0,0:0:0:0:
430,192,47620,1,0,0:0:0:0:
416,168,47740,6,0,L|356:60,1,112.500004291535
96,36,48220,2,0,L|156:144,1,112.500004291535
280,344,48700,1,0,0:0:0:0:
280,44,48940,1,0,0:0:0:0:
96,216,49180,2,0,L|156:324,1,112.500004291535
280,344,49660,6,0,L|220:236,1,112.500004291535
158,118,50140,2,0,P|71:121|140:176,1,225.000008583069
396,72,50860,1,0,0:0:0:0:
422,64,50980,1,0,0:0:0:0:
453,55,51100,1,0,0:0:0:0:
208,112,51340,1,0,0:0:0:0:
36,176,51580,2,0,L|156:128,1,112.500004291535
400,160,52060,2,0,P|464:212|392:188,1,225.000008583069
200,32,52780,1,0,0:0:0:0:
164,332,53020,6,0,P|232:276|208:224,1,150
52,120,53500,1,0,0:0:0:0:
36,153,53620,1,0,0:0:0:0:
43,189,53740,1,0,0:0:0:0:
376,312,53980,5,0,0:0:0:0:
368,316,54220,2,0,P|300:312|268:292,1,89.9999972534181
140,164,54700,1,0,0:0:0:0:
148,160,54940,2,0,P|216:164|248:184,1,89.9999972534181
444,104,55420,2,0,P|376:56|276:48,1,179.999994506836
92,244,56140,1,0,0:0:0:0:
84,240,56380,2,0,P|72:176|88:120,1,89.9999972534181
208,328,56860,2,0,P|220:264|204:208,1,89.9999972534181
180,96,57340,1,0,0:0:0:0:
364,264,57580,1,0,0:0:0:0:
344,32,57820,5,0,0:0:0:0:
344,32,58060,2,0,L|352:136,1,89.9999972534181
188,220,58540,1,0,0:0:0:0:
188,219,58780,2,0,L|181:129,1,89.9999972534181
320,60,59260,2,0,P|356:112|320:136,1,89.9999972534181
60,144,59740,1,0,0:0:0:0:
188,356,59980,1,0,0:0:0:0:
244,120,60220,2,0,L|220:224,1,89.9999972534181
60,144,60700,2,0,L|88:24,1,89.9999972534181
24,252,61180,1,0,0:0:0:0:
204,24,61420,1,0,0:0:0:0:
392,44,61660,5,0,0:0:0:0:
392,44,61900,2,0,L|376:140,1,89.9999972534181
440,324,62380,1,0,0:0:0:0:
440,324,62620,2,0,L|456:228,1,89.9999972534181
292,356,63100,2,0,L|308:260,1,89.9999972534181
344,36,63580,1,0,0:0:0:0:
344,36,63820,2,0,L|328:132,1,89.9999972534181
160,320,64300,1,0,0:0:0:0:
160,320,64540,2,0,L|176:224,1,89.9999972534181
200,32,65020,1,0,0:0:0:0:
32,164,65260,1,0,0:0:0:0:
336,228,65500,6,0,L|248:208,2,89.9999972534181
408,80,66220,1,0,0:0:0:0:
408,80,66460,2,0,L|304:72,1,89.9999972534181
88,124,66940,2,0,L|192:132,1,89.9999972534181
480,148,67420,2,0,L|456:276,1,89.9999972534181
288,360,67900,1,0,0:0:0:0:
288,352,68140,2,0,L|312:224,1,89.9999972534181
336,56,68620,1,0,0:0:0:0:
150,249,68860,5,0,0:0:0:0:
440,192,69100,1,0,0:0:0:0:
448,224,69220,1,0,0:0:0:0:
448,260,69340,2,0,P|400:320|368:328,1,112.500004291535
96,348,69820,2,0,L|156:240,1,112.500004291535
32,280,70300,1,0,0:0:0:0:
49,251,70420,1,0,0:0:0:0:
65,221,70540,1,0,0:0:0:0:
82,192,70660,1,0,0:0:0:0:
96,168,70780,6,0,L|156:60,1,112.500004291535
416,36,71260,2,0,L|356:144,1,112.500004291535
232,352,71740,1,0,0:0:0:0:
232,68,71980,1,0,0:0:0:0:
452,220,72220,2,0,L|352:284,1,112.500004291535
28,280,72700,6,0,L|128:216,1,112.500004291535
312,104,73180,2,0,P|280:32|280:120,1,225.000008583069
412,240,73900,1,0,0:0:0:0:
436,283,74020,1,0,0:0:0:0:
460,324,74140,1,0,0:0:0:0:
312,104,74380,1,0,0:0:0:0:
84,280,74620,6,0,P|184:312|216:312,1,112.500004291535
220,64,75100,2,0,P|188:140|192:204,1,112.500004291535
271,318,75580,2,0,P|306:275|320:220,1,112.500004291535
308,64,76060,1,0,0:0:0:0:
271,318,76300,1,0,0:0:0:0:
64,144,76540,5,0,0:0:0:0:
308,64,76780,1,0,0:0:0:0:
308,64,77020,2,0,P|380:84|392:120,1,112.500004291535
204,320,77500,2,0,P|132:300|120:264,1,112.500004291535
320,96,77980,5,0,0:0:0:0:
355,82,78100,1,0,0:0:0:0:
393,69,78220,1,0,0:0:0:0:
430,56,78340,1,0,0:0:0:0:
467,42,78460,1,0,0:0:0:0:
143,163,78700,1,0,0:0:0:0:
272,356,78940,2,0,P|340:328|352:284,1,112.500004291535
64,103,79420,2,0,P|132:131|144:175,1,112.500004291535
132,352,79900,1,0,0:0:0:0:
256,40,80140,1,0,0:0:0:0:
28,280,80380,6,0,L|132:224,1,112.500004291535
360,128,80860,2,0,P|413:70|332:104,1,225.000008583069
348,284,81580,1,0,0:0:0:0:
350,312,81700,1,0,0:0:0:0:
353,340,81820,1,0,0:0:0:0:
328,88,82060,1,0,0:0:0:0:
64,292,82300,6,0,P|164:324|196:324,1,112.500004291535
212,56,82780,2,0,P|180:132|184:196,1,112.500004291535
288,340,83260,2,0,P|323:297|337:242,1,112.500004291535
136,44,83740,6,0,P|68:100|91:152,1,150
384,260,84220,1,0,0:0:0:0:
400,227,84340,1,0,0:0:0:0:
393,191,84460,1,0,0:0:0:0:
188,348,84700,5,0,0:0:0:0:
52,344,100060,6,0,P|84:304|100:252,1,89.9999972534181
160,128,100540,2,0,P|128:168|112:220,1,89.9999972534181
420,268,101020,6,0,P|436:309|465:343,1,89.9999972534181
402,203,101500,2,0,P|385:161|356:127,1,89.9999972534181
100,68,101980,1,0,0:0:0:0:
100,68,102220,2,0,P|92:136|104:156,1,89.9999972534181
232,328,102700,1,0,0:0:0:0:
232,328,102940,2,0,P|240:260|228:240,1,89.9999972534181
168,64,103420,1,0,0:0:0:0:
384,236,103660,1,0,0:0:0:0:
384,236,103900,6,0,P|408:164|380:132,1,89.9999972534181
132,268,104380,1,0,0:0:0:0:
132,268,104620,2,0,P|108:340|136:372,2,89.9999972534181
348,108,105340,2,0,P|396:88|352:136,1,179.999994506836
136,48,106060,1,0,0:0:0:0:
136,48,106300,2,0,P|96:112|100:144,1,89.9999972534181
104,292,106780,1,0,0:0:0:0:
304,340,107020,1,0,0:0:0:0:
360,140,107260,1,0,0:0:0:0:
304,340,107500,1,0,0:0:0:0:
100,300,107740,5,0,0:0:0:0:
104,292,107980,2,0,L|136:192,1,89.9999972534181
396,52,108460,1,0,0:0:0:0:
392,60,108700,6,0,L|360:160,1,89.9999972534181
236,352,109180,2,0,L|268:244,1,89.9999972534181
164,64,109660,1,0,0:0:0:0:
160,72,109900,6,0,L|128:172,2,89.9999972534181
180,268,110620,2,0,L|212:164,1,89.9999972534181
224,120,111100,1,0,0:0:0:0:
160,332,111340,1,0,0:0:0:0:
372,304,111580,5,0,0:0:0:0:
372,304,111820,2,0,P|400:248|396:180,1,89.9999972534181
140,80,112300,1,0,0:0:0:0:
140,80,112540,2,0,P|112:136|116:204,1,89.9999972534181
104,352,113020,2,0,L|192:256,1,89.9999972534181
360,80,113500,1,0,0:0:0:0:
352,88,113740,2,0,L|264:184,1,89.9999972534181
160,284,114220,1,0,0:0:0:0:
304,352,114460,2,0,L|392:256,1,89.9999972534181
480,160,114940,1,0,0:0:0:0:
304,352,115180,1,0,0:0:0:0:
252,116,115420,5,0,0:0:0:0:
252,116,115660,2,0,L|140:104,1,89.9999972534181
28,200,116140,1,0,0:0:0:0:
28,200,116380,2,0,L|140:212,1,89.9999972534181
440,248,116860,2,0,P|460:200|424:176,1,89.9999972534181
200,56,117340,1,0,0:0:0:0:
200,56,117580,2,0,L|176:184,1,89.9999972534181
312,328,118060,1,0,0:0:0:0:
312,328,118300,2,0,L|336:200,1,89.9999972534181
364,48,118780,1,0,0:0:0:0:
312,328,119020,1,0,0:0:0:0:
24,216,119260,5,0,0:0:0:0:
24,216,119500,2,0,L|124:212,1,89.9999972534181
416,272,119980,6,0,B|452:224|452:224|404:188,1,112.500004291535
304,36,120460,2,0,B|268:84|268:84|316:120,1,112.500004291535
416,272,120940,1,0,0:0:0:0:
128,144,121180,5,0,0:0:0:0:
128,144,121420,2,0,P|136:208|152:216,1,89.9999972534181
352,348,121900,1,0,0:0:0:0:
352,348,122140,2,0,P|344:284|328:276,1,89.9999972534181
116,156,122620,1,0,0:0:0:0:
396,208,122860,1,0,0:0:0:0:
120,272,123100,5,0,0:0:0:0:
120,272,123340,2,0,L|232:240,1,89.9999972534181
392,112,123820,5,0,0:0:0:0:
392,112,124060,2,0,L|280:144,1,89.9999972534181
64,68,124540,2,0,L|176:84,1,89.9999972534181
392,112,125020,1,0,0:0:0:0:
432,312,125260,2,0,L|352:264,1,89.9999972534181
120,272,125740,1,0,0:0:0:0:
80,72,125980,2,0,L|160:120,1,89.9999972534181
320,216,126460,1,0,0:0:0:0:
80,72,126700,1,0,0:0:0:0:
320,216,126940,5,0,0:0:0:0:
320,216,127180,2,0,P|372:176|336:148,1,89.9999972534181
156,268,127660,1,0,0:0:0:0:
156,268,127900,2,0,P|214:298|224:253,2,89.9999972534181
172,60,128620,1,0,0:0:0:0:
172,60,128860,2,0,P|208:32|264:48,1,89.9999972534181
32,120,129340,1,0,0:0:0:0:
32,120,129580,2,0,P|68:148|124:132,1,89.9999972534181
388,92,130060,5,0,0:0:0:0:
417,113,130180,1,0,0:0:0:0:
438,141,130300,1,0,0:0:0:0:
360,344,130540,1,0,0:0:0:0:
112,97,130780,2,0,P|164:76|220:72,1,112.500004291535
476,208,131260,2,0,P|424:229|368:233,1,112.500004291535
64,280,131740,1,0,0:0:0:0:
98,260,131860,1,0,0:0:0:0:
132,240,131980,1,0,0:0:0:0:
166,220,132100,1,0,0:0:0:0:
196,204,132220,2,0,L|296:144,1,112.500004291535
96,36,132700,2,0,L|156:144,1,112.500004291535
280,352,133180,1,0,0:0:0:0:
280,68,133420,1,0,0:0:0:0:
60,220,133660,2,0,L|160:284,1,112.500004291535
484,280,134140,6,0,L|384:216,1,112.500004291535
200,104,134620,2,0,P|232:32|232:120,1,225.000008583069
56,268,135340,1,0,0:0:0:0:
103,282,135460,1,0,0:0:0:0:
148,297,135580,1,0,0:0:0:0:
456,120,135820,1,0,0:0:0:0:
224,328,136060,6,0,P|271:297|309:256,1,112.500004291535
312,48,136540,2,0,P|344:124|340:188,1,112.500004291535
224,344,137020,2,0,P|189:301|175:246,1,112.500004291535
192,64,137500,1,0,0:0:0:0:
420,174,137740,5,0,0:0:0:0:
434,207,137860,1,0,0:0:0:0:
438,242,137980,1,0,0:0:0:0:
184,336,138220,1,0,0:0:0:0:
84,89,138460,2,0,P|135:67|191:63,1,112.500004291535
467,318,138940,2,0,P|415:339|359:343,1,112.500004291535
104,352,139420,1,0,0:0:0:0:
140,336,139540,1,0,0:0:0:0:
176,320,139660,1,0,0:0:0:0:
212,304,139780,1,0,0:0:0:0:
244,292,139900,6,0,P|255:231|198:240,1,112.500004291535
40,204,140380,2,0,P|28:264|85:255,1,112.500004291535
328,80,140860,1,0,0:0:0:0:
300,336,141100,1,0,0:0:0:0:
64,112,141340,2,0,L|180:96,1,112.500004291535
448,168,141820,5,0,0:0:0:0:
112,208,142060,2,0,L|223:192,1,112.500004291535
448,168,142540,2,0,P|436:218|385:215,1,112.500004291535
176,72,143020,1,0,0:0:0:0:
408,336,143260,1,0,0:0:0:0:
412,176,143500,1,0,0:0:0:0:
412,128,143620,1,0,0:0:0:0:
408,80,143740,1,0,0:0:0:0:
144,88,143980,1,0,0:0:0:0:
132,88,144220,2,0,P|76:132|60:184,1,112.500004291535
232,356,144700,2,0,P|288:312|304:260,1,112.500004291535
476,88,145180,5,0,0:0:0:0:
464,84,145420,2,0,B|392:64|392:64|276:76,1,150
36,152,145900,2,0,B|108:172|108:172|224:160,1,150
52,196,160540,5,0,0:0:0:0:
152,88,160780,1,0,0:0:0:0:
184,84,160900,1,0,0:0:0:0:
220,92,161020,1,0,0:0:0:0:
408,288,161260,1,0,0:0:0:0:
416,280,161500,6,0,P|452:216|376:80,1,225.000008583069
252,348,162220,1,0,0:0:0:0:
244,340,162460,2,0,P|208:276|284:140,1,225.000008583069
160,48,163420,6,0,P|89:67|46:217,1,225.000008583069
352,336,164140,1,0,0:0:0:0:
352,336,164380,2,0,P|422:316|465:166,1,225.000008583069
164,136,165340,6,0,B|180:172|180:172|144:180|144:180|160:208|160:208|88:356,1,225.000008583069
340,300,166060,1,0,0:0:0:0:
340,300,166300,2,0,B|324:264|324:264|360:256|360:256|344:228|344:228|416:80,1,225.000008583069
224,60,167260,1,0,0:0:0:0:
224,60,167500,2,0,B|304:72|304:72|280:124|280:124|360:96|360:96|448:184,1,337.500012874604
124,120,168460,1,0,0:0:0:0:
81,155,168580,1,0,0:0:0:0:
63,207,168700,1,0,0:0:0:0:
75,262,168820,1,0,0:0:0:0:
114,301,168940,1,0,0:0:0:0:
168,314,169060,1,0,0:0:0:0:
216,296,169180,6,0,B|240:268|240:268|264:324|264:324|352:192,1,225.000008583069
208,64,169900,1,0,0:0:0:0:
208,64,170140,2,0,B|184:92|184:92|160:36|160:36|72:168,1,225.000008583069
164,304,171100,2,0,B|219:325|219:325|196:132,1,225.000008583069
344,84,171820,1,0,0:0:0:0:
344,84,172060,2,0,B|384:124|384:124|352:292,1,225.000008583069
280,24,172780,5,0,0:0:0:0:
280,24,173020,2,0,B|280:112|280:112|316:148|316:148|292:248,1,225.000008583069
212,48,173740,5,0,0:0:0:0:
212,48,173980,2,0,B|212:136|212:136|248:172|248:172|224:272,1,225.000008583069
80,312,174940,2,0,L|204:256,1,112.500004291535
432,312,175420,2,0,L|308:256,1,112.500004291535
256,56,175900,2,0,L|256:288,1,225.000008583069
252,280,176620,1,0,0:0:0:0:
456,232,176860,6,0,B|412:220|412:220|376:252|376:252|396:116,1,225.000008583069
112,112,177580,1,0,0:0:0:0:
112,112,177820,2,0,B|156:124|156:124|192:92|192:92|172:228,1,225.000008583069
412,352,178780,6,0,B|380:308|380:308|464:292|464:292|384:208,1,225.000008583069
104,348,179500,1,0,0:0:0:0:
104,348,179740,2,0,B|136:304|136:304|52:288|52:288|132:204,1,225.000008583069
340,48,180460,1,0,0:0:0:0:
340,48,180700,6,0,P|356:132|304:264,1,225.000008583069
164,360,181420,1,0,0:0:0:0:
80,236,181660,1,0,0:0:0:0:
76,88,181900,1,0,0:0:0:0:
256,224,182140,2,0,L|256:100,1,112.500004291535
436,88,182620,1,0,0:0:0:0:
432,236,182860,1,0,0:0:0:0:
348,360,183100,1,0,0:0:0:0:
234,264,183340,1,0,0:0:0:0:
320,140,183580,2,0,L|348:368,1,225.000008583069
88,92,193660,6,0,L|184:80,1,89.9999972534181
220,72,194020,1,0,0:0:0:0:
264,68,194140,1,0,0:0:0:0:
88,208,194380,1,0,0:0:0:0:
132,200,194500,1,0,0:0:0:0:
176,193,194620,1,0,0:0:0:0:
36,336,194860,1,0,0:0:0:0:
80,328,194980,1,0,0:0:0:0:
124,321,195100,1,0,0:0:0:0:
356,336,195340,5,0,0:0:0:0:
312,328,195460,1,0,0:0:0:0:
268,321,195580,1,0,0:0:0:0:
416,208,195820,1,0,0:0:0:0:
371,200,195940,1,0,0:0:0:0:
327,193,196060,1,0,0:0:0:0:
472,72,196300,1,0,0:0:0:0:
427,64,196420,1,0,0:0:0:0:
383,57,196540,1,0,0:0:0:0:
96,100,196780,5,0,0:0:0:0:
116,96,196900,1,0,0:0:0:0:
136,100,197020,1,0,0:0:0:0:
276,248,197260,1,0,0:0:0:0:
256,256,197380,1,0,0:0:0:0:
236,248,197500,1,0,0:0:0:0:
416,100,197740,1,0,0:0:0:0:
392,96,197860,1,0,0:0:0:0:
372,100,197980,6,0,P|344:144|312:128,1,89.9999972534181
44,192,198460,2,0,P|60:228|112:232,1,89.9999972534181
316,133,198940,1,0,0:0:0:0:
468,192,199180,2,0,P|452:228|400:232,1,89.9999972534181
196,133,199660,1,0,0:0:0:0:
112,348,199900,2,0,P|168:304|172:268,1,89.9999972534181
196,133,200380,2,0,P|212:72|332:56,1,179.999994506836
412,240,201100,1,0,0:0:0:0:
395,281,201220,1,0,0:0:0:0:
372,308,201340,6,0,P|300:304|256:276,1,89.9999972534181
140,76,201820,1,0,0:0:0:0:
227,86,202060,2,0,P|184:73|140:76,1,89.9999972534181
56,256,202540,1,0,0:0:0:0:
100,260,202660,1,0,0:0:0:0:
144,253,202780,1,0,0:0:0:0:
416,152,203020,1,0,0:0:0:0:
324,136,203260,5,0,0:0:0:0:
412,148,203500,2,0,P|369:134|324:137,1,89.9999972534181
144,256,203980,2,0,P|186:269|231:266,1,89.9999972534181
464,288,204460,1,0,0:0:0:0:
419,281,204580,1,0,0:0:0:0:
379,261,204700,1,0,0:0:0:0:
224,124,204940,1,0,0:0:0:0:
136,144,205180,6,0,L|256:116,1,89.9999972534181
64,320,205660,2,0,P|140:296|200:216,1,179.999994506836
292,40,206380,1,0,0:0:0:0:
317,76,206500,1,0,0:0:0:0:
343,113,206620,1,0,0:0:0:0:
460,296,206860,1,0,0:0:0:0:
128,344,207100,1,0,0:0:0:0:
140,340,207340,6,0,B|156:316|156:316|120:268|120:268|160:196,1,134.999995880127
156,212,207700,1,0,0:0:0:0:
176,185,207820,1,0,0:0:0:0:
201,162,207940,1,0,0:0:0:0:
229,144,208060,1,0,0:0:0:0:
260,131,208180,1,0,0:0:0:0:
293,124,208300,1,0,0:0:0:0:
327,124,208420,1,0,0:0:0:0:
356,136,208540,5,0,0:0:0:0:
327,152,208660,1,0,0:0:0:0:
306,179,208780,1,0,0:0:0:0:
298,212,208900,1,0,0:0:0:0:
303,245,209020,1,0,0:0:0:0:
320,274,209140,1,0,0:0:0:0:
346,294,209260,1,0,0:0:0:0:
379,302,209380,1,0,0:0:0:0:
408,304,209500,6,0,P|444:188|404:156,1,150
256,40,209980,2,0,P|220:156|260:188,1,150
92,264,210460,1,0,0:0:0:0:
126,277,210580,1,0,0:0:0:0:
161,291,210700,1,0,0:0:0:0:
420,276,210940,6,0,P|312:188|256:160,1,150
60,32,211420,2,0,P|168:120|224:148,1,150
444,48,211900,1,0,0:0:0:0:
409,63,212020,1,0,0:0:0:0:
375,79,212140,1,0,0:0:0:0:
341,94,212260,1,0,0:0:0:0:
307,110,212380,1,0,0:0:0:0:
60,336,212620,6,0,P|160:300|172:248,1,150
160,52,213100,1,0,0:0:0:0:
320,340,213340,2,0,P|420:304|432:252,1,150
328,52,213820,1,0,0:0:0:0:
293,67,213940,1,0,0:0:0:0:
259,83,214060,1,0,0:0:0:0:
225,98,214180,1,0,0:0:0:0:
191,114,214300,1,0,0:0:0:0:
468,136,214540,1,0,0:0:0:0:
116,320,214780,6,0,L|256:240,1,150
468,136,215260,1,0,0:0:0:0:
468,136,215500,2,0,L|337:210,1,150
68,324,215980,1,0,0:0:0:0:
152,64,216220,1,0,0:0:0:0:
312,332,216460,1,0,0:0:0:0:
322,296,216580,1,0,0:0:0:0:
332,264,216700,1,0,0:0:0:0:
380,64,216940,1,0,0:0:0:0:
312,332,217180,6,0,L|360:168,1,150
226,32,217660,2,0,L|184:176,1,150
32,344,218140,1,0,0:0:0:0:
46,309,218260,1,0,0:0:0:0:
61,274,218380,1,0,0:0:0:0:
75,240,218500,1,0,0:0:0:0:
90,205,218620,1,0,0:0:0:0:
160,32,218860,1,0,0:0:0:0:
297,92,219100,6,0,L|159:31,1,150
297,292,219580,1,0,0:0:0:0:
159,352,219820,2,0,L|297:292,1,150
452,196,220300,1,0,0:0:0:0:
72,132,220540,2,0,L|209:71,1,150
452,196,221020,1,0,0:0:0:0:
452,196,221260,2,0,P|484:280|440:324,1,150
352,56,221740,1,0,0:0:0:0:
300,336,221980,1,0,0:0:0:0:
48,180,222220,1,0,0:0:0:0:
60,176,222460,6,0,L|208:108,1,150
464,44,222940,1,0,0:0:0:0:
464,44,223180,2,0,B|388:84|388:84|464:128|464:128|480:296|368:328|260:220,1,450
288,232,224020,1,0,0:0:0:0:
272,196,224140,1,0,0:0:0:0:
264,155,224260,1,0,0:0:0:0:
239,127,224380,1,0,0:0:0:0:
206,111,224500,1,0,0:0:0:0:
169,108,224620,1,0,0:0:0:0:
133,120,224740,1,0,0:0:0:0:
104,144,224860,1,0,0:0:0:0:
76,336,225100,6,0,L|184:224,1,150
320,72,225580,1,0,0:0:0:0:
436,336,225820,2,0,L|328:224,1,150
192,72,226300,1,0,0:0:0:0:
68,156,226540,2,0,L|220:52,1,150
388,136,227020,1,0,0:0:0:0:
92,288,227260,1,0,0:0:0:0:
388,136,227500,1,0,0:0:0:0:
88,92,227740,1,0,0:0:0:0:
384,340,227980,2,0,P|304:344|224:288,1,150
88,92,228460,1,0,0:0:0:0:
230,46,228700,6,0,L|66:98,1,150
464,116,229180,1,0,0:0:0:0:
322,162,229420,2,0,L|486:110,1,150
116,348,229900,1,0,0:0:0:0:
183,215,230140,2,0,L|103:367,1,150
396,36,230620,1,0,0:0:0:0:
329,169,230860,2,0,L|398:35,1,150
100,100,231340,2,0,P|168:48|224:80,1,150
412,284,231820,2,0,P|344:336|288:304,1,150
40,288,232300,1,0,0:0:0:0:
44,280,232540,6,0,L|128:88,1,150
400,48,233020,2,0,L|260:212,1,150
368,328,233500,2,0,L|224:184,1,150
52,112,233980,2,0,L|204:40,1,150
176,192,234460,6,0,L|120:368,1,150
280,72,234940,2,0,L|440:84,1,150
396,236,235420,2,0,L|288:344,1,150
72,160,235900,2,0,L|224:224,1,150
368,40,236380,6,0,L|164:80,1,150
504,328,236860,2,0,L|440:176,1,150
128,364,237340,2,0,L|312:320,1,150
16,168,237820,2,0,P|176:88|240:200,1,300
304,348,238780,1,0,0:0:0:0:
400,152,239260,1,0,0:0:0:0:
343,102,239380,1,0,0:0:0:0:
274,75,239500,1,0,0:0:0:0:
199,74,239620,1,0,0:0:0:0:
129,98,239740,1,0,0:0:0:0:
