osu file format v14

[General]
AudioFilename: tantsuy.mp3
AudioLeadIn: 0
PreviewTime: 13487
Countdown: 0
SampleSet: Normal
StackLeniency: 0.5
Mode: 0
LetterboxInBreaks: 1
WidescreenStoryboard: 0

[Editor]
Bookmarks: 4855,13911,22968,32025,41081,50138,59194,68251,77308,86364,95421,106742
DistanceSpacing: 1
BeatDivisor: 16
GridSize: 4
TimelineZoom: 1.6

[Metadata]
Title:Tantsuy!
TitleUnicode:Танцуй!
Artist:Lyapis Trubetskoy
ArtistUnicode:Ляпис Трубецкой
Creator:Natteke
Version:Extra
Source:
Tags:russian evilelvisv2 jounzan vass_bass nemis Rock Natteke_Desu
BeatmapID:327496
BeatmapSetID:129658

[Difficulty]
HPDrainRate:7
CircleSize:4
OverallDifficulty:8
ApproachRate:9.3
SliderMultiplier:1.4
SliderTickRate:1

[Events]
//Background and Video events
0,0,"bg.jpg",0,0
//Break Periods
2,77499,84657
//Storyboard Layer 0 (Background)
//Storyboard Layer 1 (Fail)
//Storyboard Layer 2 (Pass)
//Storyboard Layer 3 (Foreground)
//Storyboard Layer 4 (Overlay)
//Storyboard Sound Samples

[TimingPoints]
327,283.018867924528,4,1,1,65,1,0
4845,283.018867924528,4,1,1,65,1,0
4845,-200,4,2,1,65,0,0
12355,-100,4,1,1,85,0,0
13770,-68.9655172413793,4,1,1,85,0,0
22965,283.018867924528,4,1,1,85,1,0
22965,-68.9655172413793,4,1,1,85,0,0
27478,283.018867924528,4,1,1,85,1,0
27478,-68.9655172413793,4,1,1,85,0,0
29758,283.018867924528,4,1,1,85,1,0
29758,-68.9655172413793,4,1,1,85,0,0
32591,-100,4,1,1,85,0,0
39643,281.69014084507,4,1,1,85,1,0
40347,283.018867924528,4,1,1,85,1,0
40515,-68.9655172413793,4,1,1,85,0,0
41078,283.018867924528,4,1,1,85,1,0
41078,-68.9655172413793,4,1,1,85,0,0
45597,283.018867924528,4,1,1,85,1,0
45597,-68.9655172413793,4,1,1,85,0,0
50130,283.018867924528,4,1,1,85,1,0
50130,-68.9655172413793,4,1,1,85,0,0
81823,282.352941176471,4,1,1,85,1,0
86359,283.018867924528,4,1,1,85,1,0
86359,-68.9655172413793,4,1,1,85,0,0
106812,-68.9655172413793,4,2,1,5,0,0

[Colours]
Combo1 : 17,254,176
Combo2 : 173,255,95
Combo3 : 255,88,100
Combo4 : 255,94,55

[HitObjects]
85,106,327,6,0,P|81:166|85:255,1,140,2|4,2:0|3:0,0:0:0:0:
404,324,751,2,0,P|408:264|404:175,1,140,2|4,2:0|3:0,0:0:0:0:
244,280,1176,2,0,P|240:324|244:372,1,70,8|8,0:0|3:0,0:0:0:0:
85,278,1459,6,0,P|81:218|85:129,1,140,2|4,2:0|3:0,0:0:0:0:
404,60,1883,2,0,P|408:120|404:209,1,140,2|4,2:0|3:0,0:0:0:0:
244,104,2308,2,0,P|240:60|244:12,1,70,8|8,0:0|0:0,0:0:0:0:
85,106,2591,6,0,P|81:166|85:255,1,140,2|4,2:0|3:0,0:0:0:0:
404,324,3015,2,0,P|408:264|404:175,1,140,2|4,2:0|3:0,0:0:0:0:
244,280,3440,2,0,P|240:324|244:372,1,70,8|8,0:0|3:0,0:0:0:0:
100,220,3723,1,8,0:0:0:0:
192,204,4845,6,0,B|248:188|292:204|292:204|340:244|396:224,1,210,4|2,1:0|2:0,0:0:0:0:
468,140,5977,2,0,P|459:100|376:56,1,140,8|0,1:0|0:0,0:0:0:0:
200,208,6826,5,2,2:0:0:0:
272,308,7109,2,0,P|343:336|411:308,1,140,4|0,1:0|0:0,0:0:0:0:
400,316,7958,1,2,2:0:0:0:
152,281,8241,6,0,P|121:285|81:298,1,70,8|0,1:0|0:0,0:0:0:0:
92,188,8665,2,0,P|66:175|40:143,1,70,8|0,1:0|0:0,0:0:0:0:
164,104,9090,2,0,P|156:73|148:50,1,52.5,8|0,1:0|0:0,0:0:0:0:
125,33,9373,6,0,B|160:20|196:40|196:40|220:68|256:64,1,140,4|0,1:0|0:0,0:0:0:0:
368,120,10222,1,2,2:0:0:0:
136,184,10505,2,0,P|102:221|95:317,1,140,8|0,1:0|0:0,0:0:0:0:
216,284,11354,1,2,2:0:0:0:
320,236,11637,2,0,L|462:252,1,140,4|0,1:0|0:0,0:0:0:0:
396,64,12486,5,8,1:0:0:0:
380,140,12628,1,8,1:0:0:0:
359,226,12769,2,0,P|382:235|474:314,1,140,4|8,0:0|0:0,0:0:0:0:
264,212,13194,1,4,0:0:0:0:
80,144,13901,6,0,B|66:203|98:237|98:237|111:286|78:351,1,203.000006195069,4|8,0:0|0:0,0:0:0:0:
164,184,14326,2,0,P|162:124|291:93,1,203.000006195069,0|2,2:0|2:0,0:0:0:0:
260,288,14750,2,0,P|254:233|260:185,1,101.500003097534,0|0,0:0|2:0,0:0:0:0:
396,68,15033,6,0,P|405:124|399:177,1,101.500003097534,2|0,0:0|2:0,0:0:0:0:
252,328,15316,1,8,0:0:0:0:
236,220,15458,2,0,P|171:171|58:201,1,203.000006195069,2|2,0:0|2:0,0:0:0:0:
60,198,15882,2,0,L|56:88,1,101.500003097534,8|0,0:0|0:0,0:0:0:0:
64,88,16094,1,0,0:0:0:0:
72,81,16165,6,0,B|116:103|171:75|171:75|233:63|279:83,1,203.000006195069,4|8,0:0|0:0,0:0:0:0:
438,80,16590,2,0,P|372:113|346:237,1,203.000006195069,0|2,2:0|2:0,0:0:0:0:
388,324,17014,1,8,0:0:0:0:
200,192,17156,1,0,2:0:0:0:
104,240,17297,2,0,L|93:349,1,101.500003097534,2|0,0:0|2:0,0:0:0:0:
248,304,17580,1,8,0:0:0:0:
188,88,17722,2,0,P|248:92|288:68,1,101.500003097534,2|0,0:0|2:0,0:0:0:0:
472,160,18005,1,2,2:0:0:0:
428,68,18146,2,0,P|379:103|364:147,1,101.500003097534,8|0,0:0|2:0,0:0:0:0:
436,296,18429,6,0,B|424:244|372:224|372:224|316:244|256:216,1,203.000006195069,4|8,0:0|0:0,0:0:0:0:
160,312,18854,1,0,0:0:0:0:
84,184,18995,2,0,P|89:134|226:69,1,203.000006195069,0|8,2:0|0:0,0:0:0:0:
424,64,19420,1,0,2:0:0:0:
304,140,19561,2,0,B|277:239|340:227|305:353,1,203.000006195069,2|8,2:0|0:0,0:0:0:0:
432,244,19986,1,2,2:0:0:0:
204,276,20128,2,0,P|150:285|90:273,1,101.500003097534,0|2,2:0|2:0,0:0:0:0:
28,104,20411,2,0,P|82:95|142:107,1,101.500003097534,8|8,0:0|0:0,0:0:0:0:
256,160,20694,6,0,L|284:368,1,203.000006195069,4|8,0:0|0:0,0:0:0:0:
384,180,21118,1,0,0:0:0:0:
340,72,21260,2,0,P|274:48|148:109,1,203.000006195069,0|8,2:0|0:0,0:0:0:0:
120,184,21684,1,0,2:0:0:0:
64,297,21826,6,0,B|112:272|160:292|160:292|212:332|271:295,1,203.000006195069,4|8,0:0|0:0,0:0:0:0:
416,232,22250,2,0,B|368:257|321:229|321:229|268:197|209:234,1,203.000006195069,4|8,0:0|0:0,0:0:0:0:
172,212,22604,1,8,0:0:0:0:
124,196,22675,2,0,L|20:160,1,101.500003097534,8|8,0:0|0:0,0:0:0:0:
176,50,22965,6,0,B|263:58|263:58|296:72|296:72|386:79,1,203.000006195069,4|8,0:0|0:0,0:0:0:0:
472,192,23389,2,0,P|390:185|297:273,1,203.000006195069,0|2,2:0|2:0,0:0:0:0:
302,259,23743,1,0,2:0:0:0:
302,259,23814,1,8,0:0:0:0:
160,360,23955,1,2,2:0:0:0:
60,248,24097,6,0,B|51:189|91:158|91:158|116:109|89:47,1,203.000006195069,6|8,0:0|0:0,0:0:0:0:
150,227,24521,2,2,P|184:187|235:172,1,101.500003097534,2|0,0:0|2:0,0:0:0:0:
284,296,24804,2,0,P|250:336|199:351,2,101.500003097534,2|8|0,2:0|0:0|2:0,0:0:0:0:
404,336,25229,6,0,P|366:262|404:135,1,203.000006195069,4|8,0:0|0:0,0:0:0:0:
500,120,25653,2,0,P|427:134|344:49,1,203.000006195069,0|2,2:0|2:0,0:0:0:0:
176,48,26078,2,0,L|246:133,1,101.500003097534,8|0,0:0|0:0,0:0:0:0:
240,126,26290,1,0,0:0:0:0:
240,126,26361,6,0,P|159:115|88:228,1,203.000006195069,4|8,0:2|0:0,0:0:0:0:
152,348,26785,2,0,P|233:359|304:246,1,203.000006195069,4|0,0:2|0:0,0:0:0:0:
460,208,27210,2,8,L|348:184,1,101.500003097534
88,172,27478,6,0,P|183:180|204:303,1,203.000006195069,4|8,0:0|0:0,0:0:0:0:
60,356,27902,1,0,0:0:0:0:
88,172,28044,2,0,B|108:120|155:106|155:106|224:108|252:40,1,203.000006195069,0|8,2:0|0:0,0:0:0:0:
480,32,28468,1,0,0:0:0:0:
372,128,28610,2,0,P|383:177|377:245,1,101.500003097534,2|0,2:0|2:0,0:0:0:0:
268,360,28893,1,8,0:0:0:0:
236,189,29034,2,0,L|132:175,1,101.500003097534,2|0,2:0|2:0,0:0:0:0:
36,60,29317,2,0,L|140:74,1,101.500003097534,2|8,2:0|0:0,0:0:0:0:
16,232,29600,1,0,2:0:0:0:
152,324,29758,6,0,L|356:341,1,203.000006195069,4|8,0:0|0:0,0:0:0:0:
500,236,30182,1,0,2:0:0:0:
356,128,30324,2,0,L|152:145,1,203.000006195069,0|8,2:0|0:0,0:0:0:0:
56,36,30748,1,8,0:0:0:0:
392,48,30890,6,0,P|449:117|419:226,1,203.000006195069,4|8,0:0|0:0,0:0:0:0:
120,336,31314,2,0,P|63:267|93:158,1,203.000006195069,4|8,0:0|0:0,0:0:0:0:
87,163,31739,1,8,0:0:0:0:
96,168,32022,1,4,0:0:0:0:
87,163,32871,6,0,L|235:153,1,140,2|8,2:2|0:0,0:0:0:0:
227,153,33720,1,0,2:0:0:0:
227,153,34003,1,0,2:0:0:0:
227,153,34286,5,4,1:0:0:0:
376,312,34852,1,0,2:0:0:0:
276,268,35135,1,2,2:2:0:0:
164,292,35418,2,0,P|104:324|21:321,1,140,8|0,0:0|2:0,0:0:0:0:
216,216,35842,2,0,P|276:184|359:187,1,140,8|0,0:0|2:0,0:0:0:0:
124,212,36267,2,0,P|74:158|64:88,1,140,8|4,0:0|0:0,0:0:0:0:
304,36,37399,5,2,2:0:0:0:
232,104,37682,2,0,B|248:187|231:227|249:330,1,210,8|0,0:0|2:0,0:0:0:0:
246,313,38248,1,0,2:0:0:0:
148,332,38531,1,2,2:0:0:0:
56,316,38814,1,4,0:0:0:0:
328,260,39380,5,0,2:0:0:0:
420,248,39643,1,8,0:0:0:0:
420,248,39783,1,8,0:0:0:0:
256,80,39924,1,2,2:0:0:0:
440,160,40206,5,8,0:0:0:0:
256,80,40347,1,2,2:0:0:0:
64,320,41078,6,0,B|48:266|83:223|83:223|103:160|74:108,1,203.000006195069,4|8,0:0|0:0,0:0:0:0:
145,284,41503,2,0,L|363:274,1,203.000006195069,0|2,2:0|2:0,0:0:0:0:
424,80,41927,2,0,L|432:192,1,101.500003097534,8|0,0:0|0:0,0:0:0:0:
431,181,42140,1,0,0:0:0:0:
431,181,42210,5,2,0:0:0:0:
224,304,42352,1,2,0:0:0:0:
232,76,42493,1,8,0:0:0:0:
431,181,42635,2,0,B|384:158|334:172|334:172|276:211|223:181,1,203.000006195069,2|2,0:0|2:0,0:0:0:0:
372,256,43059,2,0,P|400:287|420:353,1,101.500003097534,8|0,0:0|2:0,0:0:0:0:
220,276,43342,6,0,P|153:215|203:103,1,203.000006195069,4|8,0:0|0:0,0:0:0:0:
328,56,43767,1,0,2:0:0:0:
328,56,43838,1,0,2:0:0:0:
328,56,43908,2,0,L|317:167,1,101.500003097534,0|2,2:0|2:0,0:0:0:0:
400,328,44191,2,0,L|414:209,1,101.500003097534,8|2,0:0|2:0,0:0:0:0:
224,248,44474,6,0,P|121:274|38:200,1,203.000006195069,2|8,0:0|0:0,0:0:0:0:
316,216,44899,2,0,P|419:190|502:264,1,203.000006195069,2|2,0:0|2:0,0:0:0:0:
50,221,45324,2,0,B|57:158|57:158|79:128|79:128|89:41,1,152.250004646301,8|0,0:0|2:0,0:0:0:0:
80,68,45597,6,0,L|189:79,1,101.500003097534,4|0,0:0|2:0,0:0:0:0:
296,216,45880,2,0,P|281:156|288:106,1,101.500003097534,8|0,0:0|0:0,0:0:0:0:
388,32,46163,2,0,P|403:92|396:142,1,101.500003097534,0|2,2:0|2:0,0:0:0:0:
400,348,46446,2,0,P|429:287|473:306,1,101.500003097534,8|0,0:0|2:0,0:0:0:0:
212,232,46729,6,0,B|164:208|114:222|114:222|56:261|3:231,1,203.000006195069,2|8,2:0|0:0,0:0:0:0:
120,124,47153,2,0,L|128:17,2,101.500003097534,2|0|2,2:0|2:0|2:0,0:0:0:0:
184,344,47578,2,0,P|239:361|284:349,1,101.500003097534,8|8,0:0|0:0,0:0:0:0:
472,264,47861,5,2,2:0:0:0:
24,164,48144,1,8,0:0:0:0:
332,32,48427,2,0,L|314:138,1,101.500003097534,0|2,2:0|2:0,0:0:0:0:
180,352,48710,2,0,L|198:246,1,101.500003097534,8|0,0:0|2:0,0:0:0:0:
315,164,48993,6,0,B|362:196|362:196|384:349,1,203.000006195069,4|8,0:0|0:0,0:0:0:0:
196,219,49417,2,0,B|150:188|150:188|128:35,1,203.000006195069,4|8,0:0|0:0,0:0:0:0:
32,312,49842,1,8,0:0:0:0:
40,80,50130,6,0,P|124:39|207:97,1,203.000006195069,4|8,0:0|0:0,0:0:0:0:
228,384,50554,1,0,0:0:0:0:
384,220,50696,1,0,2:0:0:0:
108,208,50837,1,2,2:0:0:0:
384,220,50979,2,0,P|394:166|374:117,1,101.500003097534,8|0,0:0|2:0,0:0:0:0:
61,125,51262,6,0,B|100:149|158:110|158:110|208:96|256:120,1,203.000006195069,6|8,0:0|0:0,0:0:0:0:
384,220,51686,2,0,P|365:313|262:312,1,203.000006195069,2|2,0:0|2:0,0:0:0:0:
208,164,52111,2,0,L|217:49,1,101.500003097534,8|0,0:0|0:0,0:0:0:0:
224,48,52323,1,0,0:0:0:0:
232,36,52394,6,0,B|347:29|321:88|442:74,1,203.000006195069,4|8,0:0|0:0,0:0:0:0:
456,284,52818,2,0,P|389:232|283:284,1,203.000006195069,0|2,2:0|2:0,0:0:0:0:
164,248,53243,2,0,L|152:146,1,101.500003097534,8|0,0:0|0:0,0:0:0:0:
168,156,53455,1,0,0:0:0:0:
184,167,53526,6,0,P|228:188|276:173,1,101.500003097534,2|0,0:0|2:0,0:0:0:0:
228,20,53809,1,8,0:0:0:0:
24,160,53950,2,0,P|60:68|157:82,1,203.000006195069,2|2,0:0|2:0,0:0:0:0:
172,256,54375,2,0,L|174:371,1,101.500003097534,8|0,0:0|2:0,0:0:0:0:
276,173,54658,6,0,L|272:61,1,101.500003097534,4|0,0:0|2:0,0:0:0:0:
480,308,54941,2,0,L|368:271,1,101.500003097534,8|0,0:0|2:0,0:0:0:0:
112,336,55224,2,0,L|204:284,1,101.500003097534,0|2,2:0|0:2,0:0:0:0:
28,328,55507,1,8,0:0:0:0:
48,44,55648,1,0,2:0:0:0:
232,204,55790,6,0,P|337:177|346:83,1,203.000006195069,0|8,0:0|0:0,0:0:0:0:
104,200,56214,1,2,2:0:0:0:
216,48,56356,2,0,B|254:71|296:40|296:40|348:0|410:42,1,203.000006195069,0|8,2:0|0:0,0:0:0:0:
496,240,56780,1,8,0:0:0:0:
340,336,56922,6,0,P|259:352|212:251,2,203.000006195069,2|8|0,2:0|0:0|2:0,0:0:0:0:
68,344,57629,1,2,2:0:0:0:
352,216,57771,2,0,P|339:156|302:125,1,101.500003097534,8|0,0:0|2:0,0:0:0:0:
245,71,58054,6,0,L|44:96,1,203.000006195069,4|8,0:0|0:0,0:0:0:0:
440,232,58479,2,0,P|420:326|311:318,1,203.000006195069,4|8,0:0|0:0,0:0:0:0:
244,248,58903,2,0,B|246:167|269:142|263:37,1,203.000006195069,8|6,0:0|0:0,0:0:0:0:
84,268,59469,5,8,0:0:0:0:
84,268,59611,2,2,P|119:214|257:214,1,203.000006195069,2|2,0:0|2:0,0:0:0:0:
352,244,60035,2,0,L|448:288,1,101.500003097534,10|0,0:0|2:0,0:0:0:0:
484,104,60318,6,0,B|436:80|386:94|386:94|328:133|275:103,1,203.000006195069,6|8,0:0|0:0,0:0:0:0:
120,196,60743,2,0,P|189:194|226:154,2,101.500003097534,2|0|2,2:0|2:0|2:0,0:0:0:0:
40,276,61167,2,0,P|105:345|195:312,1,203.000006195069,8|6,0:0|0:0,0:0:0:0:
248,184,61592,6,0,P|287:161|346:158,1,101.500003097534,0|8,2:0|0:0,0:0:0:0:
464,288,61875,2,0,P|445:207|467:83,1,203.000006195069,2|2,0:0|2:0,0:0:0:0:
368,32,62299,1,10,0:0:0:0:
252,80,62441,2,0,P|202:97|143:78,1,101.500003097534,0|6,2:0|0:0,0:0:0:0:
56,40,62724,5,0,2:0:0:0:
40,236,62865,1,8,0:0:0:0:
196,168,63007,1,2,2:0:0:0:
97,155,63148,1,0,2:0:0:0:
204,268,63290,1,2,2:0:0:0:
108,308,63431,1,8,0:0:0:0:
97,155,63573,1,8,0:0:0:0:
196,356,63714,6,0,P|279:362|351:275,1,203.000006195069,6|8,0:0|0:0,0:0:0:0:
448,40,64139,2,0,L|455:251,1,203.000006195069,2|2,0:0|2:0,0:0:0:0:
296,148,64563,2,0,L|181:140,1,101.500003097534,10|0,0:0|2:0,0:0:0:0:
28,244,64846,6,0,P|133:239|211:311,1,203.000006195069,6|8,0:0|0:0,0:0:0:0:
320,344,65271,1,2,2:0:0:0:
320,344,65342,1,0,2:0:0:0:
320,344,65413,2,0,P|321:274|344:229,1,101.500003097534,0|2,2:0|2:0,0:0:0:0:
448,156,65696,2,0,P|447:226|424:271,1,101.500003097534,8|0,0:0|2:0,0:0:0:0:
260,148,65979,6,0,P|204:97|82:126,1,203.000006195069,6|8,0:0|0:0,0:0:0:0:
52,300,66403,2,0,P|108:351|230:322,1,203.000006195069,2|2,0:0|2:0,0:0:0:0:
340,216,66828,2,0,L|349:332,1,101.500003097534,8|0,0:0|2:0,0:0:0:0:
440,228,67111,6,0,P|431:124|333:50,1,203.000006195069,4|8,0:0|0:0,0:0:0:0:
240,120,67535,2,0,B|237:202|249:243|235:337,1,203.000006195069,4|0,0:0|0:0,0:0:0:0:
152,272,67960,2,0,P|97:255|52:281,1,101.500003097534,8|0,0:0|2:0,0:0:0:0:
312,312,68243,6,0,P|383:330|479:248,1,203.000006195069,6|8,0:0|0:0,0:0:0:0:
432,136,68667,1,2,0:0:0:0:
296,32,68809,2,0,L|292:133,1,101.500003097534,0|2,2:0|2:0,0:0:0:0:
156,240,69092,2,0,L|160:139,1,101.500003097534,10|0,0:0|2:0,0:0:0:0:
48,232,69375,6,0,P|82:315|197:322,1,203.000006195069,6|8,0:0|0:0,0:0:0:0:
184,192,69799,2,0,B|251:170|321:242|394:204,1,203.000006195069,2|2,2:0|2:0,0:0:0:0:
472,148,70224,2,0,P|480:83|475:40,1,101.500003097534,8|0,0:0|2:0,0:0:0:0:
432,308,70507,6,4,P|363:352|249:313,1,203.000006195069,6|8,0:0|0:0,0:0:0:0:
64,340,70931,2,0,P|113:287|128:138,1,203.000006195069,2|2,0:0|2:0,0:0:0:0:
304,52,71356,2,0,P|255:105|240:254,1,203.000006195069,10|6,0:0|0:0,0:0:0:0:
324,348,71780,5,0,2:0:0:0:
452,272,71922,2,0,P|473:224|464:161,1,101.500003097534,8|2,0:0|2:0,0:0:0:0:
470,176,72134,1,0,2:0:0:0:
470,176,72205,5,0,2:0:0:0:
308,40,72346,1,2,2:0:0:0:
200,244,72488,1,8,0:0:0:0:
44,100,72629,1,8,0:0:0:0:
116,304,72771,6,0,P|77:218|142:142,1,203.000006195069,6|8,0:0|0:0,0:0:0:0:
248,132,73196,2,0,L|455:136,1,203.000006195069,2|2,0:0|2:0,0:0:0:0:
450,135,73620,2,0,P|456:75|421:28,2,101.500003097534,10|0|6,0:0|2:0|0:0,0:0:0:0:
308,172,74045,2,0,P|302:232|337:279,1,101.500003097534,0|8,2:0|0:0,0:0:0:0:
368,100,74328,2,0,B|320:76|270:90|270:90|212:129|159:99,1,203.000006195069,2|2,2:0|2:0,0:0:0:0:
216,28,74752,1,8,0:0:0:0:
300,224,74894,1,8,0:0:0:0:
104,288,75035,6,0,P|168:350|279:328,1,203.000006195069,6|8,0:0|0:0,0:0:0:0:
328,140,75460,2,0,P|264:78|153:100,1,203.000006195069,2|2,0:0|2:0,0:0:0:0:
120,84,75813,1,0,0:0:0:0:
80,68,75884,2,8,L|89:175,1,101.500003097534,10|8,0:0|0:0,0:0:0:0:
88,328,76167,1,4,0:0:0:0:
408,144,76450,5,8,0:0:0:0:
424,328,76592,1,4,0:0:0:0:
104,240,76875,1,2,2:0:0:0:
88,56,77016,1,8,0:0:0:0:
92,64,77299,5,4,0:0:0:0:
52,112,85211,5,4,3:0:0:0:
72,212,85352,1,4,3:0:0:0:
164,248,85493,1,4,3:0:0:0:
252,196,85634,1,4,3:0:0:0:
352,180,85775,1,0,0:0:0:0:
352,180,85846,1,0,0:0:0:0:
352,180,85917,1,0,0:0:0:0:
352,180,85987,1,0,0:0:0:0:
352,180,86058,1,8,0:0:0:0:
352,180,86128,1,8,0:0:0:0:
352,180,86199,1,8,0:0:0:0:
352,180,86270,1,8,0:0:0:0:
352,180,86359,6,0,B|415:192|462:266|427:350,1,203.000006195069,4|8,0:0|0:0,0:0:0:0:
160,128,86783,2,0,B|172:65|246:18|330:53,1,203.000006195069,0|2,2:0|2:0,0:0:0:0:
208,264,87208,2,0,P|189:321|148:360,1,101.500003097534,8|0,0:0|0:0,0:0:0:0:
161,350,87420,1,0,0:0:0:0:
161,350,87491,1,2,0:0:0:0:
252,48,87632,1,2,0:0:0:0:
456,292,87774,1,8,0:0:0:0:
208,264,87915,6,2,B|169:287|116:252|116:252|61:234|13:258,1,203.000006195069,2|2,0:0|2:0,0:0:0:0:
180,184,88340,2,0,L|192:78,1,101.500003097534,8|0,0:0|0:0,0:0:0:0:
336,32,88623,6,0,L|316:248,1,203.000006195069,4|8,0:0|0:0,0:0:0:0:
448,152,89047,2,0,P|465:100|452:45,2,101.500003097534,0|0|2,2:0|2:0|2:0,0:0:0:0:
180,184,89472,2,0,P|163:236|176:291,1,101.500003097534,8|0,0:0|0:0,0:0:0:0:
171,281,89684,1,0,0:0:0:0:
171,281,89755,5,2,0:0:0:0:
88,28,89896,1,2,1:0:0:0:
344,68,90038,1,8,0:0:0:0:
112,208,90179,2,0,P|185:192|269:287,1,203.000006195069,2|2,0:0|2:0,0:0:0:0:
148,364,90604,1,8,0:0:0:0:
56,268,90745,1,8,0:0:0:0:
56,268,90816,1,0,0:0:0:0:
56,268,90887,6,0,L|76:58,1,203.000006195069,4|8,0:0|0:0,0:0:0:0:
192,152,91311,1,0,0:0:0:0:
192,152,91453,2,0,P|237:126|287:130,2,101.500003097534,0|2|8,2:0|2:0|0:0,0:0:0:0:
360,208,91877,2,0,P|400:164|400:121,1,101.500003097534,0|4,0:0|0:0,0:0:0:0:
336,24,92160,1,0,2:0:0:0:
256,288,92302,6,0,P|203:337|88:284,1,203.000006195069,8|0,0:0|2:0,0:0:0:0:
56,168,92726,1,2,2:0:0:0:
224,72,92868,1,8,0:0:0:0:
76,32,93009,1,0,0:0:0:0:
224,72,93151,6,0,L|375:221,1,203.000006195069,4|8,0:0|0:0,0:0:0:0:
464,124,93575,1,0,2:0:0:0:
260,260,93717,2,0,P|187:341|91:339,1,203.000006195069,0|8,2:0|0:0,0:0:0:0:
56,240,94142,1,0,0:0:0:0:
264,120,94283,1,4,0:0:0:0:
136,308,94566,5,0,0:0:0:0:
412,268,94708,1,4,0:0:0:0:
39,49,94991,5,2,2:0:0:0:
312,80,95132,1,8,0:0:0:0:
312,80,95415,6,0,B|293:129|224:127|224:127|177:141|157:193,1,203.000006195069,4|8,0:0|0:0,0:0:0:0:
220,24,95840,1,0,0:0:0:0:
324,228,95981,2,0,P|363:268|385:318,1,101.500003097534,0|2,2:0|2:0,0:0:0:0:
112,328,96264,2,0,P|73:288|51:238,1,101.500003097534,8|0,0:0|0:0,0:0:0:0:
53,247,96476,1,0,0:0:0:0:
53,247,96547,5,6,0:0:0:0:
312,340,96689,1,2,0:0:0:0:
172,68,96830,1,8,0:0:0:0:
36,344,96972,2,2,P|82:256|46:160,1,203.000006195069,2|2,0:0|2:0,0:0:0:0:
116,28,97396,2,0,P|114:82|146:125,1,101.500003097534,8|0,0:0|0:0,0:0:0:0:
139,120,97608,1,0,0:0:0:0:
139,120,97679,6,0,B|224:103|224:103|253:115|253:115|345:97,1,203.000006195069,4|8,0:0|0:0,0:0:0:0:
440,32,98104,1,0,0:0:0:0:
300,192,98245,2,0,P|283:252|283:294,1,101.500003097534,0|2,2:0|2:0,0:0:0:0:
388,372,98528,2,0,P|405:312|405:270,1,101.500003097534,8|0,0:0|0:0,0:0:0:0:
405,273,98741,1,0,0:0:0:0:
405,273,98811,6,0,B|311:255|291:314|191:289,1,203.000006195069,6|8,0:0|0:0,0:0:0:0:
80,352,99236,2,0,P|39:279|91:176,1,203.000006195069,2|2,0:0|2:0,0:0:0:0:
196,24,99660,2,0,P|237:97|185:200,1,203.000006195069,8|4,0:0|0:0,0:0:0:0:
256,288,100085,6,0,P|300:236|339:229,1,101.500003097534,0|8,2:0|0:0,0:0:0:0:
428,72,100368,2,0,P|384:124|345:131,1,101.500003097534,0|0,0:0|2:0,0:0:0:0:
136,108,100651,1,2,2:0:0:0:
324,40,100792,1,8,0:0:0:0:
104,208,100934,1,0,2:0:0:0:
216,52,101075,6,0,P|269:134|233:229,1,203.000006195069,0|4,0:0|0:2,0:0:0:0:
52,288,101500,1,2,2:0:0:0:
52,288,101642,2,0,L|260:312,1,203.000006195069,0|4,2:0|0:2,0:0:0:0:
428,152,102066,1,0,0:0:0:0:
324,220,102208,6,0,P|294:170|293:121,1,101.500003097534,4|0,0:0|2:0,0:0:0:0:
164,32,102491,2,0,P|194:82|195:131,1,101.500003097534,8|0,0:0|2:0,0:0:0:0:
196,124,102703,1,0,2:0:0:0:
196,124,102774,2,0,L|88:160,1,101.500003097534,0|2,2:0|2:0,0:0:0:0:
292,124,103057,2,0,L|388:92,1,101.500003097534,8|8,0:0|0:0,0:0:0:0:
464,200,103340,6,0,P|368:225|325:320,1,203.000006195069,4|8,0:0|0:0,0:0:0:0:
52,140,103764,2,0,P|148:165|191:260,1,203.000006195069,4|2,0:0|2:0,0:0:0:0:
88,48,104189,1,8,0:0:0:0:
424,48,104472,6,0,L|216:96,1,203.000006195069,4|8,0:0|0:0,0:0:0:0:
88,336,104896,2,0,L|296:288,1,203.000006195069,4|2,0:0|2:0,0:0:0:0:
96,236,105321,1,8,0:0:0:0:
424,240,105604,6,0,P|388:164|278:195,1,203.000006195069,4|8,0:0|0:0,0:0:0:0:
224,320,106028,2,0,P|132:344|85:262,1,203.000006195069,4|2,0:0|2:0,0:0:0:0:
120,104,106453,1,8,0:0:0:0:
320,60,106594,1,4,0:3:0:0:
256,240,106736,1,4,0:0:0:0:
256,192,106877,12,0,111264,2:0:0:0:
