osu file format v14

[General]
AudioFilename: audio.mp3
AudioLeadIn: 1500
PreviewTime: 77093
Countdown: 0
SampleSet: None
StackLeniency: 0.7
Mode: 0
LetterboxInBreaks: 0
WidescreenStoryboard: 0

[Editor]
DistanceSpacing: 1.5
BeatDivisor: 4
GridSize: 4
TimelineZoom: 1.6

[Metadata]
Title:Ai YOU READY Ai Wo READY
TitleUnicode:爱YOU READY爱我READY
Artist:Lv Xing Tuan Yue Dui, Kong Yang
ArtistUnicode:旅行团乐队、孔阳
Creator:tutuhaha
Version:Insane
Source:狐妖小红娘
Tags:Sun Rainbow opening short ver
BeatmapID:1398352
BeatmapSetID:621562

[Difficulty]
HPDrainRate:7
CircleSize:4
OverallDifficulty:7
ApproachRate:9
SliderMultiplier:1.8
SliderTickRate:1

[Events]
//Background and Video events
0,0,"bg.jpg",0,0
//Break Periods
//Storyboard Layer 0 (Background)
//Storyboard Layer 1 (Fail)
//Storyboard Layer 2 (Pass)
//Storyboard Layer 3 (Foreground)
//Storyboard Sound Samples

[TimingPoints]
750,340.909090909091,4,1,1,40,1,0
55295,-200,4,2,1,40,0,0
65522,-100,4,2,1,40,0,0
66204,-200,4,2,1,40,0,0
74215,-200,4,1,1,40,0,0
74386,-100,4,1,1,40,0,0
76772,-66.6666666666667,4,1,1,40,0,0
77113,-100,4,1,1,40,0,1
98590,-100,4,1,1,40,0,0
98931,-100,4,1,1,40,0,1
109670,-100,4,1,1,40,0,0
109755,-100,4,2,1,10,0,0

[Colours]
Combo1 : 241,185,67
Combo2 : 223,58,30
Combo3 : 192,192,192

[HitObjects]
204,348,750,5,4,0:0:0:0:
204,348,920,1,0,0:0:0:0:
72,140,1261,1,0,0:0:0:0:
64,380,1602,1,0,0:0:0:0:
156,112,1943,1,0,0:0:0:0:
156,112,2113,6,0,L|164:20,1,90,0|0,0:0|0:0,0:0:0:0:
56,188,2454,1,8,0:0:0:0:
268,136,2625,1,0,0:0:0:0:
268,136,2710,1,0,0:0:0:0:
268,136,2795,2,0,L|280:80,3,45,0|0|0|0,0:0|0:0|0:0|0:0,0:0:0:0:
344,204,3136,2,0,L|388:160,3,45,0|0|0|0,0:0|0:0|0:0|0:0,0:0:0:0:
364,304,3477,5,4,0:0:0:0:
364,304,3647,1,0,0:0:0:0:
192,252,3988,1,0,0:0:0:0:
416,376,4329,1,0,0:0:0:0:
408,20,4670,1,0,0:0:0:0:
336,128,4840,6,0,L|348:224,1,90,0|0,0:0|0:0,0:0:0:0:
216,60,5181,1,8,0:0:0:0:
432,96,5352,1,0,0:0:0:0:
432,96,5437,1,0,0:0:0:0:
432,96,5522,2,0,L|448:160,3,45,0|0|0|0,0:0|0:0|0:0|0:0,0:0:0:0:
484,208,5863,2,0,L|480:264,3,45,0|0|0|0,0:0|0:0|0:0|0:0,0:0:0:0:
404,284,6204,5,4,0:0:0:0:
404,284,6375,1,0,0:0:0:0:
224,164,6715,1,0,0:0:0:0:
304,360,7056,1,0,0:0:0:0:
340,136,7397,1,0,0:0:0:0:
256,252,7568,5,0,0:0:0:0:
256,252,7738,1,0,0:0:0:0:
256,72,7909,1,8,0:0:0:0:
376,236,8079,1,0,0:0:0:0:
376,236,8164,1,0,0:0:0:0:
376,236,8250,2,0,P|360:296|360:300,3,45,0|0|0|0,0:0|0:0|0:0|0:0,0:0:0:0:
288,328,8590,2,0,L|300:376,3,45,8|0|0|0,0:0|0:0|0:0|0:0,0:0:0:0:
256,252,8931,6,4,P|264:200|248:144,1,90,4|0,0:0|0:0,0:0:0:0:
172,44,9272,1,8,0:0:0:0:
144,208,9443,1,0,0:0:0:0:
352,160,9613,2,0,P|336:108|292:64,1,90,0|0,0:0|0:0,0:0:0:0:
172,44,9954,1,8,0:0:0:0:
404,20,10125,1,8,0:0:0:0:
380,244,10295,5,0,0:0:0:0:
292,24,10465,1,0,0:0:0:0:
292,24,10551,1,0,0:0:0:0:
292,24,10636,1,8,0:0:0:0:
240,204,10806,2,0,P|220:264|204:292,1,90,0|8,0:0|0:0,0:0:0:0:
160,132,11147,1,0,0:0:0:0:
328,272,11318,1,8,0:0:0:0:
24,360,11488,1,0,0:0:0:0:
84,232,11659,6,4,L|80:128,1,90,4|0,0:0|0:0,0:0:0:0:
176,16,12000,1,8,0:0:0:0:
212,176,12170,2,0,P|204:240|208:356,1,180,0|0,0:0|0:0,0:0:0:0:
84,232,12681,2,8,L|80:128,1,90,8|0,0:0|0:0,0:0:0:0:
208,64,13022,5,0,0:0:0:0:
288,280,13193,1,0,0:0:0:0:
112,256,13363,2,8,P|116:196|96:148,1,90,8|0,0:0|0:0,0:0:0:0:
60,88,13619,1,0,0:0:0:0:
60,88,13704,1,0,0:0:0:0:
220,192,13875,1,0,0:0:0:0:
288,36,14045,1,8,0:0:0:0:
216,292,14215,5,0,0:0:0:0:
216,292,14301,1,0,0:0:0:0:
216,292,14386,2,0,P|168:304|120:340,1,90,4|0,0:0|0:0,0:0:0:0:
336,312,14727,1,8,0:0:0:0:
240,164,14897,2,0,P|204:112|220:-8,1,180,0|0,0:0|0:0,0:0:0:0:
352,156,15409,1,8,0:0:0:0:
216,292,15579,1,0,0:0:0:0:
244,108,15750,6,0,P|284:68|296:24,1,90,0|0,0:0|0:0,0:0:0:0:
144,188,16090,2,8,P|124:140|128:76,1,90,8|0,0:0|0:0,0:0:0:0:
128,24,16346,1,0,0:0:0:0:
128,24,16431,2,0,L|24:20,1,90,0|0,0:0|0:0,0:0:0:0:
16,208,16772,2,8,L|112:204,1,90,8|0,0:0|0:0,0:0:0:0:
260,64,17113,6,0,P|304:48|368:48,1,90,4|0,0:0|0:0,0:0:0:0:
480,72,17454,1,8,0:0:0:0:
304,136,17625,2,0,P|256:84|140:68,1,180,0|0,0:0|0:0,0:0:0:0:
60,164,18136,2,8,L|56:268,1,90,8|0,0:0|0:0,0:0:0:0:
200,344,18477,5,0,0:0:0:0:
184,168,18647,1,0,0:0:0:0:
296,272,18818,2,8,P|352:292|392:328,1,90,8|0,0:0|0:0,0:0:0:0:
340,152,19159,2,0,P|324:104|328:48,1,90,0|0,0:0|0:0,0:0:0:0:
476,40,19500,1,8,0:0:0:0:
432,208,19670,1,0,0:0:0:0:
236,80,19840,6,4,P|200:44|152:28,1,90,4|0,0:0|0:0,0:0:0:0:
36,68,20181,1,8,0:0:0:0:
124,172,20352,1,0,0:0:0:0:
124,172,20437,1,0,0:0:0:0:
124,172,20522,1,0,0:0:0:0:
48,284,20693,1,0,0:0:0:0:
268,220,20863,1,8,0:0:0:0:
88,76,21034,5,0,0:0:0:0:
88,76,21119,1,0,0:0:0:0:
88,76,21204,2,4,P|136:72|200:84,1,90,4|0,0:0|0:0,0:0:0:0:
376,248,21545,2,8,P|444:240|480:224,1,90,8|0,0:0|0:0,0:0:0:0:
364,40,21886,2,0,P|312:48|264:68,1,90,0|8,0:0|0:0,0:0:0:0:
124,272,22227,2,8,P|79:277|35:269,1,90,0|8,0:0|0:0,0:0:0:0:
156,24,22568,5,4,0:0:0:0:
276,140,22738,1,0,0:0:0:0:
380,16,22909,1,8,0:0:0:0:
156,24,23079,2,0,P|128:72|-8:132,1,180,0|0,0:0|0:0,0:0:0:0:
168,176,23590,2,8,P|216:196|248:236,1,90,8|0,0:0|0:0,0:0:0:0:
392,372,23931,5,0,0:0:0:0:
392,372,24102,1,0,0:0:0:0:
328,264,24272,2,8,L|336:136,1,90,8|0,0:0|0:0,0:0:0:0:
340,96,24528,1,0,0:0:0:0:
340,96,24613,1,0,0:0:0:0:
428,212,24784,1,0,0:0:0:0:
240,108,24954,1,8,0:0:0:0:
456,28,25125,5,0,0:0:0:0:
456,28,25210,1,0,0:0:0:0:
456,28,25295,2,0,L|444:136,1,90,4|0,0:0|0:0,0:0:0:0:
404,344,25636,1,8,0:0:0:0:
253,199,25806,2,0,P|305:187|441:219,1,180,0|0,0:0|0:0,0:0:0:0:
316,344,26318,1,8,0:0:0:0:
228,112,26488,1,0,0:0:0:0:
124,256,26659,6,0,P|120:296|120:348,1,90,0|0,0:0|0:0,0:0:0:0:
40,172,27000,2,8,P|48:120|48:76,1,90,8|0,0:0|0:0,0:0:0:0:
92,24,27255,1,0,0:0:0:0:
92,24,27340,2,0,P|140:40|192:40,1,90,0|0,0:0|0:0,0:0:0:0:
400,76,27681,2,8,P|340:96|288:128,1,90,8|0,0:0|0:0,0:0:0:0:
180,212,28022,5,4,0:0:0:0:
264,16,28193,1,0,0:0:0:0:
332,212,28363,1,8,0:0:0:0:
140,99,28534,2,0,P|228:87|316:108,1,180
424,292,29045,2,8,P|376:260|344:216,1,90,8|0,0:0|0:0,0:0:0:0:
445,108,29386,6,0,P|447:63|436:19,1,90
220,68,29727,2,0,P|211:112|217:156,1,90,8|0,0:0|0:0,0:0:0:0:
253,312,30068,1,0,0:0:0:0:
121,228,30238,1,0,0:0:0:0:
329,204,30409,1,8,0:0:0:0:
165,384,30579,1,0,0:0:0:0:
144,108,30750,5,4,0:0:0:0:
256,192,30835,12,8,33136,0:0:0:0:
376,120,33477,5,4,0:0:0:0:
376,120,33818,2,8,B|384:48|384:48|408:16,1,90,8|0,0:0|0:0,0:0:0:0:
440,204,34159,2,0,P|396:160|276:140,1,180,0|8,0:0|0:0,0:0:0:0:
172,184,34670,1,0,0:0:0:0:
52,124,34840,6,0,P|48:72|64:24,1,90,0|0,0:0|0:0,0:0:0:0:
172,184,35181,1,8,0:0:0:0:
361,271,35352,2,0,P|272:269|200:320,1,180
500,320,35863,1,8,0:0:0:0:
452,192,36034,1,0,0:0:0:0:
376,368,36204,6,4,L|272:356,1,90,4|0,0:0|0:0,0:0:0:0:
68,352,36545,2,8,B|160:324|160:324|224:260,1,180,8|0,0:0|0:0,0:0:0:0:
332,144,37056,1,0,0:0:0:0:
240,32,37227,1,8,0:0:0:0:
364,212,37397,5,0,0:0:0:0:
364,212,37482,1,0,0:0:0:0:
364,212,37568,1,0,0:0:0:0:
264,64,37738,1,0,0:0:0:0:
488,100,37909,1,8,0:0:0:0:
368,264,38079,2,0,B|280:248|280:248|176:264,1,180,0|0,0:0|0:0,0:0:0:0:
76,192,38590,2,8,L|188:176,1,90,8|0,0:0|0:0,0:0:0:0:
276,336,38931,6,0,L|368:352,1,90,0|0,0:0|0:0,0:0:0:0:
488,200,39272,2,8,B|392:236|392:236|304:240,2,180,8|0|8,0:0|0:0|0:0,0:0:0:0:
448,68,40125,1,0,0:0:0:0:
316,100,40295,6,0,P|244:84|216:56,1,90,0|0,0:0|0:0,0:0:0:0:
108,24,40636,1,8,0:0:0:0:
52,208,40806,2,8,P|108:244|128:368,1,180,0|0,0:0|0:0,0:0:0:0:
168,172,41318,2,8,P|128:136|80:120,1,90,8|0,0:0|0:0,0:0:0:0:
48,60,41573,5,0,0:0:0:0:
48,60,41659,2,4,P|104:72|244:40,1,180,4|8,0:0|0:0,0:0:0:0:
360,40,42170,1,0,0:0:0:0:
292,156,42340,2,0,P|256:200|248:244,1,90,0|0,0:0|0:0,0:0:0:0:
436,352,42681,2,8,P|424:300|384:264,1,90,8|0,0:0|0:0,0:0:0:0:
368,204,42937,5,0,0:0:0:0:
368,204,43022,1,0,0:0:0:0:
288,92,43193,1,0,0:0:0:0:
472,184,43363,1,8,0:0:0:0:
280,244,43534,1,0,0:0:0:0:
448,360,43704,1,8,0:0:0:0:
476,152,43875,1,0,0:0:0:0:
476,152,43960,1,0,0:0:0:0:
476,152,44045,1,8,0:0:0:0:
452,328,44215,1,0,0:0:0:0:
320,136,44386,6,4,L|352:28,1,90,4|0,0:0|0:0,0:0:0:0:
220,152,44727,2,8,B|212:244|212:244|240:292|244:340,2,180,8|0|8,0:0|0:0|0:0,0:0:0:0:
240,20,45579,5,0,0:0:0:0:
240,20,45664,1,0,0:0:0:0:
240,20,45750,1,0,0:0:0:0:
292,180,45920,1,0,0:0:0:0:
148,60,46090,1,8,0:0:0:0:
328,72,46261,1,0,0:0:0:0:
164,168,46431,2,0,L|148:280,1,90,0|0,0:0|0:0,0:0:0:0:
304,132,46772,2,8,L|316:42,1,90,8|0,0:0|0:0,0:0:0:0:
396,88,47028,5,0,0:0:0:0:
396,88,47113,2,4,P|392:152|412:192,1,90,4|0,0:0|0:0,0:0:0:0:
484,320,47454,2,8,P|436:276|316:268,2,180,8|0|8,0:0|0:0|0:0,0:0:0:0:
344,356,48306,5,0,0:0:0:0:
344,356,48392,1,0,0:0:0:0:
344,356,48477,1,0,0:0:0:0:
268,180,48647,1,0,0:0:0:0:
164,312,48818,2,8,P|212:296|276:292,1,90,8|0,0:0|0:0,0:0:0:0:
452,132,49159,2,8,P|404:116|356:68,1,90,8|0,0:0|0:0,0:0:0:0:
56,28,49500,2,8,L|64:136,1,90,8|0,0:0|0:0,0:0:0:0:
120,360,49840,6,0,B|152:296|152:296|216:292|260:220,1,180,0|8,0:0|0:0,0:0:0:0:
352,168,50352,1,0,0:0:0:0:
440,32,50522,2,0,B|436:116|436:116|460:160|444:216,1,180,0|8,0:0|0:0,0:0:0:0:
332,64,51034,1,0,0:0:0:0:
324,200,51204,6,0,P|312:248|280:288,1,90,0|0,0:0|0:0,0:0:0:0:
112,160,51545,1,8,0:0:0:0:
112,160,51715,2,0,B|160:160|232:200|232:200|228:176|248:136|264:136,1,180
100,68,52227,1,8,0:0:0:0:
128,264,52397,1,0,0:0:0:0:
308,96,52568,6,0,P|264:72|208:80,1,90,4|0,0:0|0:0,0:0:0:0:
44,228,52909,2,8,B|96:184|172:184|172:184|184:212|224:228,2,180,8|0|8,0:0|0:0|0:0,0:0:0:0:
32,364,53761,5,0,0:0:0:0:
32,364,53846,1,0,0:0:0:0:
32,364,53931,1,4,0:0:0:0:
16,184,54102,1,0,0:0:0:0:
144,344,54272,2,8,P|192:360|244:360,1,90,8|0,0:0|0:0,0:0:0:0:
344,256,54613,1,4,0:0:0:0:
220,280,54784,1,0,0:0:0:0:
408,368,54954,1,8,0:0:0:0:
404,152,55125,1,0,0:0:0:0:
220,280,55295,6,4,B|172:300|172:300|116:280|96:336|36:300,1,180,4|8,0:0|0:1,0:0:0:0:
47,306,56659,2,0,L|48:252,1,45,0|0,1:0|3:3,0:0:0:0:
56,88,57170,1,0,3:3:0:0:
56,88,57340,1,8,0:1:0:0:
188,276,58022,6,0,B|232:304|232:304|280:292|320:276|364:316,1,180,0|8,1:0|0:1,1:0:0:0:
354,308,59386,1,0,1:0:0:0:
504,368,59897,1,0,1:0:0:0:
504,368,60068,1,8,0:1:0:0:
448,184,60579,5,8,0:1:0:0:
448,184,60750,2,4,B|396:160|380:112|380:112|400:68|372:28,1,180,4|8,0:0|0:1,0:0:0:0:
377,37,62113,2,0,L|324:24,1,45,0|0,1:0|3:3,0:0:0:0:
148,64,62625,1,0,3:3:0:0:
148,64,62795,1,8,0:1:0:0:
120,368,63477,6,0,B|184:360|184:360|228:336|308:348,1,180,0|8,1:0|0:1,1:0:0:0:
280,268,64500,2,0,B|236:260|196:272|196:272|144:268|108:212,1,180,0|0,1:0|1:0,0:0:0:0:
117,224,65522,6,8,P|129:191|125:123,1,90,8|0,0:1|1:0,0:0:0:0:
120,36,65863,1,8,0:1:0:0:
48,176,66034,1,8,0:1:0:0:
204,80,66204,6,4,B|244:84|280:64|280:64|344:48|388:92,1,180,4|8,0:0|0:1,0:0:0:0:
376,81,67568,2,0,L|416:44,1,45,0|0,1:0|3:3,0:0:0:0:
368,260,68079,1,0,3:3:0:0:
368,260,68250,1,8,0:1:0:0:
208,56,68931,6,0,B|160:40|160:40|112:72|72:24|16:48,2,180,0|8|0,1:0|0:1|1:0,1:0:0:0:
136,320,70806,1,0,3:3:0:0:
136,320,70977,1,8,0:1:0:0:
208,56,71488,5,0,0:0:0:0:
208,56,71573,1,0,0:0:0:0:
208,56,71659,2,4,B|212:132|212:132|228:160|224:204,2,135,4|0|0,0:0|3:3|3:3,0:0:0:0:
312,144,73022,5,0,0:0:0:0:
312,144,73193,2,0,B|312:192|312:192|304:228|284:248,1,90,8|0,0:1|3:3,0:0:0:0:
192,352,73875,1,0,3:3:0:0:
188,232,74045,1,0,3:3:0:0:
324,364,74215,5,0,0:0:0:0:
324,364,74301,1,0,0:0:0:0:
324,364,74386,1,4,0:0:0:0:
344,160,74556,1,0,0:0:0:0:
428,292,74727,2,0,P|468:268|504:216,1,90,0|0,0:0|0:0,0:0:0:0:
376,72,75068,2,0,B|320:64|320:64|272:76,1,90,0|8,0:0|0:0,0:0:0:0:
84,244,75409,2,0,B|140:252|140:252|188:240,1,90
48,72,75750,5,8,0:0:0:0:
464,72,76431,5,0,0:0:0:0:
480,256,76602,1,0,0:0:0:0:
368,84,76772,2,8,B|376:36|368:12|368:12|316:76|256:92,1,202.500007724762,8|0,3:3|0:0,3:3:0:0:
136,156,77113,6,4,P|184:152|252:168,1,90,4|0,0:0|0:0,0:0:0:0:
304,268,77454,1,8,0:0:0:0:
128,304,77625,2,0,P|124:244|32:156,1,180,0|0,0:0|0:0,0:0:0:0:
208,92,78136,2,8,P|272:68|296:24,1,90,8|0,0:0|0:0,0:0:0:0:
68,36,78477,6,0,L|72:152,1,90,0|0,0:0|0:0,0:0:0:0:
256,300,78818,2,8,L|244:192,1,90,8|0,0:0|0:0,0:0:0:0:
80,16,79159,2,0,B|88:144|88:144|56:200,1,180,0|8,0:0|0:0,0:0:0:0:
62,188,79840,6,0,P|110:208|134:248,1,90,0|0,0:0|0:0,0:0:0:0:
300,280,80181,2,8,P|304:328|288:372,1,90,8|0,0:0|0:0,0:0:0:0:
36,300,80522,1,0,0:0:0:0:
204,188,80693,1,0,0:0:0:0:
32,120,80863,2,0,P|24:76|40:20,1,90,8|0,0:0|0:0,0:0:0:0:
312,124,81204,5,0,0:0:0:0:
72,84,81375,1,0,0:0:0:0:
276,32,81545,2,0,P|284:76|268:132,1,90,8|0,0:0|0:0,0:0:0:0:
184,280,81886,1,0,0:0:0:0:
144,76,82056,1,8,0:0:0:0:
327,144,82227,1,0,0:0:0:0:
184,280,82397,1,8,0:0:0:0:
416,140,82568,6,0,P|372:135|328:144,1,90,0|0,0:0|0:0,0:0:0:0:
400,300,82909,1,8,0:0:0:0:
472,80,83079,2,0,P|416:60|268:84,1,180,0|0,0:0|0:0,0:0:0:0:
204,208,83590,2,8,P|144:224|96:220,1,90,8|0,0:0|0:0,0:0:0:0:
12,60,83931,6,0,L|112:76,1,90,0|0,0:0|0:0,0:0:0:0:
316,188,84272,2,8,L|216:204,1,90,8|0,0:0|0:0,0:0:0:0:
24,312,84613,2,0,B|140:328|140:328|200:364,1,180,0|8,0:0|0:0,0:0:0:0:
193,360,85295,6,4,P|252:360|288:336,1,90,4|0,0:0|0:0,0:0:0:0:
420,149,85636,2,8,P|456:175|476:216,1,90,8|0,0:0|0:0,0:0:0:0:
184,152,85977,1,0,0:0:0:0:
312,56,86147,1,0,0:0:0:0:
340,252,86318,2,0,P|316:296|272:324,1,90,8|0,0:0|0:0,0:0:0:0:
144,116,86659,6,8,B|92:100|92:100|32:108,1,90,0|0,0:0|0:0,0:0:0:0:
4,360,87000,2,8,B|56:376|56:376|116:368,1,90,8|0,0:0|0:0,0:0:0:0:
168,236,87340,1,0,0:0:0:0:
192,80,87511,1,8,0:0:0:0:
24,168,87681,1,0,0:0:0:0:
168,236,87852,6,8,L|164:296,2,45,8|0|4,0:0|0:0|0:0,0:0:0:0:
192,80,88193,1,0,0:0:0:0:
56,136,88363,1,8,0:0:0:0:
272,208,88534,2,0,P|332:216|440:144,1,180,0|0,0:0|0:0,0:0:0:0:
448,360,89045,2,8,P|400:328|336:320,1,90,8|0,0:0|0:0,0:0:0:0:
142,320,89386,6,0,P|99:333|64:360,1,90,0|0,0:0|0:0,0:0:0:0:
256,224,89727,2,8,P|236:176|240:112,1,90,8|0,0:0|0:0,0:0:0:0:
440,0,90068,2,0,B|432:124|432:124|460:212,1,180,0|8,0:0|0:0,0:0:0:0:
448,177,90750,6,0,L|352:160,1,90,0|0,0:0|0:0,0:0:0:0:
200,296,91090,2,8,L|84:280,1,90,8|0,0:0|0:0,0:0:0:0:
16,36,91431,2,8,L|105:48,1,90,0|0,0:0|0:0,0:0:0:0:
244,188,91772,2,0,L|333:200,1,90,8|0,0:0|0:0,0:0:0:0:
116,336,92113,6,0,P|68:344|0:336,1,90
128,180,92454,1,8,0:0:0:0:
328,128,92625,1,0,0:0:0:0:
160,64,92795,1,0,0:0:0:0:
248,248,92965,1,8,0:0:0:0:
272,56,93136,1,0,0:0:0:0:
120,160,93306,1,8,0:0:0:0:
336,168,93477,6,0,P|408:172|444:192,1,90,0|0,0:0|0:0,0:0:0:0:
460,312,93818,1,8,0:0:0:0:
464,64,93988,2,0,P|404:56|280:116,1,180,0|0,0:0|0:0,0:0:0:0:
200,316,94500,2,8,P|140:320|104:308,1,90,8|0,0:0|0:0,0:0:0:0:
56,156,94840,5,0,0:0:0:0:
24,332,95011,1,0,0:0:0:0:
152,176,95181,2,8,P|200:160|240:112,1,90,8|0,0:0|0:0,0:0:0:0:
0,72,95522,2,0,P|44:40|192:64,1,180,0|8,0:0|0:0,0:0:0:0:
456,80,96034,1,0,0:0:0:0:
324,112,96204,6,0,P|272:128|232:164,1,90,4|0,0:0|0:0,0:0:0:0:
72,336,96545,2,0,P|32:296|16:232,1,90,8|0,0:0|0:0,0:0:0:0:
280,28,96886,2,0,P|336:72|372:180,1,180,0|8,0:0|0:0,0:0:0:0:
240,360,97397,1,0,0:0:0:0:
180,236,97568,6,0,B|200:124|200:128,1,90
420,56,97909,2,0,L|408:152,1,90,8|0,0:0|0:0,0:0:0:0:
376,328,98250,1,8,0:0:0:0:
224,96,98420,1,8,0:0:0:0:
384,143,98590,2,0,L|372:232,1,90,8|8,0:0|0:0,0:0:0:0:
191,308,98931,6,12,P|236:308|280:320,1,90,12|0,0:0|0:0,0:0:0:0:
48,341,99272,2,8,P|25:303|16:260,1,90,8|0,0:0|0:0,0:0:0:0:
168,180,99613,2,8,L|176:84,1,90,8|0,0:0|0:0,0:0:0:0:
48,12,99954,2,8,L|40:101,1,90,8|0,0:0|0:0,0:0:0:0:
168,180,100295,6,8,P|216:176|272:196,1,90,8|0,0:0|0:0,0:0:0:0:
376,344,100636,2,8,P|348:304|337:245,1,90,8|0,0:0|0:0,0:0:0:0:
400,152,100977,2,8,L|500:188,1,90,8|0,0:0|0:0,0:0:0:0:
396,32,101318,2,8,L|311:1,1,90,8|0,0:0|0:0,0:0:0:0:
204,72,101659,5,12,0:0:0:0:
80,20,101829,1,0,0:0:0:0:
136,196,102000,1,8,0:0:0:0:
80,20,102170,1,0,0:0:0:0:
208,156,102340,5,12,0:0:0:0:
332,104,102511,1,0,0:0:0:0:
276,280,102681,1,8,0:0:0:0:
332,104,102852,1,0,0:0:0:0:
196,240,103022,5,12,0:0:0:0:
72,188,103193,1,0,0:0:0:0:
128,364,103363,1,8,0:0:0:0:
72,188,103534,1,0,0:0:0:0:
216,276,103704,6,8,P|220:212|236:164,1,90,8|0,0:0|0:0,0:0:0:0:
384,272,104045,1,8,0:0:0:0:
232,368,104215,1,8,0:0:0:0:
232,84,104386,6,12,P|288:68|328:36,1,90,12|0,0:0|0:0,0:0:0:0:
472,72,104727,2,8,P|430:31|382:12,1,90,8|0,0:0|0:0,0:0:0:0:
388,176,105068,2,8,L|488:160,1,90,8|0,0:0|0:0,0:0:0:0:
304,312,105409,2,8,L|204:296,1,90,8|0,0:0|0:0,0:0:0:0:
208,144,105750,6,8,P|168:176|100:184,1,90,8|0,0:0|0:0,0:0:0:0:
0,48,106090,2,8,P|47:66|88:121,1,90,8|0,0:0|0:0,0:0:0:0:
88,272,106431,2,8,L|100:368,1,90,8|0,0:0|0:0,0:0:0:0:
252,240,106772,2,8,L|263:150,1,90,8|0,0:0|0:0,0:0:0:0:
360,52,107113,5,12,0:0:0:0:
224,32,107284,1,0,0:0:0:0:
364,156,107454,1,8,0:0:0:0:
224,32,107625,1,0,0:0:0:0:
148,196,107795,2,8,P|164:248|144:304,1,90,8|0,0:0|0:0,0:0:0:0:
40,120,108136,1,8,0:0:0:0:
136,16,108306,1,0,0:0:0:0:
232,172,108477,6,8,L|332:160,1,90,8|0,0:0|0:0,0:0:0:0:
436,92,108818,1,8,0:0:0:0:
440,228,108988,1,0,0:0:0:0:
276,84,109159,2,8,L|186:94,1,90,8|8,0:0|0:0,0:0:0:0:
92,244,109500,1,8,0:0:0:0:
24,40,109670,1,8,0:0:0:0:
256,192,109755,12,0,112227,0:0:0:0:
