osu file format v14

[General]
AudioFilename: audio.mp3
AudioLeadIn: 1500
PreviewTime: 77093
Countdown: 0
SampleSet: Normal
StackLeniency: 0.7
Mode: 0
LetterboxInBreaks: 0
WidescreenStoryboard: 0

[Editor]
DistanceSpacing: 1.5
BeatDivisor: 4
GridSize: 4
TimelineZoom: 1.6

[Metadata]
Title:Ai YOU READY Ai Wo READY
TitleUnicode:爱YOU READY爱我READY
Artist:Lv Xing Tuan Yue Dui, Kong Yang
ArtistUnicode:旅行团乐队、孔阳
Creator:tutuhaha
Version:Extra
Source:狐妖小红娘
Tags:Sun Rainbow opening short ver
BeatmapID:1311241
BeatmapSetID:621562

[Difficulty]
HPDrainRate:7
CircleSize:4.3
OverallDifficulty:8
ApproachRate:9.2
SliderMultiplier:2
SliderTickRate:1

[Events]
//Background and Video events
0,0,"bg.jpg",0,0
//Break Periods
//Storyboard Layer 0 (Background)
//Storyboard Layer 1 (Fail)
//Storyboard Layer 2 (Pass)
//Storyboard Layer 3 (Foreground)
//Storyboard Sound Samples

[TimingPoints]
750,340.909090909091,4,1,1,40,1,0
10806,-83.3333333333333,4,1,1,40,0,0
11147,-100,4,1,1,40,0,0
55295,-200,4,2,1,40,0,0
74215,-200,4,1,1,40,0,0
76772,-66.6666666666667,4,1,1,40,0,0
77113,-100,4,1,1,40,0,1
77625,-83.3333333333333,4,1,1,40,0,1
77965,-100,4,1,1,40,0,1
79159,-83.3333333333333,4,1,1,40,0,1
79500,-100,4,1,1,40,0,1
83079,-83.3333333333333,4,1,1,40,0,1
83420,-100,4,1,1,40,0,1
85295,-83.3333333333333,4,1,1,40,0,1
86659,-100,4,1,1,40,0,1
88534,-83.3333333333333,4,1,1,40,0,1
88875,-100,4,1,1,40,0,1
90068,-83.3333333333333,4,1,1,40,0,1
90409,-100,4,1,1,40,0,1
93988,-83.3333333333333,4,1,1,40,0,1
94329,-100,4,1,1,40,0,1
96204,-83.3333333333333,4,1,1,40,0,1
97568,-100,4,1,1,40,0,1
98590,-100,4,1,1,40,0,0
98931,-100,4,1,1,40,0,1
109670,-100,4,1,1,40,0,0
109755,-100,4,2,1,10,0,0

[Colours]
Combo1 : 241,185,67
Combo2 : 223,58,30
Combo3 : 192,192,192

[HitObjects]
472,340,750,5,4,0:0:0:0:
440,96,920,1,0,0:0:0:0:
472,340,1261,1,0,0:0:0:0:
440,96,1602,1,0,0:0:0:0:
472,340,1943,1,0,0:0:0:0:
360,28,2113,5,0,0:0:0:0:
316,144,2284,1,0,0:0:0:0:
344,16,2454,1,8,0:0:0:0:
300,184,2625,2,0,L|304:244,1,50
264,300,2795,1,0,0:0:0:0:
264,300,2880,1,0,0:0:0:0:
264,300,2965,1,0,0:0:0:0:
264,300,3051,1,0,0:0:0:0:
300,332,3136,2,0,L|304:384,3,50
303,234,3477,5,4,0:0:0:0:
80,364,3647,1,0,0:0:0:0:
303,234,3988,1,0,0:0:0:0:
80,364,4329,1,0,0:0:0:0:
303,234,4670,1,0,0:0:0:0:
120,32,4840,5,0,0:0:0:0:
232,260,5011,1,0,0:0:0:0:
276,24,5181,1,8,0:0:0:0:
108,72,5352,2,0,L|92:132,1,50
36,184,5522,2,0,L|20:132,3,50
40,308,5863,2,0,L|64:384,3,50
88,244,6204,5,4,0:0:0:0:
220,24,6375,1,0,0:0:0:0:
88,244,6715,1,0,0:0:0:0:
220,24,7056,1,0,0:0:0:0:
88,244,7397,1,0,0:0:0:0:
312,68,7568,5,0,0:0:0:0:
92,64,7738,1,0,0:0:0:0:
312,68,7909,1,8,0:0:0:0:
312,68,8079,2,0,L|376:72,1,50
424,148,8250,2,0,L|360:152,1,50
464,56,8420,2,0,L|412:16,1,50
452,172,8590,2,0,L|340:184,1,100,8|0,0:0|0:0,0:0:0:0:
144,208,8931,5,4,0:0:0:0:
312,272,9102,1,0,0:0:0:0:
176,124,9272,1,8,0:0:0:0:
140,316,9443,1,0,0:0:0:0:
288,128,9613,1,0,0:0:0:0:
288,128,9784,1,0,0:0:0:0:
108,32,9954,1,8,0:0:0:0:
216,364,10125,1,8,0:0:0:0:
396,92,10295,5,0,0:0:0:0:
28,184,10465,1,0,0:0:0:0:
28,184,10551,1,0,0:0:0:0:
28,184,10636,1,8,0:0:0:0:
296,376,10806,2,0,B|280:240|280:240|296:184|272:140,1,239.999992675781,0|8,0:0|0:0,0:0:0:0:
80,304,11318,1,0,0:0:0:0:
376,356,11488,1,8,0:0:0:0:
88,160,11659,5,4,0:0:0:0:
344,192,11829,1,0,0:0:0:0:
68,288,12000,1,8,0:0:0:0:
192,56,12170,2,0,P|212:112|168:260,1,200
72,108,12681,1,8,0:0:0:0:
312,28,12852,1,0,0:0:0:0:
96,16,13022,5,0,0:0:0:0:
96,16,13193,1,0,0:0:0:0:
280,196,13363,1,8,0:0:0:0:
280,196,13534,2,0,L|264:248,1,50
236,328,13704,1,0,0:0:0:0:
324,92,13875,1,0,0:0:0:0:
384,324,14045,1,8,0:0:0:0:
192,8,14215,2,0,L|188:80,1,50
184,128,14386,5,4,0:0:0:0:
228,360,14556,1,0,0:0:0:0:
284,116,14727,1,8,0:0:0:0:
92,232,14897,2,0,P|190:247|286:223,1,200
188,28,15409,1,8,0:0:0:0:
286,223,15579,1,0,0:0:0:0:
24,172,15750,5,0,0:0:0:0:
320,156,15920,1,0,0:0:0:0:
72,8,16090,1,8,0:0:0:0:
196,152,16261,2,0,L|172:204,1,50
156,280,16431,1,0,0:0:0:0:
156,280,16517,1,0,0:0:0:0:
156,280,16602,1,0,0:0:0:0:
156,280,16687,1,0,0:0:0:0:
188,320,16772,2,0,L|160:384,3,50,8|0|0|0,0:0|0:0|0:0|0:0,0:0:0:0:
236,248,17113,5,4,0:0:0:0:
248,28,17284,1,0,0:0:0:0:
368,272,17454,1,8,0:0:0:0:
132,128,17625,2,0,P|249:130|352:160,1,200
228,328,18136,1,8,0:0:0:0:
132,128,18306,1,0,0:0:0:0:
356,168,18477,6,0,P|358:118|372:70,1,100
468,304,18818,1,8,0:0:0:0:
308,224,18988,2,0,P|276:244|244:252,1,50
184,284,19159,1,0,0:0:0:0:
32,372,19329,1,0,0:0:0:0:
284,356,19500,1,8,0:0:0:0:
36,140,19670,1,0,0:0:0:0:
264,8,19840,5,4,0:0:0:0:
76,72,20011,1,0,0:0:0:0:
276,184,20181,1,8,0:0:0:0:
68,312,20352,1,0,0:0:0:0:
68,312,20437,1,0,0:0:0:0:
68,312,20522,1,0,0:0:0:0:
128,72,20693,1,0,0:0:0:0:
256,356,20863,1,8,0:0:0:0:
240,104,21034,5,0,0:0:0:0:
240,104,21119,1,0,0:0:0:0:
240,104,21204,2,0,B|232:40|232:40|248:-24,1,100,4|0,0:0|0:0,0:0:0:0:
504,208,21545,1,8,0:0:0:0:
256,356,21715,1,0,0:0:0:0:
396,20,21886,1,0,0:0:0:0:
396,20,22056,2,0,L|404:84,1,50,8|0,0:0|0:0,0:0:0:0:
308,240,22227,2,0,L|304:176,1,50,0|0,0:0|0:0,0:0:0:0:
468,308,22397,2,0,L|476:364,1,50,8|0,0:0|0:0,0:0:0:0:
396,384,22568,5,4,0:0:0:0:
416,116,22738,1,0,0:0:0:0:
248,340,22909,1,8,0:0:0:0:
488,308,23079,2,0,P|428:292|316:192,1,200
480,132,23590,1,8,0:0:0:0:
496,360,23761,1,0,0:0:0:0:
336,176,23931,5,0,0:0:0:0:
500,52,24102,1,0,0:0:0:0:
220,72,24272,1,8,0:0:0:0:
432,252,24443,1,0,0:0:0:0:
432,252,24528,1,0,0:0:0:0:
432,252,24613,1,0,0:0:0:0:
224,172,24784,1,0,0:0:0:0:
416,96,24954,1,8,0:0:0:0:
312,336,25125,1,0,0:0:0:0:
232,56,25295,5,4,0:0:0:0:
304,304,25465,1,0,0:0:0:0:
340,24,25636,1,8,0:0:0:0:
132,148,25806,2,0,P|260:156|352:200,1,200
164,304,26318,1,8,0:0:0:0:
160,68,26488,1,0,0:0:0:0:
284,260,26659,5,0,0:0:0:0:
284,260,26829,1,0,0:0:0:0:
48,200,27000,1,8,0:0:0:0:
212,360,27170,1,0,0:0:0:0:
212,360,27255,1,0,0:0:0:0:
212,360,27340,1,0,0:0:0:0:
156,104,27511,1,0,0:0:0:0:
152,256,27681,1,8,0:0:0:0:
244,40,27852,1,0,0:0:0:0:
32,112,28022,5,4,0:0:0:0:
340,168,28193,1,0,0:0:0:0:
80,24,28363,1,8,0:0:0:0:
160,272,28534,2,0,P|184:200|176:56,1,200
64,252,29045,1,8,0:0:0:0:
304,284,29215,1,0,0:0:0:0:
152,364,29386,6,0,B|152:304|152:304|176:252,1,100
452,44,29727,2,0,B|469:80|469:80|469:140,1,100,8|0,0:0|0:0,0:0:0:0:
88,212,30068,1,0,0:0:0:0:
152,56,30238,1,0,0:0:0:0:
320,252,30409,1,8,0:0:0:0:
32,340,30579,1,0,0:0:0:0:
256,64,30750,1,4,0:0:0:0:
256,192,30835,12,8,33136,0:0:0:0:
368,96,33477,5,4,0:0:0:0:
368,96,33818,2,0,B|380:152|380:152|412:220,1,100,8|0,0:0|0:0,0:0:0:0:
492,344,34159,2,0,P|424:288|296:324,1,200,0|8,0:0|0:0,0:0:0:0:
0,348,34670,2,0,B|56:352|56:352|120:328,1,100
288,108,35011,1,0,0:0:0:0:
76,240,35181,1,8,0:0:0:0:
348,360,35352,2,0,P|364:292|340:160,1,200
76,240,35863,1,8,0:0:0:0:
180,328,36034,5,0,0:0:0:0:
180,328,36119,1,0,0:0:0:0:
180,328,36204,2,0,P|240:360|304:364,1,100,4|0,0:0|0:0,0:0:0:0:
480,60,36545,2,0,B|424:88|424:88|400:120,1,100,8|0,0:0|0:0,0:0:0:0:
340,312,36886,1,0,0:0:0:0:
496,240,37056,1,0,0:0:0:0:
228,116,37227,2,0,L|224:8,1,100,8|0,0:0|0:0,0:0:0:0:
136,152,37482,1,0,0:0:0:0:
136,152,37568,6,0,B|108:204|108:204|56:220,1,100
32,28,37909,1,8,0:0:0:0:
328,16,38079,1,0,0:0:0:0:
328,16,38164,1,0,0:0:0:0:
328,16,38250,2,0,B|392:16|392:16|432:48,1,100
464,184,38590,1,8,0:0:0:0:
256,120,38761,1,0,0:0:0:0:
452,376,38931,5,0,0:0:0:0:
452,376,39272,2,0,B|452:312|452:312|480:264,1,100,8|0,0:0|0:0,0:0:0:0:
508,8,39613,2,0,P|448:100|340:124,1,200,0|8,0:0|0:0,0:0:0:0:
60,72,40125,2,0,B|124:96|124:96|164:144,1,100
284,364,40465,2,0,B|240:332|240:332|216:272,1,100,0|8,0:0|0:0,0:0:0:0:
476,108,40806,2,0,P|380:180|340:268,1,200,0|0,0:0|0:0,0:0:0:0:
284,364,41318,1,8,0:0:0:0:
272,116,41488,5,0,0:0:0:0:
272,116,41573,1,0,0:0:0:0:
272,116,41659,2,0,B|256:44|256:44|264:-12,1,100,4|0,0:0|0:0,0:0:0:0:
108,268,42000,2,0,B|124:340|124:340|116:396,1,100,8|0,0:0|0:0,0:0:0:0:
56,144,42340,1,0,0:0:0:0:
292,320,42511,1,0,0:0:0:0:
16,328,42681,2,0,B|0:256|0:256|8:200,1,100,8|0,0:0|0:0,0:0:0:0:
56,144,42937,5,0,0:0:0:0:
56,144,43022,1,0,0:0:0:0:
264,64,43193,1,0,0:0:0:0:
16,24,43363,1,8,0:0:0:0:
264,20,43534,1,0,0:0:0:0:
20,152,43704,1,8,0:0:0:0:
168,40,43875,1,0,0:0:0:0:
168,40,43960,1,0,0:0:0:0:
168,40,44045,1,8,0:0:0:0:
156,304,44215,1,0,0:0:0:0:
328,24,44386,5,4,0:0:0:0:
328,24,44727,2,0,B|344:84|344:84|376:124,1,100,8|0,0:0|0:0,0:0:0:0:
476,288,45068,2,0,B|468:352|468:352|432:408,1,100
296,240,45409,1,8,0:0:0:0:
464,24,45579,5,0,0:0:0:0:
464,24,45664,1,0,0:0:0:0:
464,24,45750,1,0,0:0:0:0:
264,232,45920,1,0,0:0:0:0:
496,132,46090,1,8,0:0:0:0:
288,24,46261,1,0,0:0:0:0:
268,216,46431,2,0,B|260:300|260:300|276:336,1,100
112,108,46772,2,0,B|120:24|120:24|104:-12,1,100,8|0,0:0|0:0,0:0:0:0:
44,156,47028,5,0,0:0:0:0:
44,156,47113,2,0,P|108:164|156:200,1,100,4|0,0:0|0:0,0:0:0:0:
264,360,47454,1,8,0:0:0:0:
112,268,47625,1,0,0:0:0:0:
256,112,47795,2,0,P|227:71|183:47,1,100
208,272,48136,2,0,P|251:295|301:302,1,100,8|0,0:0|0:0,0:0:0:0:
376,356,48392,5,0,0:0:0:0:
376,356,48477,1,0,0:0:0:0:
255,112,48647,1,0,0:0:0:0:
261,384,48818,1,8,0:0:0:0:
376,144,48988,1,0,0:0:0:0:
136,304,49159,2,0,B|64:316|64:316|28:356,1,100,8|0,0:0|0:0,0:0:0:0:
240,40,49500,2,0,B|312:28|312:28|348:-12,1,100,8|0,0:0|0:0,0:0:0:0:
16,28,49840,6,0,P|52:84|60:224,1,200,0|8,0:0|0:0,0:0:0:0:
16,360,50352,1,0,0:0:0:0:
16,28,50522,1,0,0:0:0:0:
148,264,50693,1,0,0:0:0:0:
160,48,50863,2,0,P|152:104|168:160,1,100,8|0,0:0|0:0,0:0:0:0:
260,360,51204,5,0,0:0:0:0:
36,248,51375,1,0,0:0:0:0:
328,248,51545,1,8,0:0:0:0:
68,368,51715,1,0,0:0:0:0:
104,144,51886,2,0,P|136:200|140:244,1,100,0|0,0:0|0:0,0:0:0:0:
296,20,52227,2,0,P|264:84|260:128,1,100,8|0,0:0|0:0,0:0:0:0:
280,232,52482,1,0,0:0:0:0:
280,232,52568,6,0,B|224:264|224:264|192:316,1,100,4|0,0:0|0:0,0:0:0:0:
224,119,52909,2,0,B|288:112|288:112|404:40,1,200,8|0,0:0|0:0,0:0:0:0:
128,32,53420,1,0,0:0:0:0:
184,276,53590,2,0,P|216:320|224:384,1,100,8|0,0:0|0:0,0:0:0:0:
104,280,53846,5,0,0:0:0:0:
104,280,53931,1,4,0:0:0:0:
212,56,54102,1,0,0:0:0:0:
8,44,54272,1,8,0:0:0:0:
184,276,54443,1,0,0:0:0:0:
96,40,54613,1,4,0:0:0:0:
28,304,54784,1,0,0:0:0:0:
96,40,54954,2,0,L|168:56,1,50,8|0,0:0|0:0,0:0:0:0:
256,149,55125,2,0,L|304:164,1,50
456,136,55295,6,0,P|380:144|300:252,1,200,4|8,0:0|0:1,0:0:0:0:
303,234,56659,1,0,1:0:0:0:
224,100,56829,1,0,3:3:0:0:
224,100,57170,1,0,3:3:0:0:
144,340,57340,2,0,P|104:364|-8:360,1,150,8|0,0:1|0:0,0:0:0:0:
40,52,58022,6,0,P|88:104|224:112,1,200,0|8,1:0|0:1,0:0:0:0:
211,118,59386,1,0,1:0:0:0:
400,196,59897,1,0,1:0:0:0:
400,196,60068,2,0,P|432:208|488:312,1,150,8|8,0:1|0:1,0:0:0:0:
364,250,60750,6,0,P|397:158|360:68,1,200,4|8,0:0|0:1,0:0:0:0:
360,68,62113,1,0,1:0:0:0:
144,64,62284,1,0,3:3:0:0:
144,64,62625,1,0,3:3:0:0:
279,221,62795,2,0,P|307:290|296:364,1,150,8|0,0:1|0:0,0:0:0:0:
189,249,63477,6,0,P|117:182|20:168,1,200,0|8,1:0|0:1,0:0:0:0:
56,360,64500,1,0,1:0:0:0:
56,360,65181,1,0,1:0:0:0:
352,16,65522,1,8,0:1:0:0:
280,292,65693,1,0,1:0:0:0:
156,80,65863,1,8,0:1:0:0:
452,160,66034,1,8,0:1:0:0:
352,16,66204,6,0,P|316:80|316:176,1,150,4|0,0:0|0:0,0:0:0:0:
148,328,66886,2,0,P|221:328|304:280,1,150,8|0,0:1|0:0,0:0:0:0:
448,148,67568,1,0,1:0:0:0:
440,360,67738,1,0,3:0:0:0:
440,360,68079,1,0,3:0:0:0:
448,148,68250,1,8,0:1:0:0:
268,216,68931,6,0,P|312:276|326:349,1,150,0|0,1:0|0:0,0:0:0:0:
152,272,69613,2,0,P|78:281|7:256,1,150,8|0,0:1|0:0,0:0:0:0:
172,180,70295,1,0,1:0:0:0:
40,32,70806,1,0,3:3:0:0:
172,180,70977,1,8,0:1:0:0:
216,344,71488,5,0,3:3:0:0:
216,344,71573,1,0,3:3:0:0:
216,344,71659,1,4,0:0:0:0:
436,80,72170,1,0,3:3:0:0:
88,24,72681,1,0,3:3:0:0:
276,252,73022,5,0,0:0:0:0:
276,252,73193,2,0,P|288:200|280:144,1,100,8|0,0:1|3:3,0:0:0:0:
283,154,73875,1,0,3:3:0:0:
416,52,74045,1,0,3:3:0:0:
232,20,74215,5,0,0:0:0:0:
232,20,74301,1,0,0:0:0:0:
232,20,74386,1,4,0:0:0:0:
168,288,74556,1,0,0:0:0:0:
136,28,74727,1,0,0:0:0:0:
300,132,74897,1,0,0:0:0:0:
48,84,75068,5,0,0:0:0:0:
344,64,75238,1,8,0:0:0:0:
188,232,75409,1,0,0:0:0:0:
196,16,75579,1,0,0:0:0:0:
364,336,75750,1,8,0:0:0:0:
384,24,76431,5,0,0:0:0:0:
364,336,76602,1,0,0:0:0:0:
340,176,76772,6,0,B|309:174|275:140|275:140|315:128|343:134|386:154|400:164|437:216,1,225.000008583069,8|0,3:3|0:0,0:0:0:0:
368,256,77113,5,4,0:0:0:0:
300,36,77284,1,0,0:0:0:0:
264,280,77454,1,8,0:0:0:0:
432,80,77625,2,0,P|368:44|196:72,1,239.999992675781
400,252,78136,5,8,0:0:0:0:
480,16,78306,1,0,0:0:0:0:
288,168,78477,1,0,0:0:0:0:
508,216,78647,1,0,0:0:0:0:
356,104,78818,2,0,P|352:48|360:-4,1,100,8|0,0:0|0:0,0:0:0:0:
320,344,79159,2,0,P|249:249|138:209,1,239.999992675781,0|8,0:0|0:0,0:0:0:0:
138,209,79840,6,0,P|94:236|36:253,1,100
214,98,80181,2,0,P|268:49|327:36,1,100,8|0,0:0|0:0,0:0:0:0:
232,244,80522,1,0,0:0:0:0:
112,16,80693,1,0,0:0:0:0:
100,320,80863,1,8,0:0:0:0:
240,36,81034,1,0,0:0:0:0:
240,36,81204,6,0,P|172:76|132:80,1,100,0|0,0:0|0:0,0:0:0:0:
368,296,81545,2,0,P|408:328|428:376,1,100,8|0,0:0|0:0,0:0:0:0:
176,328,81886,1,0,0:0:0:0:
332,40,82056,1,8,0:0:0:0:
168,344,82227,1,0,0:0:0:0:
324,56,82397,1,8,0:0:0:0:
100,288,82568,5,0,0:0:0:0:
264,104,82738,1,0,0:0:0:0:
28,144,82909,1,8,0:0:0:0:
240,304,83079,2,0,P|204:220|120:76,1,239.999992675781
56,304,83590,1,8,0:0:0:0:
312,156,83761,1,0,0:0:0:0:
152,132,83931,6,0,P|106:104|66:68,1,100
240,40,84272,1,8,0:0:0:0:
68,232,84443,1,0,0:0:0:0:
288,348,84613,2,0,L|256:248,1,100
12,28,84954,2,0,L|36:127,1,100,8|0,0:0|0:0,0:0:0:0:
392,116,85295,6,0,P|417:63|417:3,1,119.999996337891,4|0,0:0|0:0,0:0:0:0:
120,268,85636,2,0,P|97:312|104:408,1,119.999996337891,8|0,0:0|0:0,0:0:0:0:
445,353,85977,2,0,P|385:354|332:329,1,119.999996337891
66,30,86318,2,0,P|126:30|180:56,1,119.999996337891,8|0,0:0|0:0,0:0:0:0:
404,176,86659,5,0,0:0:0:0:
72,140,86829,1,0,0:0:0:0:
388,176,87000,1,8,0:0:0:0:
56,140,87170,1,0,0:0:0:0:
480,8,87340,2,0,B|476:68|476:68|500:132,1,100,0|8,0:0|0:0,0:0:0:0:
220,344,87681,2,0,L|236:228,1,100,0|8,0:0|0:0,0:0:0:0:
248,152,87937,5,0,0:0:0:0:
248,152,88022,1,4,0:0:0:0:
132,276,88193,1,0,0:0:0:0:
368,252,88363,1,8,0:0:0:0:
152,116,88534,2,0,P|132:176|156:364,1,239.999992675781
292,208,89045,5,8,0:0:0:0:
36,128,89215,1,0,0:0:0:0:
292,88,89386,1,0,0:0:0:0:
150,349,89556,1,0,0:0:0:0:
156,136,89727,2,0,B|148:64|148:64|124:24,1,100,8|0,0:0|0:0,0:0:0:0:
328,336,90068,2,0,P|312:248|332:96,1,239.999992675781,0|8,0:0|0:0,0:0:0:0:
331,100,90750,6,0,B|392:116|392:116|472:104,1,100,0|0,0:0|0:0,0:0:0:0:
236,184,91090,2,0,B|175:201|175:201|95:189,1,100,8|0,0:0|0:0,0:0:0:0:
216,44,91431,1,0,0:0:0:0:
344,260,91602,1,0,0:0:0:0:
400,32,91772,1,8,0:0:0:0:
328,272,91943,1,0,0:0:0:0:
208,52,92113,6,0,B|148:68|148:68|100:116,1,100
424,144,92454,2,0,B|484:160|484:160|532:208,1,100,8|0,0:0|0:0,0:0:0:0:
264,300,92795,1,0,0:0:0:0:
324,32,92965,1,8,0:0:0:0:
260,320,93136,1,0,0:0:0:0:
320,52,93306,1,8,0:0:0:0:
284,336,93477,5,0,0:0:0:0:
136,80,93647,1,0,0:0:0:0:
120,352,93818,1,8,0:0:0:0:
260,160,93988,2,0,P|140:184|24:268,1,239.999992675781
272,336,94500,5,8,0:0:0:0:
172,48,94670,1,0,0:0:0:0:
68,332,94840,2,0,P|104:288|124:216,1,100
172,24,95181,1,8,0:0:0:0:
280,316,95352,1,0,0:0:0:0:
424,80,95522,2,0,L|308:96,1,100
32,136,95863,1,8,0:0:0:0:
280,316,96034,1,0,0:0:0:0:
60,344,96204,6,0,B|80:244|80:244|75:226,1,119.999996337891,4|0,0:0|0:0,0:0:0:0:
452,40,96545,2,0,B|431:139|431:139|436:157,1,119.999996337891,8|0,0:0|0:0,0:0:0:0:
167,32,96886,2,0,P|108:40|50:29,1,119.999996337891,0|0,0:0|0:0,0:0:0:0:
344,351,97227,2,0,P|403:343|461:354,1,119.999996337891,8|0,0:0|0:0,0:0:0:0:
216,44,97568,5,4,0:0:0:0:
288,340,97738,1,0,0:0:0:0:
224,64,97909,1,8,0:0:0:0:
296,360,98079,1,0,0:0:0:0:
104,80,98250,1,8,0:0:0:0:
104,80,98335,1,0,0:0:0:0:
104,80,98420,1,8,0:0:0:0:
448,188,98590,1,8,0:0:0:0:
448,188,98676,1,0,0:0:0:0:
448,188,98761,1,8,0:0:0:0:
216,340,98931,5,12,0:0:0:0:
304,180,99102,1,0,0:0:0:0:
192,324,99272,1,8,0:0:0:0:
330,199,99443,1,0,0:0:0:0:
176,300,99613,1,8,0:0:0:0:
349,225,99784,1,0,0:0:0:0:
168,272,99954,1,8,0:0:0:0:
356,256,100125,1,0,0:0:0:0:
172,240,100295,5,8,0:0:0:0:
354,284,100465,1,0,0:0:0:0:
184,212,100636,1,8,0:0:0:0:
340,310,100806,1,0,0:0:0:0:
204,192,100977,2,0,B|204:124|204:124|232:76,1,100,8|0,0:0|0:0,0:0:0:0:
420,264,101318,2,0,B|420:332|420:332|392:380,1,100,8|0,0:0|0:0,0:0:0:0:
72,188,101659,5,12,0:0:0:0:
216,116,101829,1,0,0:0:0:0:
88,212,102000,1,8,0:0:0:0:
199,96,102170,1,0,0:0:0:0:
112,228,102340,1,8,0:0:0:0:
177,82,102511,1,0,0:0:0:0:
140,240,102681,1,8,0:0:0:0:
152,81,102852,1,0,0:0:0:0:
172,240,103022,5,8,0:0:0:0:
129,87,103193,1,0,0:0:0:0:
200,232,103363,2,0,B|208:292|208:292|240:336,1,100,8|0,0:0|0:0,0:0:0:0:
280,184,103704,1,8,0:0:0:0:
96,352,103875,1,8,0:0:0:0:
364,328,104045,1,8,0:0:0:0:
364,328,104215,1,8,0:0:0:0:
168,172,104386,5,12,0:0:0:0:
328,88,104556,1,0,0:0:0:0:
156,148,104727,1,8,0:0:0:0:
340,115,104897,1,0,0:0:0:0:
152,120,105068,1,8,0:0:0:0:
341,143,105238,1,0,0:0:0:0:
160,88,105409,1,8,0:0:0:0:
335,166,105579,1,0,0:0:0:0:
180,60,105750,5,8,0:0:0:0:
323,185,105920,1,0,0:0:0:0:
208,44,106090,1,8,0:0:0:0:
305,202,106261,1,0,0:0:0:0:
240,40,106431,2,0,P|304:40|368:16,1,100,8|0,0:0|0:0,0:0:0:0:
208,244,106772,2,0,P|144:244|80:268,1,100,8|0,0:0|0:0,0:0:0:0:
428,328,107113,5,12,0:0:0:0:
388,164,107284,1,0,0:0:0:0:
420,332,107454,1,8,0:0:0:0:
380,168,107625,1,0,0:0:0:0:
144,280,107795,5,8,0:0:0:0:
188,92,107965,1,0,0:0:0:0:
152,284,108136,1,8,0:0:0:0:
196,96,108306,1,0,0:0:0:0:
232,320,108477,5,8,0:0:0:0:
488,368,108647,1,0,0:0:0:0:
360,144,108818,2,0,B|364:68|364:68|384:20,1,100,8|0,0:0|0:0,0:0:0:0:
476,276,109159,1,8,0:0:0:0:
476,276,109329,1,8,0:0:0:0:
136,80,109500,1,8,0:0:0:0:
136,80,109670,1,8,0:0:0:0:
256,192,109755,12,0,112227,0:0:0:0:
