osu file format v14

[General]
AudioFilename: audio.mp3
AudioLeadIn: 1500
PreviewTime: 77093
Countdown: 0
SampleSet: Normal
StackLeniency: 0.7
Mode: 0
LetterboxInBreaks: 0
WidescreenStoryboard: 0

[Editor]
DistanceSpacing: 1.2
BeatDivisor: 4
GridSize: 8
TimelineZoom: 1.6

[Metadata]
Title:Ai YOU READY Ai Wo READY
TitleUnicode:爱YOU READY爱我READY
Artist:Lv Xing Tuan Yue Dui, Kong Yang
ArtistUnicode:旅行团乐队、孔阳
Creator:tutuhaha
Version:Easy
Source:狐妖小红娘
Tags:Sun Rainbow opening short ver
BeatmapID:1311292
BeatmapSetID:621562

[Difficulty]
HPDrainRate:2
CircleSize:2
OverallDifficulty:2
ApproachRate:3
SliderMultiplier:0.799999999999999
SliderTickRate:1

[Events]
//Background and Video events
0,0,"bg.jpg",0,0
//Break Periods
//Storyboard Layer 0 (Background)
//Storyboard Layer 1 (Fail)
//Storyboard Layer 2 (Pass)
//Storyboard Layer 3 (Foreground)
//Storyboard Sound Samples

[TimingPoints]
750,340.909090909091,4,1,1,40,1,0
55295,-100,4,2,1,40,0,0
74385,-100,4,1,1,40,0,0
77113,-100,4,1,1,40,0,1
98590,-100,4,1,1,40,0,0
98931,-100,4,1,1,40,0,1
109755,-100,4,2,1,10,0,0

[Colours]
Combo1 : 241,185,67
Combo2 : 223,58,30
Combo3 : 192,192,192

[HitObjects]
480,308,750,6,4,L|272:308,1,200,4|0,0:0|0:0,0:0:0:0:
184,200,2113,2,0,P|200:156|76:32,1,240,0|0,0:0|0:0,0:0:0:0:
44,116,3477,6,4,L|44:328,1,200,4|0,0:0|0:0,0:0:0:0:
180,364,4840,2,0,P|184:316|276:244,2,160,0|0|0,0:0|0:0|0:0,0:0:0:0:
324,340,6715,6,0,P|368:284|336:164,1,200
252,128,7909,1,8,0:0:0:0:
160,96,8250,2,0,P|188:56|300:44,1,160,0|4,0:0|0:0,0:0:0:0:
388,32,9272,5,8,0:0:0:0:
444,112,9613,2,0,B|444:216|444:216|480:280,2,160,0|4|0,0:0|0:0|0:0,0:0:0:0:
392,32,11318,1,8,0:0:0:0:
296,48,11659,6,4,P|276:80|88:80,1,240,4|8,0:0|0:0,0:0:0:0:
44,168,13022,2,0,L|44:336,2,160,0|0|4,0:0|0:0|0:0,0:0:0:0:
96,88,14727,6,0,P|156:96|224:172,1,160,8|8,0:0|0:0,0:0:0:0:
196,260,15750,2,0,L|356:260,1,160
492,124,17113,6,0,L|248:124,1,240,4|8,0:0|0:0,0:0:0:0:
164,84,18477,2,0,P|92:44|0:56,1,160
4,144,19500,1,8,0:0:0:0:
84,196,19840,6,4,L|84:368,1,160,4|0,0:0|0:0,0:0:0:0:
232,236,21204,2,4,L|232:64,1,160,4|0,0:0|0:0,0:0:0:0:
320,36,22227,1,8,0:0:0:0:
340,132,22568,6,4,P|344:228|464:312,1,240,4|8,0:0|0:0,0:0:0:0:
500,228,23931,2,0,P|508:164|460:80,1,160,0|0,0:0|0:0,0:0:0:0:
376,40,24954,1,8,0:0:0:0:
340,132,25295,6,0,P|264:180|112:136,1,240,4|8,0:0|0:0,0:0:0:0:
32,116,26659,2,0,P|60:76|168:64,2,160,0|0|4,0:0|0:0|0:0,0:0:0:0:
124,148,28363,6,8,B|124:300|124:300|80:380,1,240,8|0,0:0|0:0,0:0:0:0:
12,312,29727,1,8,0:0:0:0:
24,216,30068,2,0,L|24:48,1,160,0|4,0:0|0:0,0:0:0:0:
116,24,31090,5,8,0:0:0:0:
136,116,31431,2,0,P|176:180|268:212,1,160,0|4,0:0|0:0,0:0:0:0:
332,264,32454,1,8,0:0:0:0:
336,168,32795,2,0,P|296:104|204:72,1,160,0|4,0:0|0:0,0:0:0:0:
80,204,34159,5,8,0:0:0:0:
248,296,34840,2,0,P|284:340|356:368,2,120,0|8|8,0:0|0:0|0:0,0:0:0:0:
192,216,36204,5,4,0:0:0:0:
52,348,36886,1,8,0:0:0:0:
52,156,37568,2,0,L|52:24,2,120,0|8|8,0:0|0:0|0:0,0:0:0:0:
52,252,38931,5,0,0:0:0:0:
212,360,39613,1,8,0:0:0:0:
284,184,40295,2,0,P|224:168|160:176,2,120,0|8|8,0:0|0:0|0:0,0:0:0:0:
364,240,41659,5,4,0:0:0:0:
316,56,42340,1,8,0:0:0:0:
480,156,43022,2,0,L|480:288,2,120,0|8|8,0:0|0:0|0:0,0:0:0:0:
476,60,44386,5,4,0:0:0:0:
316,156,45068,1,8,0:0:0:0:
164,40,45750,2,0,B|128:188|128:188|72:268,1,240,0|8,0:0|0:0,0:0:0:0:
16,332,47113,5,4,0:0:0:0:
204,372,47795,1,8,0:0:0:0:
220,180,48477,2,0,B|356:116|356:116|448:108,1,240,0|8,0:0|0:0,0:0:0:0:
448,204,49840,6,0,P|448:284|492:360,2,160,0|8|0,0:0|0:0|0:0,0:0:0:0:
468,112,51545,1,8,0:0:0:0:
292,32,52227,1,8,0:0:0:0:
240,112,52568,6,0,P|192:96|84:104,1,160,4|0,0:0|0:0,0:0:0:0:
32,184,53590,1,8,0:0:0:0:
104,248,53931,2,4,P|160:292|328:288,1,240,4|8,0:0|0:0,0:0:0:0:
400,236,55295,6,4,P|364:180|376:76,1,160,4|8,0:0|0:1,0:0:0:0:
184,44,56659,2,0,L|20:44,1,160,0|8,1:0|0:1,0:0:0:0:
68,232,58022,6,0,P|156:264|204:328,2,160,0|8|0,1:0|0:1|1:0,1:0:0:0:
228,124,60068,1,8,0:1:0:0:
404,200,60750,6,4,L|380:364,1,160,4|8,0:0|0:1,0:0:0:0:
188,352,62113,2,0,L|211:193,1,160,0|8,1:0|0:1,0:0:0:0:
372,92,63477,6,0,P|296:108|156:32,1,240,0|0,1:0|1:0,1:0:0:0:
16,164,65181,1,0,1:0:0:0:
96,216,65522,2,8,P|80:320|40:372,1,160,8|4,0:1|0:0,0:0:0:0:
220,272,66886,5,8,0:1:0:0:
388,360,67568,2,0,P|380:288|424:200,1,160,0|8,1:0|0:1,0:0:0:0:
296,60,68931,6,0,P|276:108|296:212,2,160,0|8|0,1:0|0:1|1:0,1:0:0:0:
476,128,70977,1,8,0:1:0:0:
480,320,71659,6,4,P|380:264|240:272,1,240,4|0,0:0|3:3,0:0:0:0:
68,292,73363,1,0,3:3:0:0:
52,196,73704,2,0,L|52:32,2,160,0|4|0,3:3|0:0|0:0,0:0:0:0:
224,112,75750,1,8,0:0:0:0:
476,348,77113,6,4,P|444:292|340:260,1,160,4|0,0:0|0:0,0:0:0:0:
264,280,78136,1,8,0:0:0:0:
168,284,78477,2,0,P|164:228|220:128,1,160,0|0,0:0|0:0,0:0:0:0:
396,176,79840,6,0,P|424:116|420:16,2,160,4|0|0,0:0|0:0|0:0,0:0:0:0:
304,148,81545,1,8,0:0:0:0:
228,92,81886,2,0,L|52:92,1,160
28,180,82909,6,8,P|68:256|48:336,2,160,8|8|8,0:0|0:0|0:0,0:0:0:0:
68,92,84613,2,0,P|120:64|224:56,1,160,0|4,0:0|0:0,0:0:0:0:
316,44,85636,5,8,0:0:0:0:
288,136,85977,2,0,P|288:216|332:292,1,160,0|0,0:0|0:0,0:0:0:0:
404,340,87000,1,8,0:0:0:0:
456,260,87340,2,0,L|456:84,1,160
364,72,88363,6,8,P|316:72|212:12,2,160,8|0|8,0:0|0:0|0:0,0:0:0:0:
460,76,90068,2,0,L|460:236,1,160,0|4,0:0|0:0,0:0:0:0:
416,320,91090,5,8,0:0:0:0:
324,352,91431,2,0,P|296:296|216:244,1,160,0|0,0:0|0:0,0:0:0:0:
120,240,92454,1,8,0:0:0:0:
60,168,92795,2,0,P|112:128|148:40,1,160
240,76,93818,6,8,P|280:132|376:160,2,160,8|0|8,0:0|0:0|0:0,0:0:0:0:
148,40,95522,2,0,P|108:60|48:168,1,160,0|4,0:0|0:0,0:0:0:0:
56,252,96545,5,8,0:0:0:0:
152,268,96886,2,0,P|208:252|284:172,1,160
340,104,97909,1,8,0:0:0:0:
432,124,98250,2,8,L|432:292,1,160,8|12,0:0|0:0,0:0:0:0:
252,352,99613,5,8,0:0:0:0:
96,240,100295,2,8,L|96:64,1,160,8|8,0:0|0:0,0:0:0:0:
264,172,101659,6,12,P|348:204|424:184,2,160,12|8|8,0:0|0:0|0:0,0:0:0:0:
128,40,103704,1,8,0:0:0:0:
52,216,104386,6,12,L|52:388,1,160,12|8,0:0|0:0,0:0:0:0:
240,332,105750,1,8,0:0:0:0:
152,160,106431,1,8,0:0:0:0:
320,64,107113,6,0,L|488:64,2,160,4|8|8,0:0|0:0|0:0,0:0:0:0:
128,24,109159,2,0,P|112:104|128:152,1,120,8|0,0:0|0:0,0:0:0:0:
256,192,109755,12,0,112227,0:0:0:0:
