osu file format v14

[General]
AudioFilename: audio.mp3
AudioLeadIn: 1500
PreviewTime: 77093
Countdown: 0
SampleSet: Soft
StackLeniency: 0.7
Mode: 0
LetterboxInBreaks: 0
WidescreenStoryboard: 1

[Editor]
DistanceSpacing: 1.2
BeatDivisor: 4
GridSize: 4
TimelineZoom: 1.6

[Metadata]
Title:Ai YOU READY Ai Wo READY
TitleUnicode:爱YOU READY爱我READY
Artist:Lv Xing Tuan Yue Dui, Kong Yang
ArtistUnicode:旅行团乐队、孔阳
Creator:tutuhaha
Version:Hard
Source:狐妖小红娘
Tags:Sun Rainbow opening short ver
BeatmapID:1311398
BeatmapSetID:621562

[Difficulty]
HPDrainRate:4
CircleSize:3.5
OverallDifficulty:5
ApproachRate:7
SliderMultiplier:1.5
SliderTickRate:1

[Events]
//Background and Video events
0,0,"bg.jpg",0,0
//Break Periods
//Storyboard Layer 0 (Background)
//Storyboard Layer 1 (Fail)
//Storyboard Layer 2 (Pass)
//Storyboard Layer 3 (Foreground)
//Storyboard Sound Samples

[TimingPoints]
750,340.909090909091,4,1,1,40,1,0
55295,-133.333333333333,4,2,1,40,0,0
64500,-100,4,2,1,40,0,0
66204,-133.333333333333,4,2,1,40,0,0
74215,-133.333333333333,4,1,1,40,0,0
76772,-83.3333333333333,4,1,1,40,0,0
77113,-100,4,1,1,40,0,1
98590,-100,4,1,1,40,0,0
98931,-100,4,1,1,40,0,1
109670,-100,4,1,1,40,0,0
109755,-100,4,2,1,10,0,0

[Colours]
Combo1 : 241,185,67
Combo2 : 223,58,30
Combo3 : 192,192,192

[HitObjects]
120,68,750,5,4,0:0:0:0:
120,68,920,1,0,0:0:0:0:
148,260,1261,1,0,0:0:0:0:
20,112,1602,1,0,0:0:0:0:
208,160,1943,1,0,0:0:0:0:
208,160,2113,6,0,P|244:128|260:88,1,75,0|0,0:0|0:0,0:0:0:0:
308,32,2454,2,8,P|352:28|404:36,1,75,8|0,0:0|0:0,0:0:0:0:
396,120,2795,2,0,P|444:136|488:140,1,75,0|0,0:0|0:0,0:0:0:0:
376,212,3136,2,0,P|420:236|463:247,1,75,0|0,0:0|0:0,0:0:0:0:
332,296,3477,5,4,0:0:0:0:
332,296,3647,1,0,0:0:0:0:
160,204,3988,1,0,0:0:0:0:
260,372,4329,1,0,0:0:0:0:
276,176,4670,1,0,0:0:0:0:
276,176,4840,6,0,P|260:128|260:96,1,75,0|0,0:0|0:0,0:0:0:0:
180,64,5181,2,8,P|140:40|108:8,1,75,8|0,0:0|0:0,0:0:0:0:
64,92,5522,2,0,L|0:129,1,75,0|0,0:0|0:0,0:0:0:0:
104,172,5863,2,0,L|28:216,1,75,0|0,0:0|0:0,0:0:0:0:
64,296,6204,5,4,0:0:0:0:
64,296,6375,1,0,0:0:0:0:
256,276,6715,1,0,0:0:0:0:
92,380,7056,1,0,0:0:0:0:
88,184,7397,1,0,0:0:0:0:
88,184,7568,6,0,P|80:140|88:88,1,75,0|0,0:0|0:0,0:0:0:0:
171,108,7909,2,8,P|183:72|181:35,1,75,8|0,0:0|0:0,0:0:0:0:
260,120,8250,2,0,P|288:156|324:176,1,75,0|0,0:0|0:0,0:0:0:0:
400,192,8590,1,8,0:0:0:0:
476,144,8761,6,0,P|452:100|404:68,1,75,0|4,0:0|0:0,0:0:0:0:
364,28,9102,1,0,0:0:0:0:
276,56,9272,2,8,P|232:92|184:104,1,75,8|0,0:0|0:0,0:0:0:0:
136,52,9613,2,0,L|44:16,1,75,0|0,0:0|0:0,0:0:0:0:
104,156,9954,2,8,L|173:183,1,75,8|0,0:0|0:0,0:0:0:0:
252,228,10295,5,0,0:0:0:0:
192,296,10465,2,0,P|160:304|132:320,2,37.5,0|0|0,0:0|0:0|0:0,0:0:0:0:
280,320,10806,2,0,P|324:312|432:348,1,150,0|8,0:0|0:0,0:0:0:0:
472,196,11318,2,8,P|432:204|384:240,1,75,0|8,0:0|0:0,0:0:0:0:
328,348,11659,5,4,0:0:0:0:
320,260,11829,2,0,P|300:212|268:172,1,75
200,172,12170,2,0,P|184:104|208:20,1,150
292,8,12681,1,8,0:0:0:0:
376,40,12852,1,0,0:0:0:0:
376,40,13022,6,0,P|400:92|400:136,1,75,0|0,0:0|0:0,0:0:0:0:
372,192,13363,2,8,P|383:227|405:257,1,75,8|0,0:0|0:0,0:0:0:0:
473,351,13704,2,0,P|437:343|400:348,1,75,0|0,0:0|0:0,0:0:0:0:
282,361,14045,2,8,P|308:333|324:300,1,75,8|0,0:0|0:0,0:0:0:0:
264,232,14386,5,4,0:0:0:0:
202,302,14556,2,0,P|154:314|106:306,1,75,0|8,0:0|0:0,0:0:0:0:
24,216,14897,2,0,P|64:232|132:320,1,150,0|0,0:0|0:0,0:0:0:0:
176,216,15409,1,8,0:0:0:0:
128,140,15579,6,0,P|116:92|120:48,2,75,0|0|0,0:0|0:0|0:0,0:0:0:0:
208,96,16090,2,8,P|206:58|200:21,1,75,8|0,0:0|0:0,0:0:0:0:
263,167,16431,2,0,P|296:186|331:199,1,75,0|0,0:0|0:0,0:0:0:0:
176,184,16772,2,8,P|144:202|102:240,1,75,8|0,0:0|0:0,0:0:0:0:
44,356,17113,5,4,0:0:0:0:
44,356,17284,1,0,0:0:0:0:
124,316,17454,1,8,0:0:0:0:
114,226,17625,2,0,P|82:194|50:86,1,150,0|0,0:0|0:0,0:0:0:0:
88,16,18136,1,8,0:0:0:0:
148,84,18306,1,0,0:0:0:0:
184,168,18477,6,0,P|200:212|236:244,1,75,0|0,0:0|0:0,0:0:0:0:
276,164,18818,2,8,L|356:128,1,75,8|0,0:0|0:0,0:0:0:0:
448,184,19159,2,0,L|380:215,1,75,0|0,0:0|0:0,0:0:0:0:
424,100,19500,2,8,L|492:69,1,75,8|0,0:0|0:0,0:0:0:0:
488,268,19840,6,4,L|420:299,1,75,4|0,0:0|0:0,0:0:0:0:
290,265,20181,2,8,P|320:241|356:232,1,75,8|0,0:0|0:0,0:0:0:0:
308,352,20522,2,0,P|256:344|220:312,2,75,0|0|8,0:0|0:0|0:0,0:0:0:0:
290,265,21034,1,0,0:0:0:0:
204,244,21204,6,4,L|204:169,1,75,4|0,0:0|0:0,0:0:0:0:
152,320,21545,2,8,P|120:352|76:372,1,75,8|0,0:0|0:0,0:0:0:0:
32,300,21886,1,0,0:0:0:0:
24,212,22056,1,8,0:0:0:0:
52,124,22227,1,0,0:0:0:0:
112,60,22397,1,8,0:0:0:0:
196,28,22568,6,4,P|260:32|300:24,1,75,4|0,0:0|0:0,0:0:0:0:
412,112,22909,1,8,0:0:0:0:
412,112,23079,2,0,P|340:108|244:144,1,150,0|0,0:0|0:0,0:0:0:0:
132,154,23590,2,8,P|167:167|196:192,1,75,8|0,0:0|0:0,0:0:0:0:
212,280,23931,5,0,0:0:0:0:
212,280,24102,1,0,0:0:0:0:
284,224,24272,1,8,0:0:0:0:
332,300,24443,1,0,0:0:0:0:
416,332,24613,2,0,P|448:349|485:356,1,75,0|0,0:0|0:0,0:0:0:0:
403,244,24954,2,8,P|438:229|466:204,1,75,8|0,0:0|0:0,0:0:0:0:
332,188,25295,5,4,0:0:0:0:
288,108,25465,2,0,P|240:92|212:64,1,75,0|8,0:0|0:0,0:0:0:0:
240,184,25806,2,0,P|220:224|228:352,1,150,0|0,0:0|0:0,0:0:0:0:
128,256,26318,2,8,P|120:212|96:176,1,75,8|0,0:0|0:0,0:0:0:0:
76,100,26659,6,0,P|116:104|180:92,1,75,0|0,0:0|0:0,0:0:0:0:
314,104,27000,2,8,P|276:107|239:103,1,75,8|0,0:0|0:0,0:0:0:0:
200,24,27340,1,0,0:0:0:0:
150,100,27511,1,0,0:0:0:0:
156,188,27681,2,8,P|172:260|184:284,1,75,8|0,0:0|0:0,0:0:0:0:
283,362,28022,6,4,P|275:326|260:292,1,75,4|0,0:0|0:0,0:0:0:0:
248,200,28363,1,8,0:0:0:0:
236,112,28534,2,0,P|296:72|396:48,1,150,0|0,0:0|0:0,0:0:0:0:
448,96,29045,1,8,0:0:0:0:
412,180,29215,1,0,0:0:0:0:
328,216,29386,6,0,P|284:196|236:196,1,75,0|0,0:0|0:0,0:0:0:0:
113,246,29727,2,8,P|144:225|168:196,1,75,8|0,0:0|0:0,0:0:0:0:
197,44,30068,2,0,P|198:81|212:116,2,75,0|0|8,0:0|0:0|0:0,0:0:0:0:
304,104,30579,6,0,P|296:152|272:196,1,75,0|4,0:0|0:0,0:0:0:0:
260,264,30920,1,0,0:0:0:0:
172,288,31090,2,0,P|148:252|92:224,1,75,8|0,0:0|0:0,0:0:0:0:
16,166,31431,2,0,P|53:165|88:152,1,75,0|0,0:0|0:0,0:0:0:0:
124,68,31772,1,8,0:0:0:0:
208,40,31943,6,0,P|260:28|376:56,1,150,0|0,0:0|0:0,0:0:0:0:
396,60,32369,1,0,0:0:0:0:
396,60,32454,2,0,P|440:56|488:68,1,75,8|0,0:0|0:0,0:0:0:0:
468,152,32795,1,0,0:0:0:0:
432,236,32965,1,8,0:0:0:0:
347,342,33136,2,0,P|342:305|348:268,1,75,0|8,0:0|0:0,0:0:0:0:
332,136,33477,6,4,P|300:192|208:248,1,150,4|8,0:0|0:0,0:0:0:0:
144,216,33988,1,0,0:0:0:0:
156,128,34159,2,0,P|104:60|24:24,1,150,0|8,0:0|0:0,0:0:0:0:
16,116,34670,1,0,0:0:0:0:
12,204,34840,6,0,L|20:304,1,75,0|0,0:0|0:0,0:0:0:0:
24,368,35181,1,8,0:0:0:0:
116,368,35352,2,0,L|124:188,1,150,0|0,0:0|0:0,0:0:0:0:
140,128,35863,1,8,0:0:0:0:
208,260,36034,6,0,P|264:272|376:260,1,150,0|0,0:0|0:0,0:0:0:0:
444,248,36545,1,8,0:0:0:0:
292,124,36886,1,0,0:0:0:0:
292,320,37227,2,8,P|240:340|188:344,1,75,8|0,0:0|0:0,0:0:0:0:
90,303,37568,6,0,P|124:287|160:276,1,75,0|0,0:0|0:0,0:0:0:0:
232,224,37909,1,8,0:0:0:0:
152,184,38079,2,0,P|60:164|12:108,1,150,0|0,0:0|0:0,0:0:0:0:
152,24,38590,2,8,P|164:72|168:112,1,75,8|0,0:0|0:0,0:0:0:0:
144,272,38931,6,0,P|180:324|268:360,1,150,0|8,0:0|0:0,0:0:0:0:
372,200,39613,2,0,B|364:120,1,75,0|0,0:0|0:0,0:0:0:0:
287,29,39954,2,8,L|276:104,1,75,8|0,0:0|0:0,0:0:0:0:
364,125,40295,6,0,P|404:117|448:125,1,75,0|0,0:0|0:0,0:0:0:0:
476,204,40636,1,8,0:0:0:0:
432,284,40806,2,8,P|364:272|292:208,1,150,0|0,0:0|0:0,0:0:0:0:
268,140,41318,1,8,0:0:0:0:
212,72,41488,1,0,0:0:0:0:
128,40,41659,6,4,P|112:88|40:176,1,150,4|8,0:0|0:0,0:0:0:0:
176,384,42340,2,0,P|140:316|132:224,1,150,0|8,0:0|0:0,0:0:0:0:
136,152,42852,1,0,0:0:0:0:
108,68,43022,6,0,P|64:48|20:48,1,75,0|0,0:0|0:0,0:0:0:0:
136,152,43363,2,8,L|236:176,1,75,8|0,0:0|0:0,0:0:0:0:
314,64,43704,2,8,P|278:72|244:88,1,75,8|0,0:0|0:0,0:0:0:0:
348,147,44045,2,8,P|315:166|289:193,1,75,8|0,0:0|0:0,0:0:0:0:
424,196,44386,5,4,0:0:0:0:
424,196,44727,2,8,B|420:260|420:260|428:292|424:348,2,150,8|0|8,0:0|0:0|0:0,0:0:0:0:
404,84,45579,1,0,0:0:0:0:
404,84,45750,6,0,P|420:88|480:128,1,75
424,196,46090,1,8,0:0:0:0:
328,232,46261,2,0,P|264:248|172:204,1,150
148,136,46772,2,8,P|96:136|52:140,1,75,8|0,0:0|0:0,0:0:0:0:
148,28,47113,5,4,0:0:0:0:
148,28,47454,2,8,B|202:25|234:33|234:33|298:29,2,150,8|0|8,0:0|0:0|0:0,0:0:0:0:
20,44,48306,6,0,P|46:71|80:87,1,75
164,124,48647,1,0,0:0:0:0:
252,136,48818,2,0,P|256:96|276:44,1,75,8|0,0:0|0:0,0:0:0:0:
400,184,49159,2,0,P|394:221|383:256,1,75,8|0,0:0|0:0,0:0:0:0:
311,352,49500,2,0,P|298:317|296:280,1,75,8|0,0:0|0:0,0:0:0:0:
312,192,49840,5,0,0:0:0:0:
404,8,50181,1,8,0:0:0:0:
460,196,50522,1,0,0:0:0:0:
292,92,50863,2,8,P|248:68|208:64,1,75,8|0,0:0|0:0,0:0:0:0:
70,160,51204,6,0,P|103:177|140:187,1,75
142,33,51545,1,8,0:0:0:0:
142,33,51715,2,0,P|92:87|69:185,1,150
52,248,52227,2,8,P|80:292|112:312,1,75,8|0,0:0|0:0,0:0:0:0:
284,252,52568,6,0,P|224:224|120:224,2,150,4|8|0,0:0|0:0|0:0,0:0:0:0:
460,332,53590,1,8,0:0:0:0:
460,332,53931,6,4,L|384:356,2,75,4|0|0,0:0|0:0|0:0,0:0:0:0:
408,256,54443,1,0,0:0:0:0:
368,176,54613,2,4,P|384:132|424:100,1,75,4|0,0:0|0:0,0:0:0:0:
464,28,54954,2,8,P|489:55|502:91,1,75,8|0,0:0|0:0,0:0:0:0:
312,72,55295,6,4,B|252:84|252:84|184:40|152:120|80:56,1,225.000008583069,4|8,0:0|0:1,0:0:0:0:
95,67,56659,1,0,1:0:0:0:
44,140,56829,2,0,B|36:180|44:216|44:216|40:264,1,112.500004291535,0|0,3:3|3:3,0:0:0:0:
116,304,57340,1,8,0:1:0:0:
116,304,58022,6,0,B|140:252|132:212|132:212|144:160|144:160|132:104|152:64,1,225.000008583069,0|8,1:0|0:1,1:0:0:0:
144,84,59386,2,0,B|216:105|216:105|264:81|316:84,1,168.750006437302,0|0,1:0|1:0,0:0:0:0:
396,88,60068,1,8,0:1:0:0:
396,88,60579,1,8,0:1:0:0:
472,132,60750,6,4,B|440:192|440:192|344:184|368:248|300:264,1,225.000008583069,4|8,0:0|0:1,0:0:0:0:
308,261,62113,1,0,1:0:0:0:
236,204,62284,2,0,B|208:260|208:260|208:292|180:316,1,112.500004291535,0|0,3:3|3:3,0:0:0:0:
108,340,62795,1,8,0:1:0:0:
108,340,63477,6,0,B|114:286|80:252|80:252|59:195|59:195|31:163|34:115,1,225.000008583069,0|8,1:0|0:1,1:0:0:0:
220,48,64500,1,0,1:0:0:0:
220,48,65181,1,0,1:0:0:0:
360,228,65522,2,8,P|320:264|276:276,1,75,8|0,0:1|1:0,0:0:0:0:
208,184,65863,2,8,P|252:180|308:192,1,75,8|8,0:1|0:1,0:0:0:0:
240,348,66204,6,4,B|164:344|136:256|136:256|108:232|48:248,1,225.000008583069,4|8,0:0|0:1,0:0:0:0:
63,244,67568,1,0,1:0:0:0:
24,164,67738,2,0,B|48:124|52:84|52:84|68:52,1,112.500004291535,0|0,3:3|3:3,0:0:0:0:
152,32,68250,1,8,0:1:0:0:
152,32,68931,6,0,B|172:124|172:124|224:176|216:256,1,225.000008583069,0|8,1:0|0:1,1:0:0:0:
216,242,70295,1,0,1:0:0:0:
384,360,70806,2,0,L|384:284,1,56.2500021457673,0|8,3:3|0:1,0:0:0:0:
384,80,71488,6,0,L|364:44,2,28.1250010728836,0|0|4,0:0|0:0|0:0,0:0:0:0:
248,292,72170,1,0,3:3:0:0:
180,32,72681,1,0,3:3:0:0:
56,180,73022,5,0,0:0:0:0:
56,180,73193,2,8,P|28:236|60:352,1,168.750006437302,8|0,0:1|3:3,0:1:0:0:
264,268,74045,1,0,3:3:0:0:
264,268,74215,2,0,L|276:220,2,28.1250010728836,0|0|4,0:0|0:0|0:0,0:0:0:0:
256,192,74471,12,0,75750,0:0:0:0:
216,308,76431,5,0,0:0:0:0:
216,308,76602,1,0,0:0:0:0:
320,256,76772,2,8,B|260:232|272:196|272:196|320:188|324:160,1,134.999995880127,8|0,3:3|0:0,3:3:0:0:
392,196,77113,6,4,P|404:236|404:280,1,75,4|0,0:0|0:0,0:0:0:0:
368,352,77454,1,8,0:0:0:0:
280,336,77625,2,0,P|224:308|112:300,1,150,0|0,0:0|0:0,0:0:0:0:
56,256,78136,2,8,P|76:216|76:168,1,75,8|0,0:0|0:0,0:0:0:0:
32,108,78477,6,0,P|28:64|40:24,1,75,0|0,0:0|0:0,0:0:0:0:
116,76,78818,2,8,P|160:80|208:72,1,75,8|0,0:0|0:0,0:0:0:0:
360,60,79159,2,0,P|304:84|248:176,1,150,0|8,0:0|0:0,0:0:0:0:
380,304,79840,5,4,0:0:0:0:
452,120,80181,1,8,0:0:0:0:
296,240,80522,1,0,0:0:0:0:
268,48,80863,1,8,0:0:0:0:
268,48,81034,6,0,P|228:56|112:28,1,150
52,92,81545,2,8,L|72:176,1,75,8|0,0:0|0:0,0:0:0:0:
160,180,81886,2,0,L|180:264,1,75,0|8,0:0|0:0,0:0:0:0:
121,376,82227,2,0,L|104:304,1,75,0|8,0:0|0:0,0:0:0:0:
260,280,82568,6,0,P|280:240|288:188,1,75,0|0,0:0|0:0,0:0:0:0:
272,120,82909,1,8,0:0:0:0:
212,52,83079,2,0,P|168:72|100:152,1,150,0|0,0:0|0:0,0:0:0:0:
84,236,83590,2,8,P|44:216|12:168,1,75,8|0,0:0|0:0,0:0:0:0:
20,104,83931,6,0,P|40:68|76:36,1,75,0|0,0:0|0:0,0:0:0:0:
156,48,84272,2,8,P|192:76|240:84,1,75,8|0,0:0|0:0,0:0:0:0:
172,236,84613,2,0,P|208:188|304:148,1,150,0|8,0:0|0:0,0:0:0:0:
488,224,85295,5,4,0:0:0:0:
240,52,85636,1,8,0:0:0:0:
476,8,85977,1,0,0:0:0:0:
280,208,86318,1,8,0:0:0:0:
280,208,86488,6,0,P|308:256|416:320,1,150,0|0,0:0|0:0,0:0:0:0:
408,224,87000,2,8,P|388:176|392:132,1,75,8|0,0:0|0:0,0:0:0:0:
308,46,87340,2,0,P|346:48|380:64,1,75,0|8,0:0|0:0,0:0:0:0:
510,55,87681,2,0,P|490:86|460:108,1,75,0|8,0:0|0:0,0:0:0:0:
300,140,88022,6,4,L|216:132,1,75,4|0,0:0|0:0,0:0:0:0:
136,120,88363,1,8,0:0:0:0:
48,104,88534,2,0,P|84:144|116:260,1,150,0|0,0:0|0:0,0:0:0:0:
104,324,89045,2,8,P|140:344|180:352,1,75,8|0,0:0|0:0,0:0:0:0:
232,284,89386,6,0,P|272:264|316:256,1,75,0|0,0:0|0:0,0:0:0:0:
364,324,89727,2,8,P|400:331|437:328,1,75,8|0,0:0|0:0,0:0:0:0:
512,174,90068,2,0,P|439:186|384:236,1,150,0|8,0:0|0:0,0:0:0:0:
236,364,90750,5,4,0:0:0:0:
228,168,91090,1,8,0:0:0:0:
340,328,91431,1,0,0:0:0:0:
160,252,91772,1,8,0:0:0:0:
160,252,91943,6,0,P|144:188|56:124,1,150,0|0,0:0|0:0,0:0:0:0:
72,44,92454,2,8,P|112:48|180:32,1,75,8|0,0:0|0:0,0:0:0:0:
278,111,92795,2,0,P|241:107|204:112,1,75,0|8,0:0|0:0,0:0:0:0:
308,32,93136,2,0,L|400:20,1,75,0|8,0:0|0:0,0:0:0:0:
480,136,93477,6,0,P|436:128|392:96,1,75,0|0,0:0|0:0,0:0:0:0:
472,48,93818,1,8,0:0:0:0:
480,136,93988,2,0,P|488:200|472:296,1,150,0|0,0:0|0:0,0:0:0:0:
416,352,94500,2,8,P|384:312|368:268,1,75,8|0,0:0|0:0,0:0:0:0:
288,272,94840,6,0,P|268:308|260:356,1,75,0|0,0:0|0:0,0:0:0:0:
168,340,95181,2,8,L|64:356,1,75,8|0,0:0|0:0,0:0:0:0:
4,196,95522,2,0,B|80:228|80:228|172:216,1,150,0|8,0:0|0:0,0:0:0:0:
200,144,96034,6,0,P|184:96|236:4,1,150,4|0,0:0|0:0,0:0:0:0:
368,136,96545,2,8,P|336:184|220:212,2,150,8|0|8,0:0|0:0|0:0,0:0:0:0:
496,20,97397,6,0,P|424:16|332:64,1,150,0|0,0:0|0:0,0:0:0:0:
284,104,97909,2,0,P|252:80|224:40,1,75,8|0,0:0|0:0,0:0:0:0:
236,180,98250,2,8,L|220:264,1,75,0|8,0:0|0:0,0:0:0:0:
344,284,98590,2,8,L|328:368,1,75,0|0,0:0|0:0,0:0:0:0:
464,240,98931,6,12,P|432:204|420:156,1,75,12|0,0:0|0:0,0:0:0:0:
400,92,99272,2,8,L|328:52,1,75,8|0,0:0|0:0,0:0:0:0:
190,36,99613,2,8,P|220:58|248:84,1,75,8|0,0:0|0:0,0:0:0:0:
112,96,99954,2,8,P|68:72|36:32,1,75,8|0,0:0|0:0,0:0:0:0:
28,156,100295,6,8,L|32:252,1,75,8|0,0:0|0:0,0:0:0:0:
120,252,100636,2,8,P|136:292|144:344,1,75,8|0,0:0|0:0,0:0:0:0:
256,264,100977,2,8,P|232:312|224:368,1,75,8|0,0:0|0:0,0:0:0:0:
328,324,101318,1,8,0:0:0:0:
344,236,101488,1,0,0:0:0:0:
280,172,101659,6,0,B|248:136|236:92|236:96,2,75,12|0|8,0:0|0:0|0:0,0:0:0:0:
344,236,102170,1,0,0:0:0:0:
432,244,102340,2,0,B|479:234|523:245|519:243,2,75,8|0|8,0:0|0:0|0:0,0:0:0:0:
344,236,102852,1,0,0:0:0:0:
304,316,103022,6,8,B|288:361|256:394|260:392,1,75,8|0,0:0|0:0,0:0:0:0:
191,292,103363,2,8,B|176:301|218:281|248:244,1,75,8|0,0:0|0:0,0:0:0:0:
220,160,103704,2,8,B|178:185|133:189|137:190,1,75,8|0,0:0|0:0,0:0:0:0:
80,128,104045,1,8,0:0:0:0:
60,40,104215,1,8,0:0:0:0:
148,56,104386,6,12,L|232:36,1,75,12|0,0:0|0:0,0:0:0:0:
292,96,104727,2,8,P|336:116|388:116,1,75,8|0,0:0|0:0,0:0:0:0:
469,31,105068,2,8,P|432:28|396:36,1,75,8|0,0:0|0:0,0:0:0:0:
444,160,105409,2,8,P|416:192|364:208,1,75,8|0,0:0|0:0,0:0:0:0:
284,268,105750,6,8,L|380:292,1,75,8|0,0:0|0:0,0:0:0:0:
208,344,106090,2,8,L|304:368,1,75,8|0,0:0|0:0,0:0:0:0:
192,252,106431,2,8,L|96:276,1,75,8|0,0:0|0:0,0:0:0:0:
42,163,106772,2,8,L|116:176,1,75,8|0,0:0|0:0,0:0:0:0:
140,88,107113,6,0,B|176:80|216:44|220:44,2,75,12|0|8,0:0|0:0|0:0,0:0:0:0:
116,176,107625,1,0,0:0:0:0:
92,264,107795,2,8,L|73:336,1,75,8|0,0:0|0:0,0:0:0:0:
200,316,108136,2,8,L|181:243,1,75,8|0,0:0|0:0,0:0:0:0:
212,156,108477,5,8,0:0:0:0:
212,156,108647,1,0,0:0:0:0:
268,228,108818,2,8,P|308:248|352:252,1,75,8|0,0:0|0:0,0:0:0:0:
396,184,109159,2,8,P|392:140|408:100,1,75,8|8,0:0|0:0,0:0:0:0:
484,72,109500,1,8,0:0:0:0:
412,20,109670,1,8,0:0:0:0:
256,192,109755,12,0,112227,0:0:0:0:
