osu file format v14

[General]
AudioFilename: audio.mp3
AudioLeadIn: 0
PreviewTime: 44396
Countdown: 0
SampleSet: Soft
StackLeniency: 0.5
Mode: 0
LetterboxInBreaks: 0
WidescreenStoryboard: 0

[Editor]
DistanceSpacing: 2.2
BeatDivisor: 4
GridSize: 32
TimelineZoom: 1.9

[Metadata]
Title:Big City Life
TitleUnicode:Big City Life
Artist:Luude & Mattafix
ArtistUnicode:Luude & Mattafix
Creator:Dayno
Version:Metropolis
Source:
Tags:dnb d&b drum and bass d'n'b electronic dance music edm english remix Sweat It Out Signs of a Struggle jamaican patois
BeatmapID:3926807
BeatmapSetID:1904442

[Difficulty]
HPDrainRate:4.5
CircleSize:4.3
OverallDifficulty:9.2
ApproachRate:9.5
SliderMultiplier:1.6
SliderTickRate:1

[Events]
//Background and Video events
0,0,"gg.jpg",0,0
//Break Periods
2,99310,103448
//Storyboard Layer 0 (Background)
//Storyboard Layer 1 (Fail)
//Storyboard Layer 2 (Pass)
//Storyboard Layer 3 (Foreground)
//Storyboard Layer 4 (Overlay)
//Storyboard Sound Samples

[TimingPoints]
0,344.827586206897,4,2,1,100,1,0
22068,-133.333333333333,4,2,1,45,0,0
34913,-133.333333333333,4,2,1,5,0,0
35000,-133.333333333333,4,2,1,45,0,0
41379,-133.333333333333,4,2,1,60,0,0
44137,-43.4782608695652,4,2,1,70,0,0
44395,-43.4782608695652,4,2,1,5,0,0
44482,-52.6315789473684,4,2,1,70,0,0
45172,-38.4615384615385,4,2,1,70,0,0
45430,-38.4615384615385,4,2,1,5,0,0
45517,-43.4782608695652,4,2,1,70,0,0
45862,-52.6315789473684,4,2,1,70,0,0
46551,-43.4782608695652,4,2,1,70,0,0
46809,-43.4782608695652,4,2,1,5,0,0
46896,-38.4615384615385,4,2,1,70,0,0
47241,-52.6315789473684,4,2,1,70,0,0
47586,-50,4,2,1,70,0,0
47844,-50,4,2,1,5,0,0
47931,-50,4,2,1,70,0,0
48189,-50,4,2,1,5,0,0
48275,-52.6315789473684,4,2,1,70,0,0
48706,-52.6315789473684,4,2,1,5,0,0
48793,-52.6315789473684,4,2,1,70,0,0
49051,-52.6315789473684,4,2,1,5,0,0
49137,-52.6315789473684,4,2,1,70,0,0
49310,-50,4,2,1,70,0,0
49655,-43.4782608695652,4,2,1,70,0,0
49913,-43.4782608695652,4,2,1,5,0,0
50000,-52.6315789473684,4,2,1,70,0,0
50689,-38.4615384615385,4,2,1,70,0,0
50947,-38.4615384615385,4,2,1,5,0,0
51034,-43.4782608695652,4,2,1,70,0,0
51379,-52.6315789473684,4,2,1,70,0,0
52413,-43.4782608695652,4,2,1,70,0,0
52671,-43.4782608695652,4,2,1,5,0,0
52758,-37.037037037037,4,2,1,70,0,0
53103,-50,4,2,1,70,0,0
55172,-43.4782608695652,4,2,1,70,0,0
55430,-43.4782608695652,4,2,1,5,0,0
55517,-52.6315789473684,4,2,1,70,0,0
56206,-38.4615384615385,4,2,1,70,0,0
56464,-38.4615384615385,4,2,1,5,0,0
56551,-43.4782608695652,4,2,1,70,0,0
56809,-43.4782608695652,4,2,1,5,0,0
56896,-52.6315789473684,4,2,1,70,0,0
57586,-43.4782608695652,4,2,1,70,0,0
57844,-43.4782608695652,4,2,1,5,0,0
57931,-38.4615384615385,4,2,1,70,0,0
58189,-38.4615384615385,4,2,1,5,0,0
58275,-52.6315789473684,4,2,1,70,0,0
58620,-50,4,2,1,70,0,0
58878,-50,4,2,1,5,0,0
58965,-50,4,2,1,70,0,0
59223,-50,4,2,1,5,0,0
59310,-52.6315789473684,4,2,1,70,0,0
59741,-52.6315789473684,4,2,1,5,0,0
59827,-52.6315789473684,4,2,1,70,0,0
60085,-52.6315789473684,4,2,1,5,0,0
60172,-52.6315789473684,4,2,1,70,0,0
60689,-43.4782608695652,4,2,1,70,0,0
60947,-43.4782608695652,4,2,1,5,0,0
61034,-52.6315789473684,4,2,1,70,0,0
61724,-38.4615384615385,4,2,1,70,0,0
61982,-38.4615384615385,4,2,1,5,0,0
62068,-43.4782608695652,4,2,1,70,0,0
62413,-52.6315789473684,4,2,1,70,0,0
63448,-62.5,4,2,1,70,0,0
63706,-62.5,4,2,1,5,0,0
63793,-50,4,2,1,70,0,0
64827,-55.5555555555556,4,2,1,70,0,0
65344,-66.6666666666667,4,2,1,70,0,0
65862,-200,4,2,1,70,0,0
66120,-200,4,2,1,5,0,0
66206,-62.5,4,2,1,60,0,0
68189,-62.5,4,2,1,5,0,0
68275,-62.5,4,2,1,60,0,0
73706,-62.5,4,2,1,5,0,0
73793,-62.5,4,2,1,60,0,0
74395,-62.5,4,2,1,5,0,0
74482,-62.5,4,2,1,60,0,0
77241,-100,4,2,1,45,0,0
78620,-133.333333333333,4,2,1,45,0,0
78878,-133.333333333333,4,2,1,5,0,0
78965,-133.333333333333,4,2,1,45,0,0
88275,-133.333333333333,4,2,1,30,0,0
89310,-153.846153846153,4,2,1,30,0,0
92068,-285.714285714284,4,2,1,30,0,0
96551,-285.714285714284,4,2,1,50,0,0
104827,-111.111111111111,4,2,1,50,0,0
105085,-111.111111111111,4,2,1,5,0,0
105172,-111.111111111111,4,2,1,50,0,0
105862,-166.666666666667,4,2,1,50,0,0
106120,-166.666666666667,4,2,1,5,0,0
106206,-90.9090909090908,4,2,1,50,0,0
106551,-125,4,2,1,50,0,0
107154,-125,4,2,1,5,0,0
107241,-90.9090909090909,4,2,1,50,0,0
107499,-90.9090909090909,4,2,1,5,0,0
107586,-90.9090909090909,4,2,1,55,0,0
108965,-90.9090909090909,4,2,1,60,0,0
110344,-50,4,2,1,50,0,0
110431,-50,4,2,1,5,0,0
111379,-66.6666666666667,4,2,1,50,0,0
111551,-66.6666666666667,4,2,1,5,0,0
111724,-66.6666666666667,4,2,1,50,0,0
111896,-66.6666666666667,4,2,1,5,0,0
112758,-66.6666666666667,4,2,1,50,0,0
112931,-66.6666666666667,4,2,1,5,0,0
113103,-43.4782608695652,4,2,1,70,0,0
113361,-43.4782608695652,4,2,1,5,0,0
113448,-52.6315789473684,4,2,1,70,0,0
113793,-50,4,2,1,70,0,0
114051,-50,4,2,1,5,0,0
114137,-50,4,2,1,70,0,0
114482,-52.6315789473684,4,2,1,70,0,0
114913,-52.6315789473684,4,2,1,5,0,0
115000,-52.6315789473684,4,2,1,70,0,0
115258,-52.6315789473684,4,2,1,5,0,0
115344,-52.6315789473684,4,2,1,70,0,0
115862,-43.4782608695652,4,2,1,70,0,0
116120,-43.4782608695652,4,2,1,5,0,0
116206,-52.6315789473684,4,2,1,70,0,0
116896,-38.4615384615385,4,2,1,70,0,0
117154,-38.4615384615385,4,2,1,5,0,0
117241,-43.4782608695652,4,2,1,70,0,0
117499,-43.4782608695652,4,2,1,5,0,0
117586,-52.6315789473684,4,2,1,70,0,0
118620,-62.5,4,2,1,70,0,0
118878,-62.5,4,2,1,5,0,0
118965,-50,4,2,1,70,0,0
120000,-55.5555555555556,4,2,1,70,0,0
121379,-43.4782608695652,4,2,1,70,0,0
121637,-43.4782608695652,4,2,1,5,0,0
121724,-52.6315789473684,4,2,1,70,0,0
122413,-38.4615384615385,4,2,1,70,0,0
122671,-38.4615384615385,4,2,1,5,0,0
122758,-43.4782608695652,4,2,1,70,0,0
123103,-52.6315789473684,4,2,1,70,0,0
123793,-43.4782608695652,4,2,1,70,0,0
124051,-43.4782608695652,4,2,1,5,0,0
124137,-38.4615384615385,4,2,1,70,0,0
124396,-52.6315789473684,4,2,1,70,0,0
124827,-50,4,2,1,70,0,0
125085,-50,4,2,1,5,0,0
125172,-50,4,2,1,70,0,0
125430,-50,4,2,1,5,0,0
125517,-52.6315789473684,4,2,1,70,0,0
125948,-52.6315789473684,4,2,1,5,0,0
126034,-52.6315789473684,4,2,1,70,0,0
126292,-52.6315789473684,4,2,1,5,0,0
126379,-52.6315789473684,4,2,1,70,0,0
126896,-43.4782608695652,4,2,1,70,0,0
127154,-43.4782608695652,4,2,1,5,0,0
127241,-52.6315789473684,4,2,1,70,0,0
127931,-38.4615384615385,4,2,1,70,0,0
128189,-38.4615384615385,4,2,1,5,0,0
128275,-43.4782608695652,4,2,1,70,0,0
128620,-52.6315789473684,4,2,1,70,0,0
129655,-62.5,4,2,1,70,0,0
129913,-62.5,4,2,1,5,0,0
130000,-50,4,2,1,70,0,0
132413,-58.8235294117647,4,2,1,60,0,0
133706,-58.8235294117647,4,2,1,5,0,0
133793,-58.8235294117647,4,2,1,60,0,0
134740,-58.8235294117647,4,2,1,5,0,0
134827,-58.8235294117647,4,2,1,60,0,0
136464,-58.8235294117647,4,2,1,5,0,0
136551,-58.8235294117647,4,2,1,60,0,0
139223,-58.8235294117647,4,2,1,5,0,0
139310,-58.8235294117647,4,2,1,60,0,0
140689,-66.6666666666667,4,2,1,60,0,0
141379,-66.6666666666667,4,2,1,55,0,0
142068,-83.3333333333333,4,2,1,50,0,0
143448,-83.3333333333333,4,2,1,30,0,0

[Colours]
Combo1 : 196,9,176
Combo2 : 20,41,186
Combo3 : 193,22,250
Combo4 : 0,115,230

[HitObjects]
204,104,22068,6,0,L|343:72,2,120.000004577637,2|8|0,3:2|0:0|0:0,0:0:0:0:
204,104,22931,1,0,0:0:0:0:
282,166,23103,2,0,L|229:351,1,180.000006866455,10|0,0:0|0:0,0:0:0:0:
395,297,23793,2,0,P|337:265|321:266,1,60.0000022888184,10|0,0:0|0:0,0:0:0:0:
311,334,24137,2,0,P|369:366|385:365,1,60.0000022888184,2|0,0:0|3:2,0:0:0:0:
345,265,24482,1,10,0:0:0:0:
232,339,24655,1,2,0:0:0:0:
134,284,24827,6,0,L|102:143,2,120.000004577637,2|8|0,3:2|0:0|0:0,0:0:0:0:
134,284,25689,1,0,3:2:0:0:
295,175,25862,2,0,P|203:153|150:77,1,180.000006866455,10|0,0:0|0:0,0:0:0:0:
153,87,26551,1,10,0:0:0:0:
201,180,26896,5,2,0:0:0:0:
201,180,27068,2,0,L|220:249,1,60.0000022888184,2|8,3:2|0:0,0:0:0:0:
295,175,27413,2,0,P|335:129|337:112,1,60.0000022888184,2|0,0:0|3:2,0:0:0:0:
279,56,27758,2,0,P|239:102|237:119,1,60.0000022888184,2|8,0:0|0:0,0:0:0:0:
295,175,28103,2,0,L|423:209,1,120.000004577637,2|0,0:0|3:2,0:0:0:0:
341,304,28620,6,0,P|263:315|165:384,1,180.000006866455,10|0,0:0|0:0,0:0:0:0:
193,227,29310,2,0,P|259:294|346:302,1,180.000006866455,10|0,0:0|3:2,0:0:0:0:
410,205,30000,1,8,0:0:0:0:
0,127,30344,5,2,3:2:0:0:
90,283,30862,2,0,P|55:303|30:301,1,60.0000022888184,2|0,0:0|0:0,0:0:0:0:
13,231,31206,2,0,P|48:211|73:213,1,60.0000022888184,2|8,3:2|0:0,0:0:0:0:
163,307,31551,5,2,0:0:0:0:
163,307,31724,2,0,L|143:374,1,60.0000022888184,2|0,3:2|0:0,0:0:0:0:
223,217,32068,2,0,L|203:150,1,60.0000022888184,10|0,0:0|0:0,0:0:0:0:
291,286,32413,2,0,L|271:353,2,60.0000022888184,2|2|10,0:0|3:2|0:0,0:0:0:0:
175,43,33103,6,0,L|210:179,2,120.000004577637,2|8|0,3:2|0:0|0:0,0:0:0:0:
175,43,33965,1,0,3:2:0:0:
41,105,34137,2,0,P|151:119|214:171,1,180.000006866455,10|0,0:0|0:0,0:0:0:0:
201,176,34741,2,0,L|276:152,1,60.0000022888184,2|0,0:0|0:0,0:0:0:0:
377,291,35086,2,0,L|302:267,1,60.0000022888184,2|0,0:0|0:0,0:0:0:0:
310,269,35344,1,2,3:2:0:0:
405,85,35517,1,10,0:0:0:0:
378,206,35689,2,0,L|356:151,1,60.0000022888184,2|0,0:0|3:2,0:0:0:0:
210,299,36034,2,0,L|266:130,1,150.000005722046,2|2,0:0|0:0,0:0:0:0:
123,151,36724,5,0,3:2:0:0:
123,151,36896,2,0,L|361:62,1,240.000009155274,10|8,0:0|0:0,0:0:0:0:
227,28,37758,2,0,P|208:13|151:7,1,60.0000022888184,2|2,0:0|0:0,0:0:0:0:
195,124,38103,2,0,P|132:107|80:1,1,180.000006866455,2|2,0:0|3:2,0:0:0:0:
123,149,38793,6,0,P|60:166|8:272,1,180.000006866455,2|0,0:0|0:0,0:0:0:0:
7,261,39482,1,0,3:2:0:0:
113,352,39655,2,0,L|310:291,1,180.000006866455,10|0,0:0|0:0,0:0:0:0:
280,202,40344,2,0,L|108:148,1,180.000006866455,10|0,0:0|3:2,0:0:0:0:
228,317,41034,2,0,L|303:293,1,60.0000022888184,8|0,0:0|0:0,0:0:0:0:
406,223,41293,5,0,3:2:0:0:
414,229,41379,1,2,3:2:0:0:
414,180,41465,1,0,3:2:0:0:
387,140,41551,1,0,3:2:0:0:
343,123,41637,1,0,3:2:0:0:
298,131,41724,1,0,3:2:0:0:
252,141,41810,1,0,3:2:0:0:
207,124,41896,1,2,3:2:0:0:
182,84,41982,1,0,3:2:0:0:
182,35,42068,1,0,3:2:0:0:
216,0,42155,5,0,3:2:0:0:
257,42,42241,1,2,3:2:0:0:
279,100,42327,1,0,3:2:0:0:
271,162,42413,1,0,3:2:0:0:
237,215,42499,1,0,3:2:0:0:
183,248,42586,1,2,3:2:0:0:
120,246,42672,1,0,3:2:0:0:
66,212,42758,1,2,3:2:0:0:
43,149,42844,5,0,3:2:0:0:
98,111,42930,1,0,3:2:0:0:
163,99,43016,1,0,3:2:0:0:
227,115,43102,1,2,3:2:0:0:
279,154,43188,1,0,3:2:0:0:
314,209,43275,1,0,3:2:0:0:
321,276,43361,1,0,3:2:0:0:
301,338,43447,1,2,3:2:0:0:
238,361,43534,5,0,3:2:0:0:
278,292,43620,1,0,3:2:0:0:
354,267,43706,1,0,3:2:0:0:
427,298,43793,1,10,0:0:0:0:
33,29,44137,6,0,B|6:97|91:172|124:99|184:178|152:280,1,276.000005264282,6|0,3:2|0:0,0:0:0:0:
84,286,44482,6,0,P|105:314|150:327,1,75.9999979705811,8|0,0:0|0:0,0:0:0:0:
223,96,44655,1,2,0:0:0:0:
223,96,44741,1,2,0:0:0:0:
223,96,44827,2,0,P|187:107|164:137,1,75.9999979705811,2|2,0:0|0:0,0:0:0:0:
320,211,45000,2,0,P|331:174|317:139,1,75.9999979705811,0|0,3:2|0:0,0:0:0:0:
268,352,45172,6,0,B|238:292|238:292|320:309|320:309|324:327|324:327|490:359,1,311.999985717774,10|0,0:0|0:0,0:0:0:0:
234,273,45517,6,0,B|233:273|324:292|324:292|328:312|328:312|456:338,1,184.000003509522,2|2,3:2|0:0,0:0:0:0:
453,143,45775,5,0,0:0:0:0:
453,143,45862,2,0,P|480:174|479:214,1,75.9999979705811,10|0,0:0|0:0,0:0:0:0:
238,188,46034,1,2,0:0:0:0:
238,188,46120,1,2,0:0:0:0:
238,188,46206,2,0,P|198:119|218:30,1,151.999995941162,2|0,0:0|3:2,0:0:0:0:
306,7,46551,6,0,P|236:110|58:58,1,276.000005264282,10|0,0:0|0:0,0:0:0:0:
322,11,46896,6,0,P|260:117|115:118,1,207.999990478516,2|0,3:2|0:0,0:0:0:0:
134,0,47155,5,0,0:0:0:0:
134,0,47241,2,0,P|170:9|198:34,1,75.9999979705811,10|0,0:0|0:0,0:0:0:0:
27,166,47413,2,0,P|4:135|1:97,1,75.9999979705811,2|2,0:0|0:0,0:0:0:0:
198,34,47586,6,0,P|213:130|69:196,1,240
80,100,47931,2,0,P|122:187|26:151,1,240,10|0,0:0|0:0,0:0:0:0:
68,384,48275,6,0,P|53:288|286:278,1,379.999989852906,2|0,3:2|0:0,0:0:0:0:
143,364,48793,2,0,P|123:305|212:357,1,227.999993911743,2|0,0:0|0:0,0:0:0:0:
220,346,49137,1,0,3:2:0:0:
302,176,49310,1,10,0:0:0:0:
287,215,49396,1,2,0:0:0:0:
272,250,49482,1,2,0:0:0:0:
412,0,49655,6,0,B|468:-20|468:-20|375:226,1,276.000005264282,6|0,3:2|0:0,0:0:0:0:
272,250,50000,2,0,P|323:248|357:217,1,75.9999979705811,10|0,0:0|0:0,0:0:0:0:
105,84,50172,1,2,0:0:0:0:
105,84,50258,1,2,0:0:0:0:
105,84,50344,2,0,P|84:130|97:174,1,75.9999979705811,2|2,0:0|0:0,0:0:0:0:
323,32,50517,2,0,P|282:1|236:4,1,75.9999979705811,2|0,3:2|0:0,0:0:0:0:
251,361,50689,6,0,L|192:53,1,311.999985717774,10|0,0:0|0:0,0:0:0:0:
234,372,51034,6,0,L|197:191,1,184.000003509522,2|2,3:2|0:0,0:0:0:0:
346,315,51293,1,0,0:0:0:0:
346,315,51379,2,0,P|281:377|218:371,1,151.999995941162,10|2,0:0|0:0,0:0:0:0:
299,194,51637,1,2,0:0:0:0:
299,194,51724,2,0,P|341:215|361:251,1,75.9999979705811,2|2,0:0|0:0,0:0:0:0:
149,354,51896,2,0,P|134:309|145:268,1,75.9999979705811,0|0,3:2|0:0,0:0:0:0:
197,191,52068,1,10,0:0:0:0:
197,191,52413,6,0,P|311:211|391:78,1,276.000005264282,2|0,3:2|0:0,0:0:0:0:
180,37,52758,6,0,P|214:183|314:168,1,216.000000823975,14|2,0:0|0:0,0:0:0:0:
338,39,53017,1,2,0:0:0:0:
338,39,53103,2,0,P|307:5|256:3,1,80,2|2,0:0|0:0,0:0:0:0:
255,191,53275,1,10,0:0:0:0:
73,297,53448,5,2,0:0:0:0:
73,297,53534,1,2,0:0:0:0:
73,297,53620,2,0,P|104:331|155:333,1,80,2|2,0:0|0:0,0:0:0:0:
255,191,53793,1,10,0:0:0:0:
100,35,53965,5,2,0:0:0:0:
61,45,54051,1,2,0:0:0:0:
30,69,54137,1,2,0:0:0:0:
10,104,54224,1,2,0:0:0:0:
5,143,54310,1,10,0:0:0:0:
416,233,54482,5,2,0:0:0:0:
403,187,54568,1,2,0:0:0:0:
366,157,54655,1,2,0:0:0:0:
320,148,54741,1,2,0:0:0:0:
255,191,54827,1,10,0:0:0:0:
255,191,55172,6,0,P|332:195|418:35,1,276.000005264282,6|0,3:2|0:0,0:0:0:0:
403,187,55517,6,0,P|420:163|485:148,1,75.9999979705811,10|0,0:0|0:0,0:0:0:0:
184,73,55689,1,2,0:0:0:0:
184,73,55775,1,2,0:0:0:0:
184,73,55862,2,0,P|179:35|196:1,1,75.9999979705811,2|2,0:0|0:0,0:0:0:0:
281,20,56034,2,0,P|285:57|268:91,1,75.9999979705811,2|0,3:2|0:0,0:0:0:0:
21,246,56206,6,0,B|255:193|255:193|183:269,1,311.999985717774,10|0,0:2|0:0,0:0:0:0:
22,260,56551,6,0,B|190:221|190:221|119:311,1,276.000005264282,2|0,3:2|0:0,0:0:0:0:
30,159,56896,2,0,L|123:139,1,75.9999979705811,10|0,0:0|0:0,0:0:0:0:
318,45,57068,1,2,0:0:0:0:
281,20,57155,1,2,0:0:0:0:
230,33,57241,1,2,0:0:0:0:
194,5,57327,1,2,0:0:0:0:
152,17,57413,1,0,3:2:0:0:
341,208,57586,6,0,P|370:82|498:73,1,276.000005264282,10|0,0:0|0:0,0:0:0:0:
495,52,57931,6,0,P|351:85|325:230,1,311.999985717774,2|0,3:2|0:0,0:0:0:0:
487,258,58275,6,0,L|414:238,1,75.9999979705811,10|0,0:0|0:0,0:0:0:0:
327,308,58448,2,0,L|399:329,1,75.9999979705811,2|2,0:0|0:0,0:0:0:0:
508,142,58620,6,0,P|466:114|446:249,1,240,2|0,0:0|0:0,0:0:0:0:
489,270,58965,2,0,B|384:240|384:240|371:246|371:246|259:212,1,240,10|0,0:0|0:0,0:0:0:0:
250,127,59310,6,0,P|334:235|167:229,1,379.999989852906,2|0,3:2|0:0,0:0:0:0:
259,212,59827,2,0,B|164:180|164:180|156:157|156:157|38:120,1,227.999993911743,2|0,0:0|0:0,0:0:0:0:
42,123,60172,1,2,3:2:0:0:
345,218,60344,1,10,0:0:0:0:
381,230,60431,1,2,0:0:0:0:
420,241,60517,1,2,0:0:0:0:
157,49,60689,6,0,P|138:175|259:211,1,276.000005264282,6|0,3:2|0:0,0:0:0:0:
243,304,61034,2,0,P|323:275|340:188,1,151.999995941162,10|2,0:0|0:0,0:0:0:0:
105,142,61293,1,2,0:0:0:0:
105,142,61379,2,0,P|117:174|164:210,1,75.9999979705811,2|2,0:0|0:0,0:0:0:0:
338,31,61551,2,0,P|307:9|270:2,1,75.9999979705811,0|0,3:2|0:0,0:0:0:0:
498,207,61724,6,0,L|193:112,1,311.999985717774,10|0,0:0|0:0,0:0:0:0:
501,219,62068,6,0,L|325:164,1,184.000003509522,2|2,3:2|0:0,0:0:0:0:
364,378,62327,1,0,0:0:0:0:
364,378,62413,2,0,L|442:349,1,75.9999979705811,8|0,0:0|0:0,0:0:0:0:
147,202,62586,1,2,0:0:0:0:
147,202,62672,1,2,0:0:0:0:
147,202,62758,2,0,L|116:293,1,75.9999979705811,2|2,0:0|0:0,0:0:0:0:
401,64,62931,2,0,L|331:37,1,75.9999979705811,0|0,3:2|0:0,0:0:0:0:
287,221,63103,1,10,0:0:0:0:
409,202,63275,5,2,0:0:0:0:
349,162,63362,1,2,0:0:0:0:
455,140,63448,2,0,B|411:140|346:176|398:207|329:252|252:220,1,192,2|0,3:2|0:0,0:0:0:0:
19,47,63793,6,0,L|131:22,1,80,12|0,0:0|0:0,0:0:0:0:
349,162,63965,1,2,0:0:0:0:
301,153,64051,1,2,0:0:0:0:
253,144,64137,1,2,0:0:0:0:
206,136,64223,1,2,0:0:0:0:
155,125,64309,1,8,0:0:0:0:
190,250,64482,1,2,0:0:0:0:
214,242,64568,1,2,0:0:0:0:
238,235,64654,1,2,0:0:0:0:
263,228,64740,1,2,0:0:0:0:
287,221,64827,6,0,L|262:295,1,71.9999978027344,2|0,3:2|0:0,0:0:0:0:
338,301,65000,2,0,L|315:369,1,71.9999978027344,2|0,3:2|0:0,0:0:0:0:
174,384,65172,2,0,L|151:315,1,71.9999978027344,10|0,0:0|0:0,0:0:0:0:
32,187,65344,6,0,P|50:210|78:221,1,60.0000022888184,2|8,0:0|0:0,0:0:0:0:
97,71,65517,6,0,P|68:80|47:101,1,60.0000022888184,2|0,3:2|0:0,0:0:0:0:
147,182,65689,6,0,P|157:154|155:125,1,60.0000022888184,10|0,0:0|0:0,0:0:0:0:
211,62,65862,6,0,P|192:38|165:25,1,60.0000022888184,2|0,0:0|0:0,0:0:0:0:
154,124,66206,6,0,B|161:190|244:231|235:179|302:206|328:309,1,256,6|8,3:2|0:0,0:0:0:0:
347,89,66724,1,2,0:0:0:0:
315,81,66810,1,2,0:0:0:0:
283,84,66896,1,2,0:0:0:0:
255,99,66982,1,2,0:0:0:0:
235,124,67068,1,0,3:2:0:0:
401,198,67241,1,8,0:0:0:0:
230,305,67413,5,2,0:0:0:0:
230,305,67500,1,2,0:0:0:0:
230,305,67586,1,0,3:2:0:0:
386,312,67758,2,0,L|302:288,1,64,2|0,0:0|0:0,0:0:0:0:
230,305,67931,2,0,P|303:266|300:151,1,192,10|2,0:0|0:0,0:0:0:0:
298,173,68275,2,0,L|359:155,1,64,2|2,0:0|0:0,0:0:0:0:
352,77,68448,2,0,L|290:94,1,64,0|0,3:2|0:0,0:0:0:0:
222,145,68620,2,0,P|149:106|141:21,1,128,10|0,0:0|0:0,0:0:0:0:
14,122,68879,5,0,0:0:0:0:
14,122,68965,2,0,L|162:151,1,128,2|0,3:2|0:0,0:0:0:0:
317,336,69310,2,0,L|292:266,1,64,10|0,0:0|0:0,0:0:0:0:
278,207,69482,1,2,0:0:0:0:
380,295,69655,2,0,P|380:268|405:223,1,64,2|0,0:0|0:0,0:0:0:0:
405,239,69827,1,2,3:2:0:0:
246,351,70000,2,0,P|233:327|190:299,1,64,10|0,0:0|0:0,0:0:0:0:
192,317,70172,5,2,0:0:0:0:
192,317,70258,1,2,0:0:0:0:
192,317,70344,2,0,L|29:275,1,128,0|0,3:2|0:0,0:0:0:0:
163,192,70603,1,0,0:0:0:0:
163,192,70689,2,0,L|196:334,1,128,8|2,0:0|0:0,0:0:0:0:
42,216,70948,1,2,0:0:0:0:
42,216,71034,2,0,L|114:148,1,64,2|2,0:0|0:0,0:0:0:0:
46,104,71206,2,0,L|-26:172,1,64,0|0,3:2|0:0,0:0:0:0:
124,107,71379,1,8,0:0:0:0:
246,11,71551,5,2,0:0:0:0:
237,48,71637,1,2,0:0:0:0:
228,85,71724,2,0,B|286:55|286:55|63:18,1,256,2|8,3:2|0:0,0:0:0:0:
163,192,72241,1,2,0:0:0:0:
194,187,72327,1,2,0:0:0:0:
226,182,72413,1,2,0:0:0:0:
257,178,72499,1,2,0:0:0:0:
289,173,72585,1,0,3:2:0:0:
228,85,72758,1,8,0:0:0:0:
341,0,72931,5,2,0:0:0:0:
341,0,73017,1,2,0:0:0:0:
341,0,73103,1,0,3:2:0:0:
417,37,73275,2,0,L|393:117,1,64,2|0,0:0|0:0,0:0:0:0:
484,118,73448,2,0,P|406:119|387:229,1,192,10|0,0:0|0:0,0:0:0:0:
397,212,73793,1,2,0:0:0:0:
289,206,73965,2,0,L|313:286,1,64,2|0,3:2|0:0,0:0:0:0:
222,287,74137,2,0,P|300:288|319:398,1,192,8|0,0:0|0:0,0:0:0:0:
309,381,74482,5,2,3:2:0:0:
96,270,74655,1,0,0:0:0:0:
96,270,74741,1,0,0:0:0:0:
96,270,74827,2,0,L|72:184,1,64,10|0,0:0|0:0,0:0:0:0:
6,187,75000,1,2,0:0:0:0:
158,196,75172,2,0,L|134:110,1,64,2|0,0:0|0:0,0:0:0:0:
68,113,75345,1,2,3:2:0:0:
234,255,75517,2,0,L|268:71,1,128,10|0,0:0|0:0,0:0:0:0:
198,80,75775,5,0,0:0:0:0:
198,80,75862,1,0,3:2:0:0:
334,49,76034,1,2,0:0:0:0:
334,49,76120,1,2,0:0:0:0:
334,49,76206,2,0,P|387:40|448:95,1,128,8|0,0:0|0:0,0:0:0:0:
437,102,76465,1,10,0:0:0:0:
437,102,76551,1,2,0:0:0:0:
234,262,76724,2,0,L|252:180,1,64,0|0,3:2|0:0,0:0:0:0:
257,129,76896,1,8,0:0:0:0:
225,343,77068,5,2,0:0:0:0:
225,343,77155,1,2,0:0:0:0:
225,343,77241,2,0,L|200:236,2,80,4|0|8,3:2|3:2|0:0,0:0:0:0:
314,223,77758,2,0,L|324:175,2,40,2|2|2,0:0|0:0|0:0,0:0:0:0:
257,129,78103,1,0,3:2:0:0:
257,129,78275,1,8,0:0:0:0:
184,54,78448,5,2,0:0:0:0:
184,54,78534,1,2,0:0:0:0:
184,54,78620,2,0,P|120:67|91:92,1,90.0000034332277,0|0,3:2|0:0,0:0:0:0:
168,135,78965,2,0,P|150:173|149:204,1,60.0000022888184,10|0,0:0|0:0,0:0:0:0:
222,210,79310,2,0,P|240:172|241:141,1,60.0000022888184,2|0,0:0|3:2,0:0:0:0:
184,54,79655,1,10,0:0:0:0:
241,154,79827,1,2,0:0:0:0:
352,22,80000,6,0,P|409:35|453:75,2,120.000004577637,2|10|0,3:2|0:0|0:0,0:0:0:0:
352,22,80862,1,0,3:2:0:0:
333,211,81034,2,0,L|529:150,1,180.000006866455,10|0,0:0|0:0,0:0:0:0:
307,99,81724,2,0,L|275:176,1,60.0000022888184,10|0,0:0|0:0,0:0:0:0:
342,283,82068,1,2,0:0:0:0:
342,283,82241,2,0,L|365:338,1,60.0000022888184,2|8,3:2|0:0,0:0:0:0:
235,212,82586,6,0,P|206:197|153:204,1,60.0000022888184,2|0,0:0|3:2,0:0:0:0:
197,332,82931,2,0,P|228:322|260:279,1,60.0000022888184,2|8,0:0|0:0,0:0:0:0:
144,267,83275,2,0,P|103:332|116:388,1,120.000004577637,2|0,0:0|3:2,0:0:0:0:
197,332,83793,6,0,L|157:135,1,180.000006866455,10|0,0:0|0:0,0:0:0:0:
256,70,84482,2,0,L|216:267,1,180.000006866455,10|0,0:0|3:2,0:0:0:0:
220,246,85172,1,8,0:0:0:0:
470,74,85517,5,2,3:2:0:0:
381,215,86034,2,0,P|325:197|308:177,1,60.0000022888184,2|0,0:0|0:0,0:0:0:0:
348,125,86379,2,0,P|404:143|421:163,1,60.0000022888184,2|0,0:0|0:0,0:0:0:0:
317,279,86724,5,2,0:0:0:0:
317,279,86896,2,0,L|243:302,1,60.0000022888184,2|0,0:0|0:0,0:0:0:0:
159,119,87241,2,0,L|216:136,1,60.0000022888184,2|0,0:0|0:0,0:0:0:0:
93,248,87586,2,0,L|35:265,2,60.0000022888184,2|2|2,0:0|0:0|0:0,0:0:0:0:
458,344,88275,5,2,0:0:0:0:
458,344,89310,6,0,P|395:291|303:302,1,155.999992858887,2|0,0:0|0:0,0:0:0:0:
226,288,90000,2,0,P|307:273|341:73,1,311.999985717774,2|0,0:0|0:0,0:0:0:0:
259,3,92068,6,0,B|246:54|246:54|237:59|237:59|225:113,1,111.999996582031,2|2,0:0|0:0,0:0:0:0:
0,266,93793,5,2,0:0:0:0:
0,266,94827,6,0,P|35:239|81:236,1,83.9999974365235,2|0,0:0|0:0,0:0:0:0:
161,219,95517,2,0,P|94:225|35:145,1,167.999994873047,2|2,0:0|0:0,0:0:0:0:
282,104,104827,6,0,P|336:105|378:150,1,107.999996704102,2|0,3:2|0:0,0:0:0:0:
369,151,105172,1,2,0:0:0:0:
244,250,105344,1,2,0:0:0:0:
222,234,105430,1,2,0:0:0:0:
207,212,105516,1,2,0:0:0:0:
201,186,105602,1,2,0:0:0:0:
204,159,105689,1,2,0:0:0:0:
372,222,105862,2,0,P|343:260|305:268,1,71.9999978027344,2|0,0:0|0:0,0:0:0:0:
282,104,106206,5,2,3:2:0:0:
244,250,106379,1,2,0:0:0:0:
372,222,106551,1,2,0:0:0:0:
294,183,106724,1,0,0:0:0:0:
294,183,106810,1,0,0:0:0:0:
294,183,106896,2,0,L|401:220,1,96,2|0,0:0|0:0,0:0:0:0:
372,222,107241,2,0,P|371:293|417:330,1,132.00000402832,2|0,0:0|0:0,0:0:0:0:
453,245,107586,5,2,3:2:0:0:
463,189,107672,1,0,3:2:0:0:
445,138,107758,1,0,3:2:0:0:
400,104,107844,1,0,3:2:0:0:
346,99,107930,1,8,0:2:0:0:
297,122,108017,1,0,3:2:0:0:
268,170,108103,1,0,3:2:0:0:
237,218,108189,1,0,3:2:0:0:
192,254,108275,5,2,3:2:0:0:
126,264,108361,1,0,3:2:0:0:
64,236,108447,1,0,3:2:0:0:
28,179,108533,1,0,3:2:0:0:
24,114,108620,1,10,0:2:0:0:
59,56,108706,1,0,3:2:0:0:
117,28,108792,1,0,3:2:0:0:
185,34,108879,1,0,3:2:0:0:
226,91,108965,5,10,0:0:0:0:
284,104,109051,1,8,0:0:0:0:
342,117,109137,1,10,0:0:0:0:
401,131,109223,1,8,0:0:0:0:
459,144,109310,5,10,0:0:0:0:
386,159,109396,1,8,0:0:0:0:
313,175,109482,1,8,0:0:0:0:
239,190,109568,1,8,0:0:0:0:
166,206,109655,5,10,0:0:0:0:
252,231,109741,1,8,0:0:0:0:
339,256,109827,1,10,0:0:0:0:
425,281,109913,1,8,0:0:0:0:
364,340,109999,5,8,0:0:0:0:
37,101,110344,6,0,P|93:83|103:12,1,80,2|0,3:2|0:0,0:0:0:0:
37,101,111379,6,0,P|93:83|117:24,1,120.000004577637,2|0,0:0|0:0,0:0:0:0:
128,154,111724,2,0,P|122:211|167:268,1,120.000004577637,2|0,0:0|0:0,0:0:0:0:
490,57,112758,6,0,P|436:21|379:26,1,120.000004577637,2|0,0:0|0:0,0:0:0:0:
394,117,113103,6,0,B|369:271|369:271|356:284|356:284|336:406,1,276.000005264282,6|0,3:2|0:0,0:0:0:0:
275,259,113448,6,0,L|376:238,1,75.9999979705811,10|0,0:0|0:0,0:0:0:0:
169,357,113620,1,2,0:0:0:0:
169,357,113706,1,0,0:0:0:0:
169,357,113793,2,0,P|59:328|37:180,1,240,2|0,0:0|0:0,0:0:0:0:
178,257,114137,2,0,P|109:278|165:215,1,160,10|0,0:0|0:0,0:0:0:0:
0,149,114396,5,2,0:0:0:0:
0,149,114482,2,0,P|135:199|222:17,1,379.999989852906,2|0,3:2|0:0,0:0:0:0:
50,87,115000,2,0,P|105:130|85:20,1,227.999993911743,2|0,0:0|0:0,0:0:0:0:
117,31,115344,1,0,3:2:0:0:
200,171,115517,6,0,L|304:147,1,75.9999979705811,8|0,0:0|0:0,0:0:0:0:
357,146,115689,2,0,L|253:170,1,75.9999979705811,2|0,0:0|0:0,0:0:0:0:
260,357,115862,6,0,B|191:334|151:319|151:319|133:325|133:325|-8:276,1,276.000005264282,6|0,3:2|0:0,0:0:0:0:
108,223,116206,2,0,L|131:328,1,75.9999979705811,8|0,0:0|0:0,0:0:0:0:
364,348,116379,1,2,0:0:0:0:
350,304,116465,1,2,0:0:0:0:
319,271,116551,1,2,0:0:0:0:
276,256,116637,1,2,0:0:0:0:
231,261,116723,1,0,3:2:0:0:
7,172,116896,6,0,P|98:183|153:-12,1,311.999985717774,10|0,0:0|0:0,0:0:0:0:
36,201,117241,6,0,P|161:157|186:29,1,276.000005264282,2|0,3:2|0:0,0:0:0:0:
97,52,117586,2,0,P|64:62|32:96,1,75.9999979705811,8|0,0:0|0:0,0:0:0:0:
202,171,117758,1,2,0:2:0:0:
247,176,117844,1,2,0:2:0:0:
290,163,117930,1,2,0:2:0:0:
325,134,118016,1,2,0:2:0:0:
347,95,118102,1,0,3:2:0:0:
271,341,118275,1,8,0:0:0:0:
406,288,118448,5,2,0:0:0:0:
364,225,118534,1,2,0:0:0:0:
296,243,118620,2,0,L|518:301,1,192,2|0,3:2|0:0,0:0:0:0:
478,0,118965,6,0,L|351:16,1,80,14|0,0:0|0:0,0:0:0:0:
290,163,119137,1,2,0:0:0:0:
328,173,119223,1,2,0:0:0:0:
367,183,119309,1,2,0:0:0:0:
406,193,119395,1,2,0:0:0:0:
444,203,119481,1,8,0:0:0:0:
317,10,119655,1,2,0:0:0:0:
292,17,119741,1,2,0:0:0:0:
268,24,119827,1,2,0:0:0:0:
244,32,119913,1,2,0:0:0:0:
223,39,120000,6,0,L|197:130,1,71.9999978027344,10|0,0:0|0:0,0:0:0:0:
81,120,120172,2,0,L|55:29,1,71.9999978027344,0|0,3:2|0:0,0:0:0:0:
203,108,120344,2,0,L|177:199,1,71.9999978027344,2|0,3:2|0:0,0:0:0:0:
62,252,120517,2,0,L|138:230,1,71.9999978027344,8|0,0:0|0:0,0:0:0:0:
261,293,120689,2,0,L|196:246,1,71.9999978027344,2|0,3:2|0:0,3:0:0:0:
203,108,120862,2,0,L|177:199,1,71.9999978027344,0|0,3:2|0:0,0:0:0:0:
125,384,121034,5,10,0:0:0:0:
366,173,121379,6,0,B|390:118|390:118|137:190,1,276.000005264282,6|0,3:2|0:0,0:0:0:0:
139,34,121724,6,0,P|116:57|107:131,1,75.9999979705811,10|0,0:0|0:0,0:0:0:0:
85,291,121896,1,2,0:0:0:0:
85,291,121982,1,2,0:0:0:0:
85,291,122068,2,0,P|49:280|26:250,1,75.9999979705811,2|2,0:0|0:0,0:0:0:0:
182,177,122241,2,0,P|193:214|179:249,1,75.9999979705811,0|0,3:2|0:0,0:0:0:0:
6,53,122413,6,0,B|139:74|139:74|143:89|143:89|323:113,1,311.999985717774,10|0,0:0|0:0,0:0:0:0:
2,70,122758,6,0,B|99:85|99:85|102:96|102:96|234:113,1,184.000003509522,2|2,3:2|0:0,0:0:0:0:
265,17,123017,1,2,0:0:0:0:
265,17,123103,2,0,L|168:4,1,75.9999979705811,10|0,0:0|0:0,0:0:0:0:
272,202,123275,1,2,0:0:0:0:
272,202,123362,1,2,0:0:0:0:
272,202,123448,2,0,L|471:159,1,151.999995941162,2|0,0:0|3:2,0:0:0:0:
281,340,123793,6,0,P|151:327|111:203,1,276.000005264282,10|0,0:0|0:0,0:0:0:0:
275,350,124137,6,0,P|145:337|105:213,1,207.999990478516,2|0,3:2|0:0,0:0:0:0:
150,125,124396,5,2,0:0:0:0:
150,125,124482,2,0,P|176:103|256:114,1,75.9999979705811,10|0,0:0|0:0,0:0:0:0:
237,276,124655,2,0,P|201:264|175:237,1,75.9999979705811,2|0,0:0|0:0,0:0:0:0:
353,232,124827,6,0,P|314:291|429:259,1,240,2|0,0:0|0:0,0:0:0:0:
497,267,125172,2,0,B|392:237|392:237|379:243|379:243|267:209,1,240,10|0,0:0|0:0,0:0:0:0:
391,150,125517,6,0,P|414:284|269:201,1,379.999989852906
281,99,126034,2,0,B|381:126|381:126|389:149|389:149|487:176,1,227.999993911743,2|0,0:0|0:0,0:0:0:0:
498,170,126379,1,2,3:2:0:0:
209,98,126551,1,10,0:0:0:0:
170,87,126637,1,2,0:0:0:0:
134,75,126724,1,2,0:0:0:0:
30,259,126896,6,0,B|0:310|0:310|258:265,1,276.000005264282,6|0,3:2|0:0,0:0:0:0:
267,208,127241,2,0,P|225:182|184:185,1,75.9999979705811,10|0,0:0|0:0,0:0:0:0:
228,377,127413,1,2,0:0:0:0:
228,377,127500,1,2,0:0:0:0:
228,377,127586,2,0,P|265:372|295:350,1,75.9999979705811,2|2,0:0|0:0,0:0:0:0:
121,249,127758,2,0,P|110:285|120:321,1,75.9999979705811,2|0,3:2|0:0,0:0:0:0:
511,365,127931,6,0,L|206:270,1,311.999985717774,10|0,0:0|0:0,0:0:0:0:
512,354,128275,6,0,L|336:299,1,184.000003509522,2|2,3:2|0:0,0:0:0:0:
199,181,128534,5,0,0:0:0:0:
199,181,128620,2,0,L|278:204,1,75.9999979705811,10|0,0:0|0:0,0:0:0:0:
202,0,128793,1,2,0:0:0:0:
202,0,128879,1,2,0:0:0:0:
202,0,128965,2,0,L|144:49,1,75.9999979705811,2|2,0:0|0:0,0:0:0:0:
393,102,129137,2,0,L|359:34,1,75.9999979705811,0|0,3:2|0:0,0:0:0:0:
258,94,129309,1,10,3:2:0:0:
99,207,129482,5,2,0:0:0:0:
163,251,129569,1,2,0:0:0:0:
50,258,129655,2,0,B|116:236|116:236|132:245|132:245|257:208,1,192,2|0,3:2|0:0,0:0:0:0:
290,333,130000,6,0,P|328:322|357:296,1,80,14|0,0:0|0:0,0:0:0:0:
152,72,130172,1,2,0:0:0:0:
120,95,130258,1,2,0:0:0:0:
99,129,130344,1,2,0:0:0:0:
92,168,130430,1,2,0:0:0:0:
99,207,130516,1,10,0:0:0:0:
447,79,130689,1,2,0:0:0:0:
420,48,130775,1,2,0:0:0:0:
383,30,130861,1,2,0:0:0:0:
344,27,130947,1,2,0:0:0:0:
271,56,131034,6,0,P|242:94|241:137,1,80,10|0,0:0|0:0,0:0:0:0:
290,333,131206,2,0,P|328:322|357:296,1,80,2|2,0:0|0:0,0:0:0:0:
475,185,131379,2,0,P|445:158|407:148,1,80,2|2,0:0|0:0,0:0:0:0:
266,37,131551,5,10,0:0:0:0:
238,82,131637,1,2,0:0:0:0:
218,131,131723,1,2,0:0:0:0:
204,183,131809,1,2,0:0:0:0:
198,236,131895,1,2,0:0:0:0:
199,289,131982,1,2,0:0:0:0:
219,361,132068,5,10,0:0:0:0:
0,126,132413,6,0,L|97:100,1,68.0000012969971,6|0,3:2|0:0,0:0:0:0:
122,173,132586,2,0,L|25:199,1,68.0000012969971
0,18,132758,2,0,L|167:51,1,136.000002593994,10|0,0:0|0:0,0:0:0:0:
172,113,133017,1,2,0:0:0:0:
172,113,133103,1,2,0:0:0:0:
294,69,133275,1,2,3:2:0:0:
419,15,133448,2,0,L|372:227,1,204.000003890991,10|0,0:0|0:0,0:0:0:0:
356,219,133793,6,0,L|377:140,1,68.0000012969971,0|0,3:2|0:0,0:0:0:0:
247,232,133965,1,0,0:0:0:0:
172,113,134137,1,10,0:0:0:0:
318,359,134310,1,2,0:0:0:0:
318,359,134396,1,2,0:0:0:0:
318,359,134482,2,0,P|248:287|147:307,1,204.000003890991,2|0,0:0|0:0,0:0:0:0:
139,312,134827,2,0,L|186:184,1,136.000002593994,10|0,0:0|0:0,0:0:0:0:
310,32,135172,6,0,L|331:106,1,68.0000012969971,0|0,3:2|0:0,0:0:0:0:
248,148,135344,2,0,L|227:74,1,68.0000012969971
166,29,135517,1,10,0:0:0:0:
328,182,135689,1,2,0:0:0:0:
376,168,135775,1,2,0:0:0:0:
409,131,135861,1,2,0:0:0:0:
415,81,135947,1,2,0:0:0:0:
393,36,136033,1,0,3:2:0:0:
248,148,136206,2,0,P|281:260|393:235,1,204.000003890991,10|0,0:0|0:0,0:0:0:0:
355,275,136551,6,0,L|423:239,1,68.0000012969971,2|0,3:2|0:0,0:0:0:0:
195,320,136724,2,0,L|159:389,1,68.0000012969971,2|0,0:0|0:0,0:0:0:0:
167,182,136896,2,0,L|129:114,1,68.0000012969971,10|0,0:0|0:0,0:0:0:0:
12,294,137068,1,2,0:0:0:0:
12,294,137155,1,2,0:0:0:0:
12,294,137241,2,0,L|167:259,2,136.000002593994,2|2|8,0:0|3:2|0:0,0:0:0:0:
1,92,137758,5,2,0:0:0:0:
1,92,137844,1,2,0:0:0:0:
1,92,137931,2,0,L|156:127,1,136.000002593994,6|0,3:2|0:0,0:0:0:0:
240,233,138275,2,0,L|422:185,1,136.000002593994,10|0,0:0|0:0,0:0:0:0:
433,246,138534,1,2,0:0:0:0:
433,246,138620,2,0,L|407:325,1,68.0000012969971,2|0,0:0|0:0,0:0:0:0:
286,136,138793,1,2,3:2:0:0:
428,2,138965,2,0,L|358:242,1,204.000003890991,10|0,0:0|0:0,0:0:0:0:
370,197,139310,5,0,0:0:0:0:
240,233,139482,1,2,0:0:0:0:
295,382,139655,1,10,0:0:0:0:
270,309,139827,1,2,0:0:0:0:
220,314,139913,1,2,0:0:0:0:
176,290,139999,1,2,0:0:0:0:
154,245,140085,1,2,0:0:0:0:
162,195,140171,1,0,3:2:0:0:
411,310,140344,1,10,0:0:0:0:
411,310,140689,6,0,L|489:287,1,60.0000022888184,0|0,3:2|0:0,0:0:0:0:
455,206,140862,2,0,L|533:183,1,60.0000022888184,0|0,3:2|0:0,0:0:0:0:
346,263,141034,2,0,L|288:246,1,60.0000022888184,8|0,0:0|0:0,0:0:0:0:
378,189,141206,1,2,0:0:0:0:
378,189,141293,1,2,0:0:0:0:
378,189,141379,2,0,P|411:116|456:108,1,120.000004577637,2|0,0:0|3:2,0:0:0:0:
380,0,141724,2,0,P|305:28|267:2,1,120.000004577637,10|0,0:0|0:0,0:0:0:0:
267,132,142068,5,2,3:2:0:0:
267,132,142241,1,2,3:2:0:0:
267,132,142413,2,0,L|174:188,1,95.9999970703126,10|0,0:0|0:0,0:0:0:0:
114,125,142758,1,2,0:0:0:0:
114,125,142931,2,0,L|78:227,1,95.9999970703126,2|0,3:2|0:0,0:0:0:0:
0,190,143275,1,2,0:0:0:0:
0,190,143448,1,2,0:0:0:0:
